osu file format v14

[General]
AudioFilename: audio.mp3
AudioLeadIn: 0
PreviewTime: 42591
Countdown: 1
SampleSet: Normal
StackLeniency: 1
Mode: 0
LetterboxInBreaks: 0
WidescreenStoryboard: 1

[Editor]
Bookmarks: 145257
DistanceSpacing: 1
BeatDivisor: 4
GridSize: 4
TimelineZoom: 2.3

[Metadata]
Title:Pastel Rain
TitleUnicode:パステルレイン
Artist:Sangatsu no Phantasia
ArtistUnicode:三月のパンタシア
Creator:deetz
Version:Advanced
Source:
Tags:japanese rock pop Mia Shota Horie Yumao ガールズブルー・ハッピーサッド ガールズブルー ハッピーサッド girl's blue happy sad みあ 堀江 晶太
BeatmapID:2224258
BeatmapSetID:1060431

[Difficulty]
HPDrainRate:3
CircleSize:3
OverallDifficulty:4
ApproachRate:5
SliderMultiplier:1.6
SliderTickRate:1

[Events]
//Background and Video events
0,0,"maxresdefault.jpg",0,0
//Break Periods
2,71480,84502
2,149902,159390
//Storyboard Layer 0 (Background)
//Storyboard Layer 1 (Fail)
//Storyboard Layer 2 (Pass)
//Storyboard Layer 3 (Foreground)
//Storyboard Layer 4 (Overlay)
//Storyboard Sound Samples

[TimingPoints]
369,444.444444444444,4,1,0,70,1,0
14591,-100,4,1,0,70,0,0
16368,-100,4,1,0,50,0,0
28813,-100,4,3,0,50,0,0
35368,-100,4,3,0,52,0,0
35702,-100,4,3,0,54,0,0
35924,-100,4,3,0,56,0,0
36591,-100,4,3,0,58,0,0
37257,-100,4,3,0,60,0,0
37924,-100,4,3,0,62,0,0
39480,-100,4,1,0,65,0,0
40368,-100,4,1,0,50,0,0
41257,-100,4,1,0,50,0,0
43035,-100,4,1,0,70,0,1
46591,-100,4,1,0,70,0,1
60813,-100,4,1,0,70,0,1
69702,-100,4,1,0,70,0,0
71480,-100,4,1,0,70,0,0
85702,-100,4,1,0,70,0,0
86591,-100,4,1,0,70,0,0
87480,-100,4,1,0,50,0,0
99924,-100,4,3,0,50,0,0
110591,-100,4,1,0,50,0,0
111480,-100,4,1,0,50,0,0
112368,-100,4,1,0,50,0,0
114146,-100,4,1,0,70,0,1
131924,-100,4,1,0,70,0,1
140813,-100,4,1,0,50,0,0
141702,-100,4,1,0,50,0,0
147924,-100,4,1,0,50,0,0
149702,444.444444444444,7,1,0,70,1,0
149702,-100,7,1,0,70,0,0
163924,444.444444444444,4,1,0,70,1,0
163924,-100,4,2,0,40,0,0
171035,-100,4,2,0,40,0,0
176146,-100,4,1,0,70,0,0
177257,-100,4,1,0,70,0,0
177924,-100,4,1,0,70,0,0
178146,-100,4,1,0,70,0,1
181701,-100,4,1,0,70,0,1
190590,-100,4,1,0,70,0,0
192368,-100,4,1,0,70,0,0

[Colours]
Combo1 : 255,94,55
Combo2 : 173,255,95
Combo3 : 17,254,176
Combo4 : 255,88,100

[HitObjects]
175,192,369,5,4,0:0:0:0:
175,192,2146,5,4,0:0:0:0:
175,192,3480,1,4,0:3:0:0:
337,192,3924,5,4,0:0:0:0:
337,192,5702,6,0,P|333:260|318:329,1,120,12|12,0:0|0:0,0:0:0:0:
212,356,6368,2,0,P|172:356|132:362,1,80,12|4,0:0|0:3,0:0:0:0:
76,305,6813,2,0,P|46:316|-10:325,2,80,8|8|0,0:0|0:0|0:0,0:0:0:0:
75,265,7368,1,0,0:0:0:0:
72,224,7480,6,0,P|133:189|198:189,1,120,4|2,0:0|0:3,0:0:0:0:
274,263,8146,2,0,P|342:303|421:313,1,160,0|0,0:0|0:0,0:0:0:0:
480,258,8813,1,10,0:0:0:0:
507,100,9257,6,0,P|480:76|391:52,1,120,0|2,0:0|0:3,0:0:0:0:
284,81,9924,2,0,B|227:63|193:130|126:104,1,160,0|0,0:0|0:0,0:0:0:0:
53,83,10591,1,10,0:0:0:0:
1,234,11035,6,0,P|49:269|136:261,1,120,4|2,0:2|0:3,0:0:0:0:
223,324,11702,1,0,0:0:0:0:
223,324,11924,2,0,P|303:326|333:336,1,80,0|0,0:0|0:0,0:0:0:0:
310,246,12368,2,0,P|313:206|308:166,1,80,10|8,0:0|0:3,0:0:0:0:
288,131,12702,1,8,0:3:0:0:
262,100,12813,5,4,0:2:0:0:
256,192,13035,12,4,14591,0:0:0:0:
262,100,15924,5,8,0:3:0:0:
105,134,16368,6,0,P|91:180|122:254,1,120,4|2,0:2|0:3,0:0:0:0:
140,320,16924,1,2,0:3:0:0:
219,316,17146,2,0,B|319:288|298:359|435:331,1,200,2|0,0:3|0:0,0:0:0:0:
482,202,18146,6,0,P|448:158|371:146,1,120,4|2,0:3|0:3,0:0:0:0:
307,152,18702,1,2,0:3:0:0:
229,171,18924,2,0,L|88:207,1,120,2|2,0:3|0:3,0:0:0:0:
35,224,19480,1,0,0:0:0:0:
166,314,19924,6,0,P|231:317|299:330,1,120,4|2,0:3|0:3,0:0:0:0:
363,341,20480,2,0,P|430:349|456:349,1,80,2|0,0:3|0:3,0:0:0:0:
465,231,21035,1,2,0:0:0:0:
481,152,21257,2,0,P|414:144|388:144,1,80,2|8,0:0|0:3,0:0:0:0:
363,73,21702,6,0,B|251:68|295:180|135:159,2,240,4|0|2,0:0|0:0|0:0,0:0:0:0:
401,143,23257,1,8,0:3:0:0:
381,220,23480,6,0,P|374:268|356:345,1,120,4|2,0:2|0:3,0:0:0:0:
278,344,24035,2,0,P|212:348|178:351,2,80,2|2|0,0:3|0:3|0:0,0:0:0:0:
236,232,24813,5,2,0:0:0:0:
204,160,25035,1,8,0:3:0:0:
217,81,25257,6,0,P|262:60|366:104,1,160,4|2,0:0|0:3,0:0:0:0:
405,249,26146,2,0,P|342:294|266:277,1,160,0|4,0:0|0:2,0:0:0:0:
111,315,27035,5,12,0:2:0:0:
87,156,27480,2,0,P|150:111|226:128,1,160,4|4,0:3|0:3,0:0:0:0:
300,99,28146,2,0,P|293:54|305:13,2,80,4|4|4,0:3|0:3|0:3,0:0:0:0:
358,153,28813,6,0,P|347:245|205:293,1,240,4|4,1:1|0:0,0:0:0:0:
146,274,29702,1,0,0:0:0:0:
52,144,30146,6,0,P|63:52|205:4,1,240,4|4,0:0|0:0,0:0:0:0:
240,58,31035,1,0,0:0:0:0:
278,213,31480,2,0,B|278:303|226:275|231:384,1,160,0|2,0:0|0:1,0:0:0:0:
83,301,32368,6,0,P|50:244|148:120,1,240,4|4,0:0|0:0,0:0:0:0:
221,137,33257,1,0,0:0:0:0:
353,226,33702,6,0,P|441:155|412:46,1,240,4|4,0:0|0:0,0:0:0:0:
333,29,34591,1,0,0:0:0:0:
234,154,35035,2,0,P|154:157|74:158,1,160,10|0,0:3|0:0,0:0:0:0:
68,318,35924,6,0,P|128:324|236:334,1,160,6|0,0:2|0:0,0:0:0:0:
308,340,36591,1,6,0:0:0:0:
388,348,36813,1,0,0:0:0:0:
465,208,37257,6,0,P|405:214|297:224,1,160,2|0,0:0|0:0,0:0:0:0:
225,230,37924,1,6,0:0:0:0:
145,238,38146,1,0,0:0:0:0:
17,140,38591,6,0,P|21:90|129:40,1,160,2|0,0:2|0:0,0:0:0:0:
268,42,39480,6,0,P|322:43|417:53,2,120,6|2|2,0:0|0:0|0:0,0:0:0:0:
201,86,40368,1,6,0:0:0:0:
127,228,40813,6,0,L|107:294,2,40,8|8|8,0:3|0:3|0:3,0:0:0:0:
256,192,41257,12,4,42146,0:0:0:0:
283,186,43035,6,0,P|186:170|135:195,2,120,4|0|2,0:0|0:0|0:0,0:0:0:0:
329,251,43924,2,0,P|325:308|327:334,1,80,0|2,0:0|0:0,0:0:0:0:
406,336,44368,1,0,0:0:0:0:
460,277,44591,1,2,0:0:0:0:
476,198,44813,6,0,P|476:142|485:67,2,120,4|2|2,0:2|0:3|0:0,0:0:0:0:
396,190,45702,2,0,P|364:149|254:136,1,160,2|8,0:0|0:3,0:0:0:0:
156,253,46591,6,0,P|117:283|23:275,2,120,4|0|2,0:0|0:0|0:0,0:0:0:0:
123,179,47480,2,0,P|116:133|107:95,1,80,0|2,0:0|0:0,0:0:0:0:
152,33,47924,2,0,P|198:40|236:49,1,80,0|2,0:0|0:0,0:0:0:0:
310,42,48368,6,0,P|377:32|465:28,2,120,4|0|2,0:2|0:0|0:0,0:0:0:0:
276,114,49257,2,0,B|264:248|319:196|303:363,1,240,2|0,0:0|0:0,0:0:0:0:
223,349,50146,6,0,P|169:347|92:346,2,120,4|0|2,0:0|0:0|0:0,0:0:0:0:
224,268,51035,5,0,0:0:0:0:
195,151,51368,1,0,0:0:0:0:
166,34,51702,1,2,0:0:0:0:
98,77,51924,6,0,P|99:125|101:262,1,160,4|0,0:2|0:0,0:0:0:0:
98,317,52591,1,2,0:0:0:0:
176,302,52813,2,0,P|283:293|420:382,1,240,0|2,0:0|0:0,0:0:0:0:
447,291,53702,6,0,P|457:230|472:173,1,120,6|0,0:0|0:0,0:0:0:0:
404,74,54368,1,2,0:0:0:0:
323,79,54591,2,0,P|271:83|150:87,1,160,4|4,0:2|0:2,0:0:0:0:
83,90,55257,1,4,0:3:0:0:
256,192,55480,12,2,56368,0:3:0:0:
186,228,57257,6,0,P|142:202|67:209,2,120,4|0|2,0:0|0:0|0:0,0:0:0:0:
265,218,58146,2,0,P|322:210|353:202,1,80,0|2,0:0|0:0,0:0:0:0:
418,174,58591,2,0,P|475:182|506:190,1,80,0|2,0:0|0:0,0:0:0:0:
506,266,59035,6,0,P|497:321|436:338,1,120,4|0,0:2|0:0,0:0:0:0:
321,327,59702,1,2,0:0:0:0:
241,318,59924,2,0,P|176:324|73:338,1,160,2|8,0:0|0:3,0:0:0:0:
70,257,60591,1,8,0:3:0:0:
63,177,60813,6,0,P|50:120|34:48,2,120,4|0|2,0:0|0:0|0:0,0:0:0:0:
136,144,61702,2,0,P|206:142|228:148,1,80,4|2,0:0|0:0,0:0:0:0:
271,200,62146,1,0,0:0:0:0:
350,194,62368,1,2,0:0:0:0:
384,121,62591,6,0,P|370:56|293:31,1,120,4|0,0:2|0:0,0:0:0:0:
208,12,63257,1,2,0:0:0:0:
134,43,63480,2,0,P|84:33|28:28,2,80,2|2|4,0:0|0:2|0:3,0:0:0:0:
119,121,64146,1,0,0:0:0:0:
102,199,64368,6,0,P|94:249|73:325,2,120,4|0|2,0:0|0:0|0:0,0:0:0:0:
178,176,65257,2,0,P|238:183|290:298,1,160,4|0,0:0|0:0,0:0:0:0:
286,339,65924,1,2,0:0:0:0:
365,329,66146,6,0,P|421:321|492:320,1,120,4|0,0:0|0:0,0:0:0:0:
472,199,66813,1,2,0:0:0:0:
461,119,67035,5,4,0:0:0:0:
346,154,67368,1,0,0:0:0:0:
231,189,67702,1,2,0:0:0:0:
256,192,67924,12,4,69702,0:0:0:0:
339,131,85702,5,4,0:0:0:0:
339,131,87480,6,0,P|293:117|219:148,1,120,4|2,0:2|0:3,0:0:0:0:
147,152,88036,1,2,0:3:0:0:
70,174,88258,2,0,B|98:274|27:253|55:390,1,200,2|2,0:3|0:3,0:0:0:0:
211,374,89258,6,0,P|255:340|267:263,1,120,4|0,0:3|0:0,0:0:0:0:
278,199,89814,1,2,0:3:0:0:
222,141,90036,2,0,L|258:0,1,120,2|2,0:3|0:3,0:0:0:0:
331,24,90592,1,0,0:0:0:0:
480,80,91036,6,0,P|477:145|444:205,1,120,4|2,0:3|0:3,0:0:0:0:
405,258,91592,2,0,P|365:260|325:266,1,80,2|2,0:3|0:3,0:0:0:0:
206,276,92147,1,2,0:3:0:0:
146,222,92369,2,0,P|79:214|53:214,1,80,0|8,0:0|0:0,0:0:0:0:
63,133,92814,6,0,B|175:138|131:26|291:47,2,240,4|0|2,0:2|0:0|0:3,0:0:0:0:
66,213,94369,1,2,0:3:0:0:
66,293,94592,6,0,P|114:294|193:302,1,120,4|2,0:3|0:3,0:0:0:0:
263,317,95146,1,2,0:3:0:0:
340,335,95368,2,0,P|401:349|487:341,1,120,2|2,0:3|0:3,0:0:0:0:
475,268,95925,5,0,0:0:0:0:
476,188,96147,1,6,0:3:0:0:
451,111,96369,6,0,P|382:73|307:95,1,160,4|2,0:2|0:3,0:0:0:0:
324,255,97258,2,0,P|261:300|185:283,1,160,2|2,0:3|0:3,0:0:0:0:
60,181,98147,5,8,0:0:0:0:
143,44,98592,2,0,P|219:29|280:77,1,160,4|8,0:3|0:0,0:0:0:0:
276,156,99257,1,8,0:3:0:0:
253,233,99480,2,0,P|281:297|315:321,1,80,4|4,0:3|0:3,0:0:0:0:
365,320,99925,6,0,P|449:236|414:117,1,240,4|0,1:0|0:0,0:0:0:0:
353,89,100814,1,0,0:0:0:0:
198,48,101257,6,0,P|114:132|149:251,1,240,0|0,0:0|0:0,0:0:0:0:
210,279,102146,1,0,0:0:0:0:
356,345,102592,2,0,B|446:345|418:293|527:298,1,160,0|2,0:0|0:1,0:0:0:0:
509,137,103480,6,0,P|437:48|328:78,1,240,4|0,0:0|0:0,0:0:0:0:
298,153,104369,1,0,0:0:0:0:
229,297,104813,6,0,P|116:309|60:210,1,240,0|0,0:0|0:0,0:0:0:0:
104,143,105702,1,0,0:0:0:0:
155,82,105924,2,0,L|146:25,2,40,8|8|8,0:1|0:1|0:1,0:0:0:0:
194,84,106257,2,0,P|257:83|306:86,1,80,4|4,0:2|0:2,0:0:0:0:
385,24,106813,2,0,L|392:64,1,40,8|8,0:1|0:1,0:0:0:0:
413,98,107035,6,0,P|407:158|397:266,1,160,2|0,0:0|0:0,0:0:0:0:
395,337,107702,1,2,0:0:0:0:
315,347,107924,2,0,P|255:353|147:363,1,160,0|2,0:0|0:0,0:0:0:0:
106,298,108591,1,0,0:0:0:0:
98,218,108813,2,0,P|85:143|80:130,2,80,0|2|0,0:0|0:0|0:0,0:0:0:0:
258,211,109702,5,4,3:3:0:0:
208,59,110146,2,0,L|151:52,2,40,8|8|8,0:1|0:1|0:3,0:0:0:0:
288,60,110592,6,0,P|342:59|437:49,2,120,6|6|2,0:0|0:0|0:0,0:0:0:0:
249,129,111480,1,4,0:0:0:0:
296,282,111925,2,0,L|316:348,2,40,4|4|4,0:3|0:3|0:3,0:0:0:0:
217,276,112368,6,0,P|155:270|70:258,1,120,6|6,0:0|0:0,0:0:0:0:
67,146,113035,1,6,0:0:0:0:
47,68,113257,1,6,0:0:0:0:
206,51,113702,1,0,0:0:0:0:
365,38,114146,6,0,P|423:29|480:48,2,120,4|0|2,0:0|0:0|0:0,0:0:0:0:
360,118,115035,2,0,P|356:175|358:201,1,80,0|2,0:0|0:0,0:0:0:0:
397,266,115479,1,0,0:0:0:0:
352,332,115702,1,2,0:0:0:0:
272,329,115924,6,0,P|216:329|141:338,2,120,4|0|2,0:2|0:0|0:0,0:0:0:0:
267,248,116813,2,0,P|235:207|125:194,1,160,2|0,0:0|0:0,0:0:0:0:
22,75,117702,6,0,P|63:33|122:22,2,120,4|0|2,0:0|0:0|0:0,0:0:0:0:
12,154,118591,2,0,P|17:193|19:233,1,80,0|2,0:0|0:0,0:0:0:0:
29,312,119035,2,0,P|75:319|113:328,1,80,0|2,0:0|0:0,0:0:0:0:
187,329,119479,6,0,P|254:319|342:315,2,120,0|0|2,0:0|0:0|0:0,0:0:0:0:
159,253,120368,2,0,P|172:187|351:129,1,240,2|4,0:0|0:3,0:0:0:0:
362,51,121257,6,0,P|416:49|493:48,2,120,4|0|2,0:0|0:0|0:0,0:0:0:0:
286,23,122146,5,0,0:0:0:0:
166,20,122479,1,0,0:0:0:0:
101,121,122813,1,2,0:0:0:0:
21,125,123035,6,0,P|22:173|24:310,1,160,4|0,0:2|0:0,0:0:0:0:
103,276,123702,1,2,0:0:0:0:
182,268,123924,2,0,P|244:255|443:223,1,240,0|2,0:0|0:0,0:0:0:0:
460,157,124813,6,0,P|478:100|435:39,1,120,6|0,0:0|0:0,0:0:0:0:
332,36,125479,1,2,0:0:0:0:
252,26,125702,2,0,P|191:60|207:156,1,160,4|4,0:2|0:2,0:0:0:0:
256,192,126368,1,4,0:3:0:0:
256,192,126591,12,0,127479,0:0:0:0:
326,150,128368,6,0,P|357:233|342:287,2,120,4|0|2,0:0|0:0|0:0,0:0:0:0:
246,135,129257,2,0,P|206:126|167:121,1,80,0|2,0:0|0:0,0:0:0:0:
92,149,129702,2,0,P|52:157|13:162,1,80,0|2,0:0|0:0,0:0:0:0:
16,242,130146,6,0,P|30:301|88:307,1,120,4|0,0:2|0:0,0:0:0:0:
201,296,130813,1,2,0:0:0:0:
280,306,131035,2,0,P|359:316|438:324,1,160,2|8,0:0|0:3,0:0:0:0:
447,244,131702,1,8,0:3:0:0:
437,164,131924,6,0,P|424:107|408:35,2,120,4|0|2,0:0|0:0|0:0,0:0:0:0:
366,203,132813,2,0,P|326:208|286:203,1,80,4|2,0:0|0:0,0:0:0:0:
209,181,133257,1,0,0:0:0:0:
129,183,133479,1,2,0:0:0:0:
49,170,133702,6,0,P|23:231|71:295,1,120,4|0,0:2|0:0,0:0:0:0:
157,313,134368,1,2,0:0:0:0:
233,336,134591,2,0,P|272:341|311:349,2,80,2|2|4,0:0|0:2|0:3,0:0:0:0:
251,258,135257,1,0,0:0:0:0:
277,182,135479,6,0,P|292:124|302:65,2,120,4|0|2,0:0|0:0|0:0,0:0:0:0:
198,164,136368,2,0,P|122:162|79:243,1,160,4|0,0:0|0:0,0:0:0:0:
126,290,137035,1,2,0:0:0:0:
198,322,137257,6,0,P|254:314|325:313,1,120,4|0,0:0|0:0,0:0:0:0:
309,192,137924,1,2,0:0:0:0:
304,112,138146,5,4,0:0:0:0:
422,128,138479,1,0,0:0:0:0:
477,21,138813,1,2,0:0:0:0:
256,192,139035,12,4,140813,0:0:0:0:
324,140,141702,6,0,P|380:132|452:132,2,120,8|4|4,0:0|0:3|0:3,0:0:0:0:
256,96,142591,5,4,0:0:0:0:
188,244,144368,1,4,0:0:0:0:
188,244,145257,2,0,P|132:252|60:252,2,120,8|4|4,0:0|0:3|0:3,0:0:0:0:
256,288,146146,5,4,0:0:0:0:
256,288,147702,2,0,L|301:297,2,40,0|0|4,0:0|0:0|0:0,0:0:0:0:
256,192,148146,12,4,149702,0:2:0:0:
256,192,160590,12,0,162146,0:0:0:0:
197,123,163924,6,0,P|244:104|320:123,2,120,2|0|0,0:0|0:0|0:0,0:0:0:0:
151,188,164812,2,0,P|102:205|66:203,2,80,0|0|0,0:0|0:0|0:0,0:0:0:0:
308,216,165701,6,0,P|363:202|499:315,1,240,2|0,0:0|0:0,0:0:0:0:
432,352,166590,1,0,0:0:0:0:
112,359,167479,6,0,P|69:309|80:226,2,120,2|0|0,0:0|0:0|0:0,0:0:0:0:
173,306,168368,2,0,P|218:291|260:288,1,80,0|0,0:0|0:0,0:0:0:0:
329,276,168812,1,0,0:0:0:0:
395,130,169257,6,0,P|348:104|265:86,2,120,2|0|0,0:0|0:0|0:0,0:0:0:0:
469,159,170146,1,0,0:0:0:0:
193,321,171035,5,2,0:3:0:0:
193,321,171924,2,0,P|124:312|61:307,2,120,0|0|0,0:0|0:0|0:0,0:0:0:0:
232,251,172812,2,0,P|246:150|192:92,1,160,2|0,0:0|0:0,0:0:0:0:
140,76,173479,1,0,0:0:0:0:
61,91,173701,1,0,0:0:0:0:
33,329,174368,1,0,0:0:0:0:
112,335,174590,6,0,P|174:346|239:358,2,120,2|0|2,0:0|0:0|0:0,0:0:0:0:
99,255,175479,2,0,P|166:191|323:234,1,240,2|0,0:0|0:0,0:0:0:0:
326,244,176257,1,4,0:3:0:0:
332,283,176368,5,0,0:3:0:0:
332,283,178146,6,0,P|352:227|399:191,2,120,4|0|2,0:0|0:0|0:0,0:0:0:0:
253,298,179035,2,0,P|196:290|165:282,1,80,0|2,0:0|0:0,0:0:0:0:
124,221,179480,2,0,P|84:212|45:207,1,80,0|2,0:0|0:0,0:0:0:0:
17,132,179924,6,0,P|26:77|87:60,1,120,4|0,2:0|0:0,0:0:0:0:
199,83,180591,1,2,0:0:0:0:
277,96,180813,2,0,P|356:85|435:77,1,160,2|8,0:0|0:3,0:0:0:0:
473,148,181480,1,8,0:3:0:0:
460,226,181702,6,0,P|446:284|433:343,2,120,4|0|2,0:0|0:0|0:0,0:0:0:0:
382,203,182591,2,0,P|342:197|302:202,1,80,4|2,0:0|0:0,0:0:0:0:
236,248,183035,1,0,0:0:0:0:
158,228,183257,1,2,0:0:0:0:
80,207,183479,6,0,P|69:256|46:342,2,120,4|0|2,2:0|0:0|0:0,0:0:0:0:
70,127,184368,2,0,P|77:78|90:37,1,80,2|0,0:0|0:0,0:0:0:0:
165,51,184812,1,0,0:0:0:0:
242,71,185035,1,0,0:0:0:0:
319,91,185257,6,0,P|369:99|445:120,2,120,4|0|2,0:0|0:0|0:0,0:0:0:0:
300,169,186146,2,0,P|282:259|268:351,1,160,4|0,0:3|0:0,0:0:0:0:
192,338,186813,1,2,0:0:0:0:
133,283,187035,6,0,P|73:284|13:292,1,120,4|0,0:3|0:0,0:0:0:0:
7,172,187702,1,2,0:0:0:0:
7,92,187924,5,4,0:0:0:0:
125,110,188257,1,0,0:0:0:0:
238,71,188591,1,2,0:0:0:0:
256,192,188813,12,4,190591,0:0:0:0:
160,272,192368,6,0,L|152:144,1,120,4|4,0:0|0:0,0:0:0:0:
268,124,193035,2,0,L|276:228,1,80,4|4,0:0|0:3,0:0:0:0:
280,284,193479,1,8,0:3:0:0:
360,300,193701,2,8,L|348:356,2,40,8|8|8,0:3|0:3|0:3,0:3:0:0:
440,316,194146,5,4,0:0:0:0:
