osu file format v14

[General]
AudioFilename: audio.mp3
AudioLeadIn: 0
PreviewTime: 42588
Countdown: 0
SampleSet: Normal
StackLeniency: 0.7
Mode: 1
LetterboxInBreaks: 0
WidescreenStoryboard: 1

[Editor]
Bookmarks: 369,16368,28813,43035,71480,87480,99924,114146,149702,163924,178146,194146
DistanceSpacing: 1.1
BeatDivisor: 4
GridSize: 4
TimelineZoom: 1

[Metadata]
Title:Pastel Rain
TitleUnicode:パステルレイン
Artist:Sangatsu no Phantasia
ArtistUnicode:三月のパンタシア
Creator:Seren58
Version:Oni
Source:
Tags:j-pop jrock j-rock japanese rock pop jpop Mia Shota Horie Yumao ガールズブルー・ハッピーサッド ガールズブルー ハッピーサッド girl's blue happy sad みあ 堀江 晶太 kemu
BeatmapID:2821978
BeatmapSetID:1364117

[Difficulty]
HPDrainRate:5.5
CircleSize:5
OverallDifficulty:5.5
ApproachRate:5
SliderMultiplier:1.4
SliderTickRate:1

[Events]
//Background and Video events
0,0,"bg.jpg",0,120
//Break Periods
//Storyboard Layer 0 (Background)
//Storyboard Layer 1 (Fail)
//Storyboard Layer 2 (Pass)
//Storyboard Layer 3 (Foreground)
//Storyboard Layer 4 (Overlay)
//Storyboard Sound Samples

[TimingPoints]
366,444.444444444444,4,1,0,75,1,0
366,-100,4,1,0,75,0,0
28921,-102.040816326531,4,1,0,73,0,0
29143,-104.166666666667,4,1,0,71,0,0
29365,-106.382978723404,4,1,0,69,0,0
29588,-108.695652173913,4,1,0,67,0,0
29921,-111.111111111111,4,1,0,65,0,0
35810,-105.263157894737,4,1,0,70,0,0
38532,-104.166666666667,4,1,0,71,0,0
38643,-103.092783505155,4,1,0,72,0,0
38754,-102.040816326531,4,1,0,73,0,0
38865,-101.010101010101,4,1,0,74,0,0
38977,-100,4,1,0,75,0,0
39199,-98.0392156862745,4,1,0,77,0,0
39421,-96.1538461538461,4,1,0,79,0,0
39588,-95.2380952380952,4,1,0,80,0,0
42921,-90.9090909090909,4,1,0,90,0,0
43032,-90.9090909090909,4,1,0,90,0,1
69699,-90.9090909090909,4,1,0,90,0,0
69921,-100,4,1,0,20,0,0
71143,-100,4,1,0,75,0,0
100032,-102.040816326531,4,1,0,73,0,0
100254,-104.166666666667,4,1,0,71,0,0
100477,-106.382978723404,4,1,0,69,0,0
100699,-108.695652173913,4,1,0,67,0,0
101032,-111.111111111111,4,1,0,65,0,0
106754,-109.051254089422,4,1,0,67,0,0
106977,-105.263157894737,4,1,0,70,0,0
109643,-104.166666666667,4,1,0,71,0,0
109754,-103.092783505155,4,1,0,72,0,0
109865,-102.040816326531,4,1,0,73,0,0
109976,-101.010101010101,4,1,0,74,0,0
110088,-100,4,1,0,75,0,0
110310,-98.0392156862745,4,1,0,77,0,0
110532,-96.1538461538461,4,1,0,79,0,0
110699,-95.2380952380952,4,1,0,80,0,0
114032,-90.9090909090909,4,1,0,90,0,0
114143,-90.9090909090909,4,1,0,90,0,1
140810,-90.9090909090909,4,1,0,90,0,0
141032,-100,4,1,0,20,0,0
141588,-100,4,1,0,75,0,0
149699,444.444444444444,7,1,0,75,1,0
162143,-100,7,1,0,20,0,0
163254,-111.111111111111,7,1,0,55,0,0
163921,444.444444444444,4,1,0,75,1,0
163921,-111.111111111111,4,1,0,55,0,0
175921,-100,4,1,0,75,0,0
177143,-86.9565217391304,4,1,0,90,0,0
178143,-86.9565217391304,4,1,0,90,0,1
190587,-86.9565217391304,4,1,0,90,0,0
190809,-100,4,1,0,20,0,0
191920,-100,4,1,0,75,0,0

[HitObjects]
256,192,366,5,6,0:0:0:0:
256,192,2143,1,6,0:0:0:0:
256,192,3477,1,0,0:0:0:0:
256,192,3921,1,6,0:0:0:0:
256,192,5477,1,0,0:0:0:0:
256,192,5699,1,6,0:0:0:0:
256,192,6032,1,6,0:0:0:0:
256,192,6365,1,6,0:0:0:0:
256,192,6588,1,0,0:0:0:0:
256,192,6699,1,0,0:0:0:0:
256,192,6810,1,2,0:0:0:0:
256,192,6921,1,2,0:0:0:0:
256,192,7032,1,2,0:0:0:0:
256,192,7254,1,0,0:0:0:0:
256,192,7477,1,6,0:0:0:0:
256,192,7810,1,0,0:0:0:0:
256,192,7921,1,2,0:0:0:0:
256,192,8143,1,2,0:0:0:0:
256,192,8365,1,0,0:0:0:0:
256,192,8477,1,0,0:0:0:0:
256,192,8588,1,0,0:0:0:0:
256,192,8810,1,2,0:0:0:0:
256,192,9254,1,0,0:0:0:0:
256,192,9588,1,0,0:0:0:0:
256,192,9699,1,2,0:0:0:0:
256,192,9921,1,0,0:0:0:0:
256,192,10143,1,2,0:0:0:0:
256,192,10254,1,2,0:0:0:0:
256,192,10365,1,0,0:0:0:0:
256,192,10588,1,2,0:0:0:0:
256,192,11032,1,0,0:0:0:0:
256,192,11365,1,0,0:0:0:0:
256,192,11477,1,2,0:0:0:0:
256,192,11699,1,2,0:0:0:0:
256,192,11921,1,0,0:0:0:0:
256,192,12032,1,0,0:0:0:0:
256,192,12143,1,0,0:0:0:0:
256,192,12365,1,2,0:0:0:0:
256,192,12810,1,0,0:0:0:0:
256,192,12921,1,0,0:0:0:0:
256,192,13143,1,6,0:0:0:0:
256,192,13365,1,6,0:0:0:0:
256,192,13588,1,6,0:0:0:0:
256,192,13810,1,0,0:0:0:0:
256,192,13921,1,0,0:0:0:0:
256,192,14143,1,6,0:0:0:0:
256,192,14588,1,4,0:0:0:0:
256,192,15921,1,2,0:0:0:0:
256,192,16143,1,0,0:0:0:0:
256,192,16365,1,6,0:0:0:0:
256,192,16810,1,2,0:0:0:0:
256,192,17032,1,2,0:0:0:0:
256,192,17254,1,0,0:0:0:0:
256,192,17365,1,0,0:0:0:0:
256,192,17477,1,0,0:0:0:0:
256,192,17699,1,2,0:0:0:0:
256,192,17921,1,2,0:0:0:0:
256,192,18143,1,0,0:0:0:0:
256,192,18588,1,2,0:0:0:0:
256,192,18810,1,0,0:0:0:0:
256,192,19032,1,2,0:0:0:0:
256,192,19143,1,2,0:0:0:0:
256,192,19254,1,0,0:0:0:0:
256,192,19477,1,2,0:0:0:0:
256,192,19699,1,0,0:0:0:0:
256,192,19921,1,2,0:0:0:0:
256,192,20143,1,0,0:0:0:0:
256,192,20254,1,0,0:0:0:0:
256,192,20365,1,2,0:0:0:0:
256,192,20588,1,2,0:0:0:0:
256,192,20810,1,0,0:0:0:0:
256,192,20921,1,0,0:0:0:0:
256,192,21032,1,0,0:0:0:0:
256,192,21254,1,2,0:0:0:0:
256,192,21699,1,6,0:0:0:0:
256,192,22144,1,2,0:0:0:0:
256,192,22366,1,2,0:0:0:0:
256,192,22588,1,0,0:0:0:0:
256,192,22699,1,0,0:0:0:0:
256,192,22811,1,0,0:0:0:0:
256,192,23033,1,2,0:0:0:0:
256,192,23255,1,2,0:0:0:0:
256,192,23477,1,0,0:0:0:0:
256,192,23922,1,2,0:0:0:0:
256,192,24144,1,0,0:0:0:0:
256,192,24366,1,2,0:0:0:0:
256,192,24477,1,2,0:0:0:0:
256,192,24588,1,0,0:0:0:0:
256,192,24811,1,2,0:0:0:0:
256,192,25033,1,0,0:0:0:0:
256,192,25255,1,2,0:0:0:0:
256,192,25699,1,2,0:0:0:0:
256,192,25922,1,2,0:0:0:0:
256,192,26144,1,0,0:0:0:0:
256,192,26255,1,0,0:0:0:0:
256,192,26366,1,0,0:0:0:0:
256,192,26588,1,6,0:0:0:0:
256,192,26810,1,0,0:0:0:0:
256,192,27032,1,2,0:0:0:0:
256,192,27143,1,2,0:0:0:0:
256,192,27254,1,0,0:0:0:0:
256,192,27477,1,0,0:0:0:0:
256,192,27699,1,2,0:0:0:0:
256,192,27921,1,0,0:0:0:0:
256,192,28032,1,0,0:0:0:0:
256,192,28143,1,0,0:0:0:0:
256,192,28254,1,0,0:0:0:0:
256,192,28365,1,2,0:0:0:0:
256,192,28588,1,0,0:0:0:0:
256,192,28810,1,6,0:0:0:0:
256,192,29143,1,2,0:0:0:0:
256,192,29477,1,0,0:0:0:0:
256,192,29810,1,0,0:0:0:0:
256,192,30143,1,2,0:0:0:0:
256,192,30477,1,2,0:0:0:0:
256,192,30810,1,0,0:0:0:0:
256,192,31143,1,2,0:0:0:0:
256,192,31477,1,0,0:0:0:0:
256,192,31699,1,0,0:0:0:0:
256,192,31921,1,2,0:0:0:0:
256,192,32365,1,0,0:0:0:0:
256,192,32699,1,0,0:0:0:0:
256,192,33032,1,2,0:0:0:0:
256,192,33365,1,2,0:0:0:0:
256,192,33699,1,0,0:0:0:0:
256,192,34032,1,0,0:0:0:0:
256,192,34365,1,2,0:0:0:0:
256,192,34699,1,0,0:0:0:0:
256,192,35032,5,2,0:0:0:0:
256,192,35365,1,0,0:0:0:0:
256,192,35477,1,0,0:0:0:0:
256,192,35699,1,0,0:0:0:0:
256,192,35921,1,6,0:0:0:0:
256,192,36254,1,2,0:0:0:0:
256,192,36365,1,0,0:0:0:0:
256,192,36588,1,2,0:0:0:0:
256,192,36810,1,0,0:0:0:0:
256,192,37254,1,2,0:0:0:0:
256,192,37588,1,2,0:0:0:0:
256,192,37699,1,0,0:0:0:0:
256,192,37921,1,2,0:0:0:0:
256,192,38143,1,0,0:0:0:0:
256,192,38254,1,0,0:0:0:0:
256,192,38365,1,0,0:0:0:0:
256,192,38588,1,2,0:0:0:0:
256,192,38699,1,2,0:0:0:0:
256,192,38810,1,2,0:0:0:0:
256,192,38921,1,2,0:0:0:0:
256,192,39032,1,0,0:0:0:0:
256,192,39254,1,0,0:0:0:0:
256,192,39477,1,6,0:0:0:0:
256,192,39810,1,4,0:0:0:0:
256,192,40143,1,6,0:0:0:0:
256,192,40365,1,4,0:0:0:0:
256,192,40810,1,0,0:0:0:0:
256,192,41032,1,0,0:0:0:0:
256,192,41254,1,6,0:0:0:0:
256,192,41588,1,4,0:0:0:0:
256,192,41921,1,6,0:0:0:0:
256,192,42143,1,4,0:0:0:0:
256,192,43032,1,6,0:0:0:0:
256,192,43365,1,2,0:0:0:0:
256,192,43477,1,0,0:0:0:0:
256,192,43699,1,2,0:0:0:0:
256,192,43921,1,0,0:0:0:0:
256,192,44032,1,0,0:0:0:0:
256,192,44143,1,2,0:0:0:0:
256,192,44365,1,0,0:0:0:0:
256,192,44588,1,2,0:0:0:0:
256,192,44810,1,0,0:0:0:0:
256,192,45143,1,2,0:0:0:0:
256,192,45254,1,0,0:0:0:0:
256,192,45477,1,2,0:0:0:0:
256,192,45699,1,0,0:0:0:0:
256,192,46143,1,2,0:0:0:0:
256,192,46365,1,2,0:0:0:0:
256,192,46588,1,0,0:0:0:0:
256,192,46921,1,2,0:0:0:0:
256,192,47032,1,0,0:0:0:0:
256,192,47254,1,2,0:0:0:0:
256,192,47477,1,0,0:0:0:0:
256,192,47588,1,0,0:0:0:0:
256,192,47699,1,2,0:0:0:0:
256,192,47921,1,0,0:0:0:0:
256,192,48143,1,2,0:0:0:0:
256,192,48365,1,0,0:0:0:0:
256,192,48699,1,2,0:0:0:0:
256,192,48810,1,0,0:0:0:0:
256,192,49032,1,2,0:0:0:0:
256,192,49254,1,0,0:0:0:0:
256,192,49477,1,0,0:0:0:0:
256,192,49699,1,2,0:0:0:0:
256,192,50143,1,6,0:0:0:0:
256,192,50365,1,0,0:0:0:0:
256,192,50477,1,2,0:0:0:0:
256,192,50588,1,0,0:0:0:0:
256,192,50810,1,2,0:0:0:0:
256,192,51032,1,0,0:0:0:0:
256,192,51365,1,2,0:0:0:0:
256,192,51477,1,0,0:0:0:0:
256,192,51699,1,2,0:0:0:0:
256,192,51921,1,2,0:0:0:0:
256,192,52365,1,0,0:0:0:0:
256,192,52588,1,2,0:0:0:0:
256,192,52810,1,0,0:0:0:0:
256,192,52921,1,0,0:0:0:0:
256,192,53032,1,0,0:0:0:0:
256,192,53254,1,2,0:0:0:0:
256,192,53699,1,2,0:0:0:0:
256,192,54032,1,2,0:0:0:0:
256,192,54143,1,0,0:0:0:0:
256,192,54365,1,2,0:0:0:0:
256,192,54588,1,0,0:0:0:0:
256,192,54699,1,0,0:0:0:0:
256,192,54810,1,0,0:0:0:0:
256,192,55032,1,2,0:0:0:0:
256,192,55254,1,0,0:0:0:0:
256,192,55365,1,0,0:0:0:0:
256,192,55477,1,2,0:0:0:0:
256,192,55699,1,2,0:0:0:0:
256,192,55921,1,2,0:0:0:0:
256,192,56032,1,2,0:0:0:0:
256,192,56254,1,2,0:0:0:0:
256,192,56477,1,2,0:0:0:0:
256,192,56699,1,0,0:0:0:0:
256,192,56810,1,0,0:0:0:0:
256,192,57032,1,0,0:0:0:0:
256,192,57254,1,6,0:0:0:0:
256,192,57588,1,0,0:0:0:0:
256,192,57699,1,2,0:0:0:0:
256,192,57921,1,2,0:0:0:0:
256,192,58032,1,2,0:0:0:0:
256,192,58143,1,0,0:0:0:0:
256,192,58365,1,2,0:0:0:0:
256,192,58588,1,0,0:0:0:0:
256,192,58810,1,2,0:0:0:0:
256,192,59032,1,0,0:0:0:0:
256,192,59365,1,2,0:0:0:0:
256,192,59477,1,0,0:0:0:0:
256,192,59699,1,2,0:0:0:0:
256,192,59921,1,0,0:0:0:0:
256,192,60032,1,0,0:0:0:0:
256,192,60143,1,0,0:0:0:0:
256,192,60365,1,2,0:0:0:0:
256,192,60810,1,0,0:0:0:0:
256,192,61143,1,2,0:0:0:0:
256,192,61254,1,0,0:0:0:0:
256,192,61477,1,2,0:0:0:0:
256,192,61588,1,2,0:0:0:0:
256,192,61699,1,0,0:0:0:0:
256,192,61921,1,2,0:0:0:0:
256,192,62143,1,0,0:0:0:0:
256,192,62365,1,0,0:0:0:0:
256,192,62588,1,2,0:0:0:0:
256,192,62921,1,2,0:0:0:0:
256,192,63032,1,0,0:0:0:0:
256,192,63254,1,0,0:0:0:0:
256,192,63365,1,2,0:0:0:0:
256,192,63477,1,0,0:0:0:0:
256,192,63699,1,2,0:0:0:0:
256,192,63921,1,0,0:0:0:0:
256,192,64365,1,6,0:0:0:0:
256,192,64699,1,0,0:0:0:0:
256,192,64810,1,2,0:0:0:0:
256,192,65032,1,2,0:0:0:0:
256,192,65254,1,0,0:0:0:0:
256,192,65699,1,2,0:0:0:0:
256,192,65921,1,2,0:0:0:0:
256,192,66143,1,0,0:0:0:0:
256,192,66477,1,2,0:0:0:0:
256,192,66588,1,0,0:0:0:0:
256,192,66810,1,0,0:0:0:0:
256,192,67032,1,2,0:0:0:0:
256,192,67365,1,0,0:0:0:0:
256,192,67477,1,2,0:0:0:0:
256,192,67699,1,0,0:0:0:0:
256,192,67921,1,6,0:0:0:0:
256,192,68143,1,2,0:0:0:0:
256,192,68365,1,0,0:0:0:0:
256,192,68477,1,0,0:0:0:0:
256,192,68588,1,2,0:0:0:0:
256,192,68810,1,2,0:0:0:0:
256,192,69032,1,0,0:0:0:0:
256,192,69254,1,2,0:0:0:0:
256,192,69365,1,2,0:0:0:0:
256,192,69477,1,2,0:0:0:0:
256,192,69588,1,2,0:0:0:0:
256,192,69699,1,0,0:0:0:0:
256,192,71254,1,2,0:0:0:0:
256,192,71365,1,2,0:0:0:0:
256,192,71477,1,0,0:0:0:0:
256,192,71810,1,0,0:0:0:0:
256,192,71921,1,2,0:0:0:0:
256,192,72143,1,2,0:0:0:0:
256,192,72365,1,0,0:0:0:0:
256,192,72477,1,0,0:0:0:0:
256,192,72588,1,0,0:0:0:0:
256,192,72810,1,2,0:0:0:0:
256,192,73254,1,0,0:0:0:0:
256,192,73588,1,0,0:0:0:0:
256,192,73699,1,2,0:0:0:0:
256,192,73921,1,0,0:0:0:0:
256,192,74143,1,2,0:0:0:0:
256,192,74254,1,2,0:0:0:0:
256,192,74365,1,0,0:0:0:0:
256,192,74588,1,2,0:0:0:0:
256,192,75032,1,0,0:0:0:0:
256,192,75365,1,0,0:0:0:0:
256,192,75477,1,2,0:0:0:0:
256,192,75699,1,2,0:0:0:0:
256,192,75921,1,0,0:0:0:0:
256,192,76032,1,0,0:0:0:0:
256,192,76143,1,0,0:0:0:0:
256,192,76365,1,2,0:0:0:0:
256,192,76588,1,2,0:0:0:0:
256,192,76699,1,2,0:0:0:0:
256,192,76810,1,0,0:0:0:0:
256,192,77143,1,0,0:0:0:0:
256,192,77254,1,2,0:0:0:0:
256,192,77477,1,0,0:0:0:0:
256,192,77699,1,2,0:0:0:0:
256,192,77810,1,2,0:0:0:0:
256,192,77921,1,0,0:0:0:0:
256,192,78143,1,2,0:0:0:0:
256,192,78365,1,0,0:0:0:0:
256,192,78588,1,6,0:0:0:0:
256,192,78921,1,0,0:0:0:0:
256,192,79032,1,2,0:0:0:0:
256,192,79254,1,2,0:0:0:0:
256,192,79476,1,0,0:0:0:0:
256,192,79588,1,0,0:0:0:0:
256,192,79699,1,0,0:0:0:0:
256,192,79921,1,2,0:0:0:0:
256,192,80365,1,0,0:0:0:0:
256,192,80699,1,0,0:0:0:0:
256,192,80810,1,2,0:0:0:0:
256,192,81032,1,0,0:0:0:0:
256,192,81254,1,2,0:0:0:0:
256,192,81365,1,2,0:0:0:0:
256,192,81476,1,0,0:0:0:0:
256,192,81699,1,2,0:0:0:0:
256,192,82143,1,0,0:0:0:0:
256,192,82476,1,0,0:0:0:0:
256,192,82588,1,2,0:0:0:0:
256,192,82810,1,2,0:0:0:0:
256,192,83032,1,0,0:0:0:0:
256,192,83143,1,0,0:0:0:0:
256,192,83254,1,0,0:0:0:0:
256,192,83476,1,2,0:0:0:0:
256,192,83699,1,2,0:0:0:0:
256,192,83921,1,0,0:0:0:0:
256,192,84032,1,0,0:0:0:0:
256,192,84254,1,6,0:0:0:0:
256,192,84476,1,6,0:0:0:0:
256,192,84699,1,6,0:0:0:0:
256,192,84921,1,0,0:0:0:0:
256,192,85032,1,0,0:0:0:0:
256,192,85254,1,6,0:0:0:0:
256,192,85699,1,4,0:0:0:0:
256,192,86588,1,2,0:0:0:0:
256,192,86736,1,0,0:0:0:0:
256,192,86884,1,0,0:0:0:0:
256,192,87032,1,2,0:0:0:0:
256,192,87477,1,6,0:0:0:0:
256,192,87921,1,2,0:0:0:0:
256,192,88143,1,2,0:0:0:0:
256,192,88365,1,0,0:0:0:0:
256,192,88476,1,0,0:0:0:0:
256,192,88588,1,0,0:0:0:0:
256,192,88810,1,2,0:0:0:0:
256,192,89032,1,2,0:0:0:0:
256,192,89254,1,0,0:0:0:0:
256,192,89699,1,2,0:0:0:0:
256,192,89921,1,0,0:0:0:0:
256,192,90143,1,2,0:0:0:0:
256,192,90254,1,2,0:0:0:0:
256,192,90365,1,0,0:0:0:0:
256,192,90588,1,2,0:0:0:0:
256,192,90810,1,0,0:0:0:0:
256,192,91032,1,2,0:0:0:0:
256,192,91254,1,0,0:0:0:0:
256,192,91365,1,0,0:0:0:0:
256,192,91476,1,2,0:0:0:0:
256,192,91699,1,2,0:0:0:0:
256,192,91921,1,0,0:0:0:0:
256,192,92032,1,0,0:0:0:0:
256,192,92143,1,0,0:0:0:0:
256,192,92365,1,2,0:0:0:0:
256,192,92810,1,6,0:0:0:0:
256,192,93255,1,2,0:0:0:0:
256,192,93477,1,2,0:0:0:0:
256,192,93699,1,0,0:0:0:0:
256,192,93810,1,0,0:0:0:0:
256,192,93922,1,0,0:0:0:0:
256,192,94144,1,2,0:0:0:0:
256,192,94366,1,2,0:0:0:0:
256,192,94588,1,0,0:0:0:0:
256,192,95033,1,2,0:0:0:0:
256,192,95255,1,0,0:0:0:0:
256,192,95477,1,2,0:0:0:0:
256,192,95588,1,2,0:0:0:0:
256,192,95699,1,0,0:0:0:0:
256,192,95922,1,2,0:0:0:0:
256,192,96144,1,0,0:0:0:0:
256,192,96366,1,2,0:0:0:0:
256,192,96810,1,2,0:0:0:0:
256,192,97033,1,2,0:0:0:0:
256,192,97255,1,0,0:0:0:0:
256,192,97366,1,0,0:0:0:0:
256,192,97477,1,0,0:0:0:0:
256,192,97699,1,2,0:0:0:0:
256,192,97921,1,0,0:0:0:0:
256,192,98143,1,2,0:0:0:0:
256,192,98365,1,0,0:0:0:0:
256,192,98477,1,0,0:0:0:0:
256,192,98588,1,2,0:0:0:0:
256,192,98810,1,2,0:0:0:0:
256,192,99032,1,0,0:0:0:0:
256,192,99254,1,2,0:0:0:0:
256,192,99365,1,2,0:0:0:0:
256,192,99477,1,2,0:0:0:0:
256,192,99588,1,2,0:0:0:0:
256,192,99699,1,0,0:0:0:0:
256,192,99921,1,6,0:0:0:0:
256,192,100254,1,2,0:0:0:0:
256,192,100588,1,0,0:0:0:0:
256,192,100921,1,0,0:0:0:0:
256,192,101254,1,2,0:0:0:0:
256,192,101588,1,2,0:0:0:0:
256,192,101921,1,0,0:0:0:0:
256,192,102254,1,2,0:0:0:0:
256,192,102588,1,0,0:0:0:0:
256,192,102810,1,0,0:0:0:0:
256,192,103032,1,2,0:0:0:0:
256,192,103476,1,0,0:0:0:0:
256,192,103810,1,0,0:0:0:0:
256,192,104143,1,2,0:0:0:0:
256,192,104476,1,2,0:0:0:0:
256,192,104810,1,0,0:0:0:0:
256,192,105143,1,0,0:0:0:0:
256,192,105476,1,2,0:0:0:0:
256,192,105699,5,0,0:0:0:0:
256,192,105810,1,0,0:0:0:0:
256,192,105921,1,0,0:0:0:0:
256,192,106143,1,2,0:0:0:0:
256,192,106254,1,0,0:0:0:0:
256,192,106477,1,2,0:0:0:0:
256,192,106588,1,2,0:0:0:0:
256,192,106810,1,0,0:0:0:0:
256,192,107032,1,6,0:0:0:0:
256,192,107365,1,2,0:0:0:0:
256,192,107476,1,0,0:0:0:0:
256,192,107699,1,2,0:0:0:0:
256,192,107921,1,0,0:0:0:0:
256,192,108365,1,2,0:0:0:0:
256,192,108699,1,2,0:0:0:0:
256,192,108810,1,0,0:0:0:0:
256,192,109032,1,2,0:0:0:0:
256,192,109254,1,0,0:0:0:0:
256,192,109365,1,0,0:0:0:0:
256,192,109476,1,0,0:0:0:0:
256,192,109699,1,2,0:0:0:0:
256,192,109810,1,2,0:0:0:0:
256,192,109921,1,2,0:0:0:0:
256,192,110032,1,2,0:0:0:0:
256,192,110143,1,0,0:0:0:0:
256,192,110365,1,0,0:0:0:0:
256,192,110588,1,6,0:0:0:0:
256,192,110921,1,4,0:0:0:0:
256,192,111254,1,6,0:0:0:0:
256,192,111476,1,4,0:0:0:0:
256,192,111921,1,0,0:0:0:0:
256,192,112143,1,0,0:0:0:0:
256,192,112365,1,6,0:0:0:0:
256,192,112699,1,4,0:0:0:0:
256,192,113032,1,6,0:0:0:0:
256,192,113254,1,4,0:0:0:0:
256,192,113699,1,0,0:0:0:0:
256,192,114143,1,6,0:0:0:0:
256,192,114476,1,2,0:0:0:0:
256,192,114588,1,0,0:0:0:0:
256,192,114810,1,2,0:0:0:0:
256,192,115032,1,0,0:0:0:0:
256,192,115143,1,0,0:0:0:0:
256,192,115254,1,2,0:0:0:0:
256,192,115476,1,0,0:0:0:0:
256,192,115699,1,2,0:0:0:0:
256,192,115921,1,0,0:0:0:0:
256,192,116254,1,2,0:0:0:0:
256,192,116365,1,0,0:0:0:0:
256,192,116588,1,2,0:0:0:0:
256,192,116810,1,0,0:0:0:0:
256,192,117254,1,2,0:0:0:0:
256,192,117476,1,2,0:0:0:0:
256,192,117699,1,0,0:0:0:0:
256,192,118032,1,2,0:0:0:0:
256,192,118143,1,0,0:0:0:0:
256,192,118365,1,2,0:0:0:0:
256,192,118588,1,0,0:0:0:0:
256,192,118699,1,0,0:0:0:0:
256,192,118810,1,2,0:0:0:0:
256,192,119032,1,0,0:0:0:0:
256,192,119254,1,2,0:0:0:0:
256,192,119476,1,0,0:0:0:0:
256,192,119810,1,2,0:0:0:0:
256,192,119921,1,0,0:0:0:0:
256,192,120143,1,2,0:0:0:0:
256,192,120365,1,0,0:0:0:0:
256,192,120588,1,0,0:0:0:0:
256,192,120810,1,2,0:0:0:0:
256,192,121032,1,0,0:0:0:0:
256,192,121254,1,6,0:0:0:0:
256,192,121476,1,0,0:0:0:0:
256,192,121588,1,2,0:0:0:0:
256,192,121699,1,0,0:0:0:0:
256,192,121921,1,2,0:0:0:0:
256,192,122143,1,0,0:0:0:0:
256,192,122476,1,2,0:0:0:0:
256,192,122588,1,0,0:0:0:0:
256,192,122810,1,2,0:0:0:0:
256,192,123032,1,2,0:0:0:0:
256,192,123476,1,0,0:0:0:0:
256,192,123699,1,2,0:0:0:0:
256,192,123921,1,0,0:0:0:0:
256,192,124032,1,0,0:0:0:0:
256,192,124143,1,0,0:0:0:0:
256,192,124365,1,2,0:0:0:0:
256,192,124588,1,0,0:0:0:0:
256,192,124810,1,2,0:0:0:0:
256,192,125143,1,2,0:0:0:0:
256,192,125254,1,0,0:0:0:0:
256,192,125476,1,2,0:0:0:0:
256,192,125699,1,0,0:0:0:0:
256,192,125810,1,0,0:0:0:0:
256,192,125921,1,0,0:0:0:0:
256,192,126143,1,2,0:0:0:0:
256,192,126365,1,0,0:0:0:0:
256,192,126476,1,0,0:0:0:0:
256,192,126588,1,2,0:0:0:0:
256,192,126810,1,2,0:0:0:0:
256,192,127032,1,2,0:0:0:0:
256,192,127143,1,2,0:0:0:0:
256,192,127365,1,2,0:0:0:0:
256,192,127588,1,2,0:0:0:0:
256,192,127699,1,0,0:0:0:0:
256,192,127810,1,0,0:0:0:0:
256,192,127921,1,2,0:0:0:0:
256,192,128143,1,0,0:0:0:0:
256,192,128365,1,6,0:0:0:0:
256,192,128699,1,2,0:0:0:0:
256,192,128810,1,0,0:0:0:0:
256,192,129032,1,2,0:0:0:0:
256,192,129143,1,2,0:0:0:0:
256,192,129254,1,0,0:0:0:0:
256,192,129476,1,2,0:0:0:0:
256,192,129699,1,0,0:0:0:0:
256,192,129921,1,2,0:0:0:0:
256,192,130143,1,0,0:0:0:0:
256,192,130476,1,0,0:0:0:0:
256,192,130588,1,2,0:0:0:0:
256,192,130810,1,2,0:0:0:0:
256,192,131032,1,0,0:0:0:0:
256,192,131143,1,0,0:0:0:0:
256,192,131254,1,0,0:0:0:0:
256,192,131476,1,2,0:0:0:0:
256,192,131921,1,0,0:0:0:0:
256,192,132254,1,2,0:0:0:0:
256,192,132365,1,0,0:0:0:0:
256,192,132588,1,2,0:0:0:0:
256,192,132699,1,2,0:0:0:0:
256,192,132810,1,0,0:0:0:0:
256,192,133032,1,2,0:0:0:0:
256,192,133254,1,2,0:0:0:0:
256,192,133476,1,0,0:0:0:0:
256,192,133699,1,2,0:0:0:0:
256,192,134032,1,2,0:0:0:0:
256,192,134143,1,0,0:0:0:0:
256,192,134365,1,0,0:0:0:0:
256,192,134476,1,2,0:0:0:0:
256,192,134588,1,0,0:0:0:0:
256,192,134810,1,2,0:0:0:0:
256,192,135032,1,0,0:0:0:0:
256,192,135476,1,6,0:0:0:0:
256,192,135810,1,0,0:0:0:0:
256,192,135921,1,2,0:0:0:0:
256,192,136143,1,2,0:0:0:0:
256,192,136365,1,0,0:0:0:0:
256,192,136810,1,2,0:0:0:0:
256,192,137032,1,2,0:0:0:0:
256,192,137254,1,0,0:0:0:0:
256,192,137588,1,2,0:0:0:0:
256,192,137699,1,0,0:0:0:0:
256,192,137921,1,0,0:0:0:0:
256,192,138143,1,2,0:0:0:0:
256,192,138588,1,0,0:0:0:0:
256,192,138810,1,0,0:0:0:0:
256,192,139032,1,6,0:0:0:0:
256,192,139254,1,0,0:0:0:0:
256,192,139365,1,0,0:0:0:0:
256,192,139477,1,2,0:0:0:0:
256,192,139699,1,2,0:0:0:0:
256,192,139921,1,0,0:0:0:0:
256,192,140032,1,0,0:0:0:0:
256,192,140143,1,0,0:0:0:0:
256,192,140365,1,2,0:0:0:0:
256,192,140476,1,2,0:0:0:0:
256,192,140588,1,2,0:0:0:0:
256,192,140699,1,2,0:0:0:0:
256,192,140810,1,0,0:0:0:0:
256,192,141699,1,2,0:0:0:0:
256,192,142032,1,0,0:0:0:0:
256,192,142365,1,0,0:0:0:0:
256,192,142588,1,6,0:0:0:0:
256,192,144365,1,6,0:0:0:0:
256,192,145254,1,2,0:0:0:0:
256,192,145588,1,0,0:0:0:0:
256,192,145921,1,0,0:0:0:0:
256,192,146143,1,6,0:0:0:0:
256,192,147921,1,6,0:0:0:0:
256,192,148254,1,6,0:0:0:0:
256,192,148477,1,6,0:0:0:0:
256,192,148699,1,6,0:0:0:0:
256,192,148921,1,0,0:0:0:0:
256,192,149032,1,2,0:0:0:0:
256,192,149254,1,0,0:0:0:0:
256,192,149365,1,0,0:0:0:0:
256,192,149477,1,2,0:0:0:0:
256,192,149699,1,4,0:0:0:0:
256,192,149921,1,2,0:0:0:0:
256,192,150032,1,0,0:0:0:0:
256,192,150254,1,0,0:0:0:0:
256,192,150476,1,2,0:0:0:0:
256,192,150699,1,0,0:0:0:0:
256,192,150810,1,0,0:0:0:0:
256,192,151032,1,2,0:0:0:0:
256,192,151254,1,0,0:0:0:0:
256,192,151476,1,2,0:0:0:0:
256,192,151587,1,0,0:0:0:0:
256,192,151810,1,0,0:0:0:0:
256,192,152032,1,2,0:0:0:0:
256,192,152254,1,0,0:0:0:0:
256,192,152365,1,0,0:0:0:0:
256,192,152587,1,2,0:0:0:0:
256,192,153032,1,2,0:0:0:0:
256,192,153143,1,0,0:0:0:0:
256,192,153365,1,0,0:0:0:0:
256,192,153587,1,2,0:0:0:0:
256,192,153810,1,0,0:0:0:0:
256,192,153921,1,0,0:0:0:0:
256,192,154143,1,2,0:0:0:0:
256,192,154365,1,0,0:0:0:0:
256,192,154587,1,2,0:0:0:0:
256,192,154698,1,0,0:0:0:0:
256,192,154921,1,0,0:0:0:0:
256,192,155143,1,2,0:0:0:0:
256,192,155365,1,0,0:0:0:0:
256,192,155476,1,0,0:0:0:0:
256,192,155698,1,6,0:0:0:0:
256,192,155921,1,4,0:0:0:0:
256,192,156143,1,2,0:0:0:0:
256,192,156254,1,0,0:0:0:0:
256,192,156476,1,0,0:0:0:0:
256,192,156698,1,2,0:0:0:0:
256,192,156921,1,0,0:0:0:0:
256,192,157032,1,0,0:0:0:0:
256,192,157254,1,2,0:0:0:0:
256,192,157476,1,0,0:0:0:0:
256,192,157698,1,2,0:0:0:0:
256,192,157809,1,0,0:0:0:0:
256,192,158032,1,0,0:0:0:0:
256,192,158254,1,2,0:0:0:0:
256,192,158476,1,0,0:0:0:0:
256,192,158587,1,0,0:0:0:0:
256,192,158809,1,2,0:0:0:0:
256,192,159254,1,2,0:0:0:0:
256,192,159365,1,0,0:0:0:0:
256,192,159587,1,0,0:0:0:0:
256,192,159809,1,2,0:0:0:0:
256,192,160032,1,0,0:0:0:0:
256,192,160143,1,0,0:0:0:0:
256,192,160365,1,2,0:0:0:0:
256,192,160587,1,2,0:0:0:0:
256,192,160699,1,2,0:0:0:0:
256,192,160921,1,6,0:0:0:0:
256,192,161143,1,6,0:0:0:0:
256,192,161365,1,6,0:0:0:0:
256,192,161587,1,2,0:0:0:0:
256,192,161699,1,2,0:0:0:0:
256,192,161921,1,6,0:0:0:0:
256,192,163921,1,2,0:0:0:0:
256,192,165698,1,2,0:0:0:0:
256,192,167476,1,2,0:0:0:0:
256,192,169254,1,2,0:0:0:0:
256,192,170143,1,2,0:0:0:0:
256,192,170809,1,2,0:0:0:0:
256,192,170921,1,2,0:0:0:0:
256,192,171032,1,2,0:0:0:0:
256,192,172809,1,2,0:0:0:0:
256,192,174587,12,0,175921,0:0:0:0:
256,192,176365,5,6,0:0:0:0:
256,192,177254,1,2,0:0:0:0:
256,192,177365,1,2,0:0:0:0:
256,192,177476,1,2,0:0:0:0:
256,192,177587,1,2,0:0:0:0:
256,192,177698,1,2,0:0:0:0:
256,192,177921,1,2,0:0:0:0:
256,192,178143,1,4,0:0:0:0:
256,192,178476,1,2,0:0:0:0:
256,192,178587,1,0,0:0:0:0:
256,192,178809,1,2,0:0:0:0:
256,192,178920,1,2,0:0:0:0:
256,192,179031,1,0,0:0:0:0:
256,192,179253,1,2,0:0:0:0:
256,192,179476,1,0,0:0:0:0:
256,192,179698,1,2,0:0:0:0:
256,192,179920,1,0,0:0:0:0:
256,192,180253,1,0,0:0:0:0:
256,192,180365,1,2,0:0:0:0:
256,192,180587,1,2,0:0:0:0:
256,192,180809,1,0,0:0:0:0:
256,192,180920,1,0,0:0:0:0:
256,192,181031,1,0,0:0:0:0:
256,192,181253,1,2,0:0:0:0:
256,192,181698,1,0,0:0:0:0:
256,192,182031,1,2,0:0:0:0:
256,192,182142,1,0,0:0:0:0:
256,192,182365,1,2,0:0:0:0:
256,192,182476,1,2,0:0:0:0:
256,192,182587,1,0,0:0:0:0:
256,192,182809,1,2,0:0:0:0:
256,192,183031,1,0,0:0:0:0:
256,192,183253,1,2,0:0:0:0:
256,192,183476,1,0,0:0:0:0:
256,192,183809,1,2,0:0:0:0:
256,192,183920,1,0,0:0:0:0:
256,192,184142,1,0,0:0:0:0:
256,192,184253,1,2,0:0:0:0:
256,192,184365,1,0,0:0:0:0:
256,192,184587,1,2,0:0:0:0:
256,192,184809,1,0,0:0:0:0:
256,192,185031,1,0,0:0:0:0:
256,192,185253,1,6,0:0:0:0:
256,192,185587,1,0,0:0:0:0:
256,192,185698,1,2,0:0:0:0:
256,192,185920,1,2,0:0:0:0:
256,192,186142,1,0,0:0:0:0:
256,192,186587,1,2,0:0:0:0:
256,192,186809,1,2,0:0:0:0:
256,192,187031,1,0,0:0:0:0:
256,192,187365,1,2,0:0:0:0:
256,192,187476,1,0,0:0:0:0:
256,192,187698,1,0,0:0:0:0:
256,192,187920,1,2,0:0:0:0:
256,192,188365,1,0,0:0:0:0:
256,192,188587,1,0,0:0:0:0:
256,192,188809,1,6,0:0:0:0:
256,192,189031,1,2,0:0:0:0:
256,192,189254,1,0,0:0:0:0:
256,192,189365,1,0,0:0:0:0:
256,192,189476,1,2,0:0:0:0:
256,192,189698,1,2,0:0:0:0:
256,192,189920,1,0,0:0:0:0:
256,192,190142,1,2,0:0:0:0:
256,192,190253,1,2,0:0:0:0:
256,192,190365,1,2,0:0:0:0:
256,192,190476,1,2,0:0:0:0:
256,192,190587,1,0,0:0:0:0:
256,192,192365,1,6,0:0:0:0:
256,192,192698,1,6,0:0:0:0:
256,192,193032,1,6,0:0:0:0:
256,192,193254,1,0,0:0:0:0:
256,192,193365,1,0,0:0:0:0:
256,192,193476,1,2,0:0:0:0:
256,192,193587,1,2,0:0:0:0:
256,192,193698,1,2,0:0:0:0:
256,192,193920,1,2,0:0:0:0:
256,192,194143,1,4,0:0:0:0:
256,192,194476,1,0,0:0:0:0:
256,192,194587,1,2,0:0:0:0:
256,192,194809,1,2,0:0:0:0:
256,192,195031,1,0,0:0:0:0:
256,192,195143,1,0,0:0:0:0:
256,192,195254,1,0,0:0:0:0:
256,192,195476,1,2,0:0:0:0:
256,192,195920,1,0,0:0:0:0:
256,192,196254,1,0,0:0:0:0:
256,192,196365,1,2,0:0:0:0:
256,192,196587,1,0,0:0:0:0:
256,192,196809,1,2,0:0:0:0:
256,192,196920,1,2,0:0:0:0:
256,192,197031,1,0,0:0:0:0:
256,192,197254,1,2,0:0:0:0:
256,192,197698,1,0,0:0:0:0:
256,192,198031,1,0,0:0:0:0:
256,192,198143,1,2,0:0:0:0:
256,192,198365,1,2,0:0:0:0:
256,192,198587,1,0,0:0:0:0:
256,192,198698,1,0,0:0:0:0:
256,192,198809,1,0,0:0:0:0:
256,192,199031,1,2,0:0:0:0:
256,192,199254,1,2,0:0:0:0:
256,192,199365,1,2,0:0:0:0:
256,192,199476,1,0,0:0:0:0:
256,192,199809,1,0,0:0:0:0:
256,192,199920,1,2,0:0:0:0:
256,192,200143,1,0,0:0:0:0:
256,192,200365,1,2,0:0:0:0:
256,192,200476,1,2,0:0:0:0:
256,192,200587,1,0,0:0:0:0:
256,192,200809,1,2,0:0:0:0:
256,192,201031,1,0,0:0:0:0:
256,192,201254,1,6,0:0:0:0:
256,192,201587,1,0,0:0:0:0:
256,192,201698,1,2,0:0:0:0:
256,192,201920,1,2,0:0:0:0:
256,192,202142,1,0,0:0:0:0:
256,192,202254,1,0,0:0:0:0:
256,192,202365,1,0,0:0:0:0:
256,192,202587,1,2,0:0:0:0:
256,192,203031,1,0,0:0:0:0:
256,192,203365,1,0,0:0:0:0:
256,192,203476,1,2,0:0:0:0:
256,192,203698,1,0,0:0:0:0:
256,192,203920,1,2,0:0:0:0:
256,192,204031,1,2,0:0:0:0:
256,192,204142,1,0,0:0:0:0:
256,192,204365,1,2,0:0:0:0:
256,192,204809,1,0,0:0:0:0:
256,192,205142,1,0,0:0:0:0:
256,192,205254,1,2,0:0:0:0:
256,192,205476,1,2,0:0:0:0:
256,192,205698,1,0,0:0:0:0:
256,192,205809,1,0,0:0:0:0:
256,192,205920,1,0,0:0:0:0:
256,192,206142,1,2,0:0:0:0:
256,192,206365,1,2,0:0:0:0:
256,192,206587,1,0,0:0:0:0:
256,192,206698,1,0,0:0:0:0:
256,192,206920,1,6,0:0:0:0:
256,192,207142,1,6,0:0:0:0:
256,192,207365,1,6,0:0:0:0:
256,192,207587,1,0,0:0:0:0:
256,192,207698,1,0,0:0:0:0:
256,192,207920,1,6,0:0:0:0:
