osu file format v14

[General]
AudioFilename: audio.mp3
AudioLeadIn: 600
PreviewTime: 44007
Countdown: 0
SampleSet: Soft
StackLeniency: 0.3
Mode: 0
LetterboxInBreaks: 0
WidescreenStoryboard: 0

[Editor]
DistanceSpacing: 0.2
BeatDivisor: 4
GridSize: 32
TimelineZoom: 2.3

[Metadata]
Title:PINK LEMONADE (TV Size)
TitleUnicode:ピンクレモネード (TV Size)
Artist:Sangatsu no Phantasia
ArtistUnicode:三月のパンタシア
Creator:eINess
Version:lolia's Insane
Source:ベルゼブブ嬢のお気に召すまま。
Tags:As Miss Beelzebub likes it beelzebub jou no okinimesu mama op opening anime japenese Affirmation Neoskylove lolia Karia
BeatmapID:1960255
BeatmapSetID:927277

[Difficulty]
HPDrainRate:6
CircleSize:4
OverallDifficulty:7.2
ApproachRate:9
SliderMultiplier:1.7
SliderTickRate:1

[Events]
//Background and Video events
0,0,"Beel.jpg",0,0
Video,-559,"PINK.mp4"
//Break Periods
//Storyboard Layer 0 (Background)
//Storyboard Layer 1 (Fail)
//Storyboard Layer 2 (Pass)
//Storyboard Layer 3 (Foreground)
//Storyboard Sound Samples

[TimingPoints]
32,314.13612565445,4,2,1,10,1,0
1288,-100,4,2,1,20,0,0
2230,-100,4,2,1,30,0,0
2388,-100,4,2,1,5,0,0
2545,-133.333333333333,4,2,1,30,0,0
6942,-83.3333333333333,4,2,1,30,0,0
7178,-200,4,2,1,5,0,0
7257,-133.333333333333,4,2,1,30,0,0
7492,-142.857142857143,4,2,1,5,0,0
7571,-117.647058823529,4,2,1,50,0,0
8199,-117.647058823529,4,2,1,30,0,0
8356,-117.647058823529,4,2,1,50,0,0
8513,-142.857142857143,4,2,1,35,0,0
8670,-117.647058823529,4,2,1,50,0,0
8827,-117.647058823529,4,2,1,40,0,0
8984,-117.647058823529,4,2,1,50,0,0
9141,-117.647058823529,4,2,1,45,0,0
9299,-117.647058823529,4,2,1,50,0,0
10084,-100,4,2,1,60,0,0
12597,-142.857142857143,4,2,1,40,0,0
21393,-142.857142857143,4,2,1,50,0,0
22649,-100,4,2,1,55,0,0
26340,-100,4,2,1,5,0,0
26419,-100,4,2,1,55,0,0
30424,-100,4,2,1,5,0,0
30503,-100,4,2,1,55,0,0
31995,-100,4,2,1,5,0,0
32073,-100,4,2,1,55,0,0
36471,-100,4,2,1,60,0,0
36707,-100,4,2,1,5,0,0
36785,-100,4,2,1,60,0,0
37728,-133.333333333333,4,2,1,50,0,0
40241,-166.666666666667,4,2,1,45,0,0
41340,-166.666666666667,4,2,1,20,0,0
41497,-100,4,2,1,60,0,0
42675,-100,4,2,1,5,0,0
42754,-100,4,2,1,60,0,0
43068,-100,4,2,1,45,0,0
43382,-100,4,2,1,50,0,0
43696,-100,4,2,1,55,0,0
44011,-100,4,2,1,70,0,0
44953,-83.3333333333333,4,2,1,70,0,0
45189,-83.3333333333333,4,2,1,5,0,0
45267,-100,4,2,1,70,0,1
47073,-100,4,2,1,5,0,1
47152,-100,4,2,1,70,0,1
47702,-100,4,2,1,5,0,1
47780,-100,4,2,1,70,0,1
52728,-100,4,2,1,5,0,1
52806,-100,4,2,1,70,0,1
53042,-100,4,2,1,5,0,1
53121,-100,4,2,1,70,0,1
57833,-125,4,2,1,70,0,1
58068,-125,4,2,1,5,0,1
58147,-83.3333333333333,4,2,1,70,0,1
58382,-83.3333333333333,4,2,1,5,0,1
58461,-100,4,2,1,70,0,1
58539,-100,4,2,1,5,0,1
58775,-142.857142857143,4,2,1,70,0,1
59089,-142.857142857143,4,2,1,70,0,1
59717,-100,4,2,1,70,0,1
61524,-100,4,2,1,5,0,1
61602,-100,4,2,1,70,0,1
65293,-100,4,2,1,70,0,0
65372,-100,4,2,1,70,0,1
67178,-100,4,2,1,5,0,1
67257,-100,4,2,1,70,0,1
67806,-100,4,2,1,5,0,1
67885,-100,4,2,1,70,0,1
72833,-100,4,2,1,5,0,1
72911,-100,4,2,1,70,0,1
73147,-100,4,2,1,5,0,1
73225,-100,4,2,1,70,0,1
77230,-100,4,2,1,5,0,1
77309,-100,4,2,1,70,0,1
77937,-125,4,2,1,70,0,1
78173,-125,4,2,1,5,0,1
78251,-83.3333333333333,4,2,1,70,0,1
78487,-83.3333333333333,4,2,1,5,0,1
78566,-100,4,2,1,70,0,1
78880,-200,4,2,1,70,0,1
79194,-100,4,2,1,70,0,1
80450,-111.111111111111,4,2,1,60,0,0
82963,-166.666666666666,4,2,1,50,0,0
85477,-111.111111111111,4,2,1,40,0,0
87361,-111.111111111111,4,2,1,5,0,0

[Colours]
Combo1 : 255,255,128
Combo2 : 255,162,208
Combo3 : 141,252,219
Combo4 : 255,128,255

[HitObjects]
256,192,189,12,0,2388,0:0:0:0:
378,133,2545,6,0,P|383:101|389:70,2,63.7500024318696,0|0|0,3:0|3:0|3:0,0:0:0:0:
303,180,3016,1,0,3:0:0:0:
309,198,3330,1,0,3:0:0:0:
375,252,3644,1,0,3:0:0:0:
372,271,3958,2,0,L|412:262,2,31.8750012159348,0|0|0,3:0|3:0|3:0,0:0:0:0:
311,326,4272,1,0,3:0:0:0:
195,22,4901,1,0,3:0:0:0:
134,133,5058,6,0,P|128:101|122:70,2,63.7500024318696,0|0|0,3:0|3:0|3:0,0:0:0:0:
209,180,5529,1,0,3:0:0:0:
203,198,5843,1,0,3:0:0:0:
137,252,6157,1,0,3:0:0:0:
140,271,6471,2,0,L|100:262,2,31.8750012159348,0|0|0,3:0|3:0|3:0,0:0:0:0:
201,326,6785,1,0,3:0:0:0:
255,265,6942,6,0,B|286:238|286:238|420:269,1,152.999995330811
481,235,7257,6,0,L|376:261,1,95.6250036478044,2|0,0:0|0:0,0:0:0:0:
323,215,7571,6,0,P|306:185|320:136,1,72.2500013780594,4|0,0:0|0:0,0:0:0:0:
374,79,7885,1,0,0:0:0:0:
246,127,8042,2,0,L|329:144,1,72.2500013780594,0|0,0:0|3:0,0:0:0:0:
208,35,8356,2,0,L|291:52,1,72.2500013780594,0|0,0:0|3:0,0:0:0:0:
133,93,8670,6,0,P|119:127|132:165,1,72.2500013780594,0|0,0:0|3:0,0:0:0:0:
191,239,8984,1,0,0:0:0:0:
188,246,9063,1,0,0:0:0:0:
185,253,9141,2,0,P|149:246|100:234,1,72.2500013780594,0|0,3:0|0:0,0:0:0:0:
41,277,9456,1,0,3:0:0:0:
128,159,9613,5,0,0:0:0:0:
41,277,9770,2,0,B|23:244|23:244|42:197,1,72.2500013780594,2|0,0:0|0:0,0:0:0:0:
99,54,10084,5,2,0:0:0:0:
189,70,10241,1,0,0:0:0:0:
209,161,10398,5,2,0:0:0:0:
293,147,10555,1,0,0:0:0:0:
367,53,10712,6,0,B|384:71|384:71|375:145,1,85,2|2,0:0|0:0,0:0:0:0:
475,268,11026,2,0,B|458:250|458:250|467:176,1,85,2|2,0:0|0:0,0:0:0:0:
355,48,11340,6,0,P|366:110|385:226,1,170,4|8,0:0|0:0,0:0:0:0:
281,326,11812,1,4,0:3:0:0:
182,272,11969,5,2,0:0:0:0:
190,269,12126,1,2,0:0:0:0:
198,268,12283,1,2,0:0:0:0:
206,268,12440,1,2,0:0:0:0:
277,318,12597,6,0,P|183:302|97:290,2,178.499994552612,4|0|0,0:0|0:0|0:0,0:0:0:0:
277,318,13696,1,0,0:0:0:0:
352,356,13853,2,0,P|381:307|335:240,1,118.999996368408,0|0,3:0|0:0,0:0:0:0:
299,195,14325,2,0,P|269:145|291:92,1,118.999996368408,0|0,3:0|0:0,0:0:0:0:
371,69,14796,1,0,0:0:0:0:
377,75,15110,6,0,P|364:143|345:263,2,178.499994552612,0|0|0,3:0|0:0|0:0,0:0:0:0:
377,75,16210,1,0,0:0:0:0:
311,23,16367,2,0,P|270:29|189:41,1,118.999996368408,0|0,3:0|0:0,0:0:0:0:
212,123,16838,2,0,P|171:117|90:105,1,118.999996368408,0|0,3:0|0:0,0:0:0:0:
17,140,17309,1,0,0:0:0:0:
87,187,17466,1,0,0:0:0:0:
11,222,17623,6,0,P|19:271|29:347,1,118.999996368408,0|0,3:0|0:0,0:0:0:0:
105,370,18094,1,0,3:0:0:0:
137,261,18251,2,0,P|206:209|285:251,1,178.499994552612
351,355,18880,5,0,3:0:0:0:
330,350,19194,1,0,0:0:0:0:
202,302,19508,5,0,0:0:0:0:
223,297,19822,1,0,0:0:0:0:
339,224,20136,6,0,P|365:182|327:113,1,118.999996368408,0|0,3:0|0:0,0:0:0:0:
241,25,20764,2,0,P|215:67|253:136,1,118.999996368408
129,212,21393,6,0,L|203:201,1,59.4999981842042,2|0,0:0|0:0,0:0:0:0:
84,145,21707,2,0,L|158:134,1,59.4999981842042,2|0,0:0|0:0,0:0:0:0:
39,78,22021,2,0,L|113:67,1,59.4999981842042,2|0,0:0|0:0,0:0:0:0:
226,134,22335,5,2,0:0:0:0:
226,134,22492,1,2,0:0:0:0:
358,1,22649,6,0,P|351:42|341:98,1,85,4|2,0:0|0:0,0:0:0:0:
428,221,22963,1,8,0:0:0:0:
300,175,23121,2,0,P|382:155|471:137,1,170,2|2,0:0|0:0,0:0:0:0:
369,286,23592,2,0,P|331:261|262:285,1,85,8|0,0:0|0:0,0:0:0:0:
187,132,23906,6,0,P|200:177|213:227,1,85,2|2,3:2|0:0,0:0:0:0:
114,354,24220,2,0,P|128:309|140:259,1,85,8|2,0:0|0:0,0:0:0:0:
0,296,24534,1,0,0:0:0:0:
148,260,24691,1,2,0:0:0:0:
0,161,24848,2,0,P|43:177|80:189,1,85,8|0,0:0|0:0,0:0:0:0:
255,103,25162,6,0,P|212:128|153:106,1,85,2|2,3:2|0:0,0:0:0:0:
330,194,25477,1,8,0:0:0:0:
430,57,25634,2,0,P|417:138|405:239,1,170,2|2,0:0|0:0,0:0:0:0:
279,353,26105,2,0,P|234:313|261:251,1,127.5,8|2,0:0|0:0,0:0:0:0:
278,183,26419,6,0,P|290:222|257:267,1,85,2|2,3:2|0:0,0:0:0:0:
106,192,26733,2,0,P|147:183|189:174,1,85,8|2,0:0|0:0,0:0:0:0:
318,107,27047,2,0,P|276:98|234:89,1,85,0|2,0:0|0:0,0:0:0:0:
85,13,27361,2,0,P|96:58|106:98,1,85,8|0,0:0|0:0,0:0:0:0:
36,268,27675,6,0,P|13:236|26:187,1,85,2|2,3:2|0:0,0:0:0:0:
164,253,27990,1,8,0:0:0:0:
25,362,28147,2,0,P|106:344|202:327,1,170,2|2,3:2|0:0,0:0:0:0:
250,177,28618,2,0,P|273:209|260:258,1,85,8|0,0:0|0:0,0:0:0:0:
381,376,28932,6,0,P|369:326|360:280,1,85,2|2,3:2|0:0,0:0:0:0:
419,141,29246,1,8,0:0:0:0:
358,279,29403,1,2,3:2:0:0:
512,240,29560,2,0,P|468:229|421:220,1,85,0|2,0:0|0:0,0:0:0:0:
333,112,29874,2,0,P|374:122|415:130,1,85,8|0,0:0|0:0,0:0:0:0:
242,187,30189,6,0,P|197:141|236:80,1,127.5,2|0,3:2|0:0,0:0:0:0:
242,78,30503,1,8,0:0:0:0:
322,236,30660,2,0,P|237:226|152:218,1,170,2|2,0:0|0:0,0:0:0:0:
12,159,31131,2,0,P|55:165|89:143,1,85,8|0,0:0|0:0,0:0:0:0:
198,13,31445,5,2,3:2:0:0:
274,148,31602,1,2,0:0:0:0:
391,4,31759,2,0,P|380:63|369:141,1,127.5,12|0,0:0|0:0,0:0:0:0:
366,155,32073,1,2,3:2:0:0:
267,281,32230,5,8,0:0:0:0:
294,268,32309,1,8,0:0:0:0:
322,259,32388,1,8,0:0:0:0:
350,255,32466,1,8,0:0:0:0:
379,253,32545,1,8,0:0:0:0:
408,253,32623,1,8,0:0:0:0:
437,258,32702,1,4,3:2:0:0:
201,347,33016,6,0,P|120:326|28:307,2,170,2|2|2,3:2|3:2|3:2,0:0:0:0:
267,281,33801,1,0,0:0:0:0:
337,368,33958,6,0,P|345:325|355:275,1,85,2|0,3:2|0:0,0:0:0:0:
377,203,34272,1,2,3:2:0:0:
259,271,34429,1,8,0:0:0:0:
377,203,34586,2,0,P|339:179|281:199,1,85,2|0,3:2|0:0,0:0:0:0:
173,257,34901,2,0,P|211:281|269:261,1,85,2|2,3:2|0:0,0:0:0:0:
91,177,35215,1,4,3:2:0:0:
84,182,35529,6,0,P|99:277|112:361,2,170,2|2|2,3:2|3:2|0:0,0:0:0:0:
272,14,36471,2,0,P|229:64|265:123,1,127.5,2|0,3:2|0:0,0:0:0:0:
327,101,36785,2,0,P|341:65|308:21,1,85,2|0,3:2|0:0,0:0:0:0:
231,196,37100,6,0,P|199:187|156:179,2,56.6666666666667,8|8|8,3:2|0:0|0:0,0:0:0:0:
305,239,37414,2,0,P|311:211|318:184,2,56.6666666666667,2|2|2,3:2|0:0|0:0,0:0:0:0:
249,303,37728,5,4,3:2:0:0:
249,303,37885,2,0,P|297:269|361:294,1,127.500004863739,2|2,0:0|0:0,0:0:0:0:
460,363,38356,1,8,3:2:0:0:
364,299,38513,1,2,0:0:0:0:
490,56,38984,5,2,3:2:0:0:
490,56,39141,2,0,P|479:112|465:191,1,127.500004863739,2|2,0:0|0:0,0:0:0:0:
344,124,39613,2,0,P|372:108|405:111,1,63.7500024318696,8|0,3:2|0:0,0:0:0:0:
288,191,39927,2,0,P|250:180|221:174,1,63.7500024318696,2|2,0:0|0:0,0:0:0:0:
157,120,40162,1,2,0:0:0:0:
150,115,40241,6,0,B|109:152|108:242|174:205|167:326|128:351|128:351|108:331|101:294|134:246,1,356.999989105225,4|0,3:2|0:0,0:0:0:0:
0,99,41497,6,0,P|47:78|83:89,1,85,8|2,3:2|0:0,0:0:0:0:
243,173,41812,2,0,P|196:194|160:183,1,85,8|2,0:0|0:0,0:0:0:0:
309,43,42126,2,0,P|356:22|392:33,1,85,8|2,3:2|0:0,0:0:0:0:
503,176,42440,6,0,P|423:160|359:151,1,127.5,8|0,0:0|0:0,0:0:0:0:
321,206,42754,2,0,P|303:246|327:290,1,85,8|0,3:2|0:0,0:0:0:0:
255,145,43068,5,2,0:0:0:0:
399,233,43225,1,8,0:0:0:0:
228,268,43382,5,8,0:0:0:0:
377,153,43539,1,8,0:0:0:0:
331,353,43696,5,8,0:0:0:0:
370,152,43853,1,8,0:0:0:0:
465,291,44011,5,0,3:0:0:0:
458,286,44325,1,0,3:0:0:0:
451,282,44639,1,0,3:0:0:0:
445,277,44953,2,0,P|373:292|263:311,1,152.999995330811,0|0,3:0|0:0,0:0:0:0:
229,244,45267,6,0,P|186:296|96:271,1,170,4|8,0:0|0:0,0:0:0:0:
20,181,45738,1,0,0:0:0:0:
171,101,45895,2,0,P|164:142|154:204,1,85,2|2,0:0|0:0,0:0:0:0:
95,32,46210,1,8,0:0:0:0:
163,190,46367,1,2,0:0:0:0:
248,33,46524,6,0,P|282:11|338:35,1,85,0|2,0:0|0:0,0:0:0:0:
471,118,46838,2,0,P|426:109|343:94,1,127.5,8|0,0:0|0:0,0:0:0:0:
280,136,47152,2,0,B|261:175|261:175|288:229,1,85,2|2,0:0|0:0,0:0:0:0:
397,336,47466,2,0,P|436:293|391:222,1,127.5,8|0,0:0|0:0,0:0:0:0:
362,176,47780,6,0,L|180:204,1,170,2|8,0:0|0:0,0:0:0:0:
120,295,48251,1,0,0:0:0:0:
33,137,48408,2,0,P|17:175|32:215,1,85,2|2,0:0|0:0,0:0:0:0:
173,118,48723,1,8,0:0:0:0:
7,34,48880,6,0,B|60:21|60:21|112:48|112:48|194:28,1,170,2|2,0:0|0:0,0:0:0:0:
326,84,49351,2,0,P|289:63|247:73,1,85,8|0,0:0|0:0,0:0:0:0:
403,20,49665,1,2,0:0:0:0:
357,157,49822,1,2,0:0:0:0:
403,20,49979,2,0,P|412:64|419:104,1,85,8|0,0:0|0:0,0:0:0:0:
478,291,50293,6,0,P|427:235|344:266,1,170,4|8,0:0|0:0,0:0:0:0:
286,363,50764,1,0,0:0:0:0:
146,251,50922,2,0,P|157:303|166:349,1,85,2|2,0:0|0:0,0:0:0:0:
208,162,51236,1,8,0:0:0:0:
56,252,51393,1,2,0:0:0:0:
208,162,51550,6,0,P|160:152|108:144,1,85,0|2,0:0|0:0,0:0:0:0:
313,222,51864,2,0,P|271:228|229:237,1,85,8|0,0:0|0:0,0:0:0:0:
358,80,52178,2,0,P|375:125|359:163,1,85,2|2,0:0|0:0,0:0:0:0:
500,308,52492,2,0,B|472:274|472:274|493:176,1,127.5,8|0,0:0|0:0,0:0:0:0:
451,101,52806,6,0,P|464:162|477:224,1,127.5,2|0,0:0|0:0,0:0:0:0:
419,277,53121,2,0,P|381:294|333:277,1,85,8|0,0:0|0:0,0:0:0:0:
199,191,53435,1,2,0:0:0:0:
252,353,53592,1,2,0:0:0:0:
82,300,53749,2,0,P|131:286|175:275,1,85,8|0,0:0|0:0,0:0:0:0:
38,139,54063,6,0,B|17:177|17:177|39:227,1,85,2|2,0:0|0:0,0:0:0:0:
199,191,54377,2,0,L|115:180,1,85,8|0,0:0|0:0,0:0:0:0:
263,265,54691,1,2,0:0:0:0:
329,100,54848,5,8,0:0:0:0:
345,69,54927,1,8,0:0:0:0:
373,51,55005,1,8,0:0:0:0:
406,46,55084,1,8,0:0:0:0:
439,50,55162,1,8,0:0:0:0:
467,68,55241,1,8,0:0:0:0:
488,93,55319,5,4,0:0:0:0:
467,184,55477,1,0,0:0:0:0:
317,95,55634,5,8,0:0:0:0:
362,204,55791,1,0,0:0:0:0:
175,197,55948,6,0,P|208:173|255:181,1,85,2|2,0:0|0:0,0:0:0:0:
418,261,56262,2,0,P|385:285|338:277,1,85,8|0,0:0|0:0,0:0:0:0:
147,282,56576,6,0,P|159:325|170:374,1,85,2|2,0:0|0:0,0:0:0:0:
43,249,56890,2,0,P|78:202|35:136,1,127.5,12|0,0:0|0:0,0:0:0:0:
54,54,57204,6,0,L|1:76,2,56.6666666666667,8|8|8,0:0|0:0|0:0,0:0:0:0:
183,117,57518,2,0,L|127:106,2,56.6666666666667,2|2|2,0:0|0:0|0:0,0:0:0:0:
264,41,57833,6,0,P|310:25|350:55,1,102,4|0,0:0|0:0,0:0:0:0:
435,96,58147,6,0,P|360:82|323:144,1,152.999995330811,8|0,0:0|0:0,0:0:0:0:
258,217,58461,6,0,L|249:164,1,42.5,8|0,0:0|0:0,0:0:0:0:
242,168,58775,6,0,L|262:285,1,118.999996368408,8|2,0:0|0:0,0:0:0:0:
400,225,59246,1,8,0:0:0:0:
341,362,59403,2,0,P|345:332|350:303,1,59.4999981842042,2|2,0:0|0:0,0:0:0:0:
177,235,59717,5,8,0:0:0:0:
37,360,59874,1,8,0:0:0:0:
33,326,59953,1,8,0:0:0:0:
29,292,60031,1,8,0:0:0:0:
25,258,60110,1,8,0:0:0:0:
21,224,60189,1,8,0:0:0:0:
17,190,60267,1,8,0:0:0:0:
13,156,60346,6,0,B|48:130|48:130|104:144,1,85,2|2,0:0|0:0,0:0:0:0:
260,218,60660,2,0,P|218:225|176:234,1,85,8|0,0:0|0:0,0:0:0:0:
317,126,60974,1,2,0:0:0:0:
359,237,61131,1,2,0:0:0:0:
492,118,61288,2,0,P|477:185|465:254,1,127.5,8|0,0:0|0:0,0:0:0:0:
495,315,61602,6,0,P|451:321|416:299,1,85,2|2,0:0|0:0,0:0:0:0:
271,241,61916,2,0,P|307:220|348:226,1,85,8|0,0:0|0:0,0:0:0:0:
166,348,62230,6,0,B|144:311|144:311|167:264,1,85,2|2,0:0|0:0,0:0:0:0:
254,70,62545,2,0,B|276:107|276:107|253:154,1,85,8|2,0:0|0:0,0:0:0:0:
38,172,62859,5,8,0:0:0:0:
171,267,63016,1,2,0:0:0:0:
175,62,63173,5,8,0:0:0:0:
218,208,63330,1,2,0:0:0:0:
359,85,63487,5,8,0:0:0:0:
294,216,63644,1,2,0:0:0:0:
496,192,63801,5,8,0:0:0:0:
496,192,63958,2,0,B|457:171|457:171|407:188,1,85,2|2,0:0|0:0,0:0:0:0:
259,289,64272,5,8,0:0:0:0:
259,289,64429,2,0,B|298:302|298:302|336:281,1,85,2|2,0:0|0:0,0:0:0:0:
169,181,64744,5,8,0:0:0:0:
76,342,64901,1,8,0:0:0:0:
42,333,64979,1,8,0:0:0:0:
19,307,65058,1,8,0:0:0:0:
8,275,65136,1,8,0:0:0:0:
15,241,65215,1,8,0:0:0:0:
35,214,65293,1,8,0:0:0:0:
66,201,65372,6,0,P|147:210|238:221,1,170,4|8,0:0|0:0,0:0:0:0:
311,313,65843,1,0,0:0:0:0:
445,209,66000,2,0,P|435:256|428:297,1,85,2|2,0:0|0:0,0:0:0:0:
336,161,66314,1,8,0:0:0:0:
498,107,66471,1,2,0:0:0:0:
339,25,66628,6,0,P|377:4|424:14,1,85,0|2,0:0|0:0,0:0:0:0:
259,95,66942,2,0,P|205:83|129:74,1,127.5,8|0,0:0|0:0,0:0:0:0:
73,123,67257,2,0,P|57:162|90:212,1,85,2|2,0:0|0:0,0:0:0:0:
125,369,67571,2,0,B|154:335|154:335|132:231,1,127.5,8|0,0:0|0:0,0:0:0:0:
178,189,67885,6,0,P|225:134|318:175,1,170,2|8,0:0|0:0,0:0:0:0:
384,253,68356,1,0,0:0:0:0:
440,93,68513,2,0,P|464:133|447:172,1,85,2|2,0:0|0:0,0:0:0:0:
302,244,68827,1,8,0:0:0:0:
469,330,68984,6,0,B|483:302|483:302|331:341,1,170,2|2,0:0|0:0,0:0:0:0:
194,271,69456,2,0,P|210:316|221:356,1,85,8|0,0:0|0:0,0:0:0:0:
245,192,69770,1,2,0:0:0:0:
116,256,69927,1,2,0:0:0:0:
245,192,70084,2,0,P|210:172|163:189,1,85,8|0,0:0|0:0,0:0:0:0:
69,12,70398,6,0,P|15:71|66:145,1,170,4|8,0:0|0:0,0:0:0:0:
162,192,70869,1,0,0:0:0:0:
23,289,71026,2,0,P|66:278|106:271,1,85,2|2,0:0|0:0,0:0:0:0:
248,161,71340,1,8,0:0:0:0:
202,333,71497,1,0,0:0:0:0:
248,161,71655,6,0,P|265:202|239:250,1,85,0|2,0:0|0:0,0:0:0:0:
159,64,71969,2,0,P|146:103|163:141,1,85,8|0,0:0|0:0,0:0:0:0:
312,27,72283,2,0,P|270:20|209:10,1,85,2|2,0:0|0:0,0:0:0:0:
388,127,72597,2,0,P|426:91|495:111,1,127.5,8|0,0:0|0:0,0:0:0:0:
391,138,72911,6,0,P|333:158|285:119,1,127.5,2|0,0:0|0:0,0:0:0:0:
261,46,73225,2,0,P|268:95|276:142,1,85,8|0,0:0|0:0,0:0:0:0:
138,231,73539,1,2,0:0:0:0:
298,291,73696,1,2,0:0:0:0:
135,365,73853,2,0,P|169:358|219:349,1,85,8|0,0:0|0:0,0:0:0:0:
38,274,74168,6,0,B|15:237|15:237|38:182,1,85,2|2,0:0|0:0,0:0:0:0:
135,43,74482,2,0,B|157:79|157:79|141:118,1,85,8|2,0:0|0:0,0:0:0:0:
249,261,74796,1,8,0:0:0:0:
398,145,74953,5,8,0:0:0:0:
365,136,75031,1,8,0:0:0:0:
338,153,75110,1,8,0:0:0:0:
306,144,75189,1,8,0:0:0:0:
278,162,75267,1,8,0:0:0:0:
246,152,75346,1,8,0:0:0:0:
219,171,75424,5,4,0:0:0:0:
243,80,75581,1,0,0:0:0:0:
118,206,75738,5,8,0:0:0:0:
48,114,75895,1,0,0:0:0:0:
75,298,76052,6,0,P|38:319|-5:300,1,85,2|2,0:0|0:0,0:0:0:0:
169,334,76367,2,0,P|206:313|249:332,1,85,8|0,0:0|0:0,0:0:0:0:
360,204,76681,6,0,P|350:250|340:297,1,85,2|2,0:0|0:0,0:0:0:0:
259,137,76995,2,0,P|299:98|367:124,1,127.5,8|0,0:0|0:0,0:0:0:0:
438,163,77309,6,0,L|452:103,2,56.6666666666667,8|8|8,0:0|0:0|0:0,0:0:0:0:
372,259,77623,2,0,L|358:199,2,56.6666666666667,2|2|2,0:0|0:0|0:0,0:0:0:0:
441,345,77937,6,0,P|394:338|335:332,1,102,4|0,0:0|0:0,0:0:0:0:
273,261,78251,6,0,P|244:317|152:294,1,152.999995330811,8|0,0:0|0:0,0:0:0:0:
122,224,78566,6,0,P|105:212|121:237,1,85,2|2,0:0|0:0,0:0:0:0:
245,104,78880,6,0,P|235:146|225:202,1,85,8|2,0:0|0:0,0:0:0:0:
114,50,79351,6,0,B|148:24|148:24|192:39,1,85,8|2,0:0|0:0,0:0:0:0:
253,116,79665,1,2,0:0:0:0:
377,13,79822,1,8,0:0:0:0:
410,215,79979,5,8,0:0:0:0:
443,209,80058,1,8,0:0:0:0:
469,188,80136,1,8,0:0:0:0:
481,157,80215,1,8,0:0:0:0:
476,122,80293,1,8,0:0:0:0:
462,90,80372,1,8,0:0:0:0:
432,73,80450,6,0,L|277:105,1,152.999995330811,4|2,0:0|0:0,0:0:0:0:
145,169,80922,1,8,0:0:0:0:
189,35,81079,2,0,P|205:73|186:115,1,76.4999976654053,0|4,0:0|0:3,0:0:0:0:
82,210,81393,2,0,P|66:172|85:130,1,76.4999976654053,2|4,0:0|0:3,0:0:0:0:
176,282,81707,6,0,P|137:287|89:294,1,76.4999976654053,4|2,0:0|0:0,0:0:0:0:
93,295,81942,1,2,0:0:0:0:
85,297,82021,1,2,3:2:0:0:
196,202,82178,1,0,0:0:0:0:
258,324,82335,2,0,P|276:290|262:243,1,76.4999976654053,0|0,3:0|0:0,0:0:0:0:
207,131,82649,2,0,P|189:165|203:212,1,76.4999976654053,0|0,3:0|0:0,0:0:0:0:
387,244,82963,6,0,P|433:211|369:234,1,203.999993774414,4|0,0:0|0:0,0:0:0:0:
125,244,84220,2,0,P|78:211|142:234,1,203.999993774414,4|0,0:0|0:0,0:0:0:0:
256,352,85477,5,0,3:0:0:0:
256,192,85555,12,0,87361,0:0:0:0:
