osu file format v14

[General]
AudioFilename: audio.mp3
AudioLeadIn: 600
PreviewTime: 44007
Countdown: 0
SampleSet: Soft
StackLeniency: 0.2
Mode: 0
LetterboxInBreaks: 0
WidescreenStoryboard: 0

[Editor]
Bookmarks: 25158
DistanceSpacing: 1.4
BeatDivisor: 4
GridSize: 8
TimelineZoom: 2.3

[Metadata]
Title:PINK LEMONADE (TV Size)
TitleUnicode:ピンクレモネード (TV Size)
Artist:Sangatsu no Phantasia
ArtistUnicode:三月のパンタシア
Creator:eINess
Version:Mofu Mofu
Source:ベルゼブブ嬢のお気に召すまま。
Tags:As Miss Beelzebub likes it beelzebub jou no okinimesu mama op opening anime japenese Affirmation Neoskylove lolia Karia
BeatmapID:1936730
BeatmapSetID:927277

[Difficulty]
HPDrainRate:7
CircleSize:4
OverallDifficulty:8
ApproachRate:9.3
SliderMultiplier:1.76
SliderTickRate:1

[Events]
//Background and Video events
0,0,"Beel.jpg",0,0
Video,-559,"PINK.mp4"
//Break Periods
//Storyboard Layer 0 (Background)
//Storyboard Layer 1 (Fail)
//Storyboard Layer 2 (Pass)
//Storyboard Layer 3 (Foreground)
//Storyboard Sound Samples

[TimingPoints]
32,314.13612565445,4,2,1,30,1,0
2545,-200,4,2,1,30,0,0
6942,-200,4,2,1,25,0,0
7178,-200,4,2,1,5,0,0
7257,-142.857142857143,4,2,1,35,0,0
7492,-142.857142857143,4,2,1,5,0,0
7571,-142.857142857143,4,2,1,50,0,0
8199,-142.857142857143,4,2,1,15,0,0
8356,-142.857142857143,4,2,1,50,0,0
8513,-142.857142857143,4,2,1,15,0,0
8670,-142.857142857143,4,2,1,50,0,0
8906,-142.857142857143,4,2,1,5,0,0
8984,-142.857142857143,4,2,1,50,0,0
9141,-142.857142857143,4,2,1,15,0,0
9299,-142.857142857143,4,2,1,50,0,0
9456,-100,4,2,1,15,0,0
9613,-142.857142857143,4,2,1,50,0,0
11340,-125,4,2,1,50,0,0
12597,-142.857142857143,4,2,1,40,0,0
20922,-142.857142857143,4,2,1,15,0,0
21079,-142.857142857143,4,2,1,50,0,0
22649,-111.111111111111,4,2,1,55,0,0
26655,-111.111111111111,4,2,1,5,0,0
26733,-111.111111111111,4,2,1,55,0,0
31681,-111.111111111111,4,2,1,5,0,0
31759,-111.111111111111,4,2,1,50,0,0
35764,-111.111111111111,4,2,1,5,0,0
35843,-111.111111111111,4,2,1,50,0,0
36471,-111.111111111111,4,2,1,60,0,0
37100,-111.111111111111,4,2,1,50,0,0
37414,-111.111111111111,4,2,1,40,0,0
37728,-142.857142857143,4,2,1,50,0,0
39141,-142.857142857143,4,2,1,40,0,0
39613,-142.857142857143,4,2,1,50,0,0
40084,-142.857142857143,4,2,1,30,0,0
40241,-142.857142857143,4,2,1,45,0,0
41497,-142.857142857143,4,2,1,55,0,0
43068,-142.857142857143,4,2,1,45,0,0
43382,-142.857142857143,4,2,1,50,0,0
43696,-142.857142857143,4,2,1,55,0,0
44011,-142.857142857143,4,2,1,70,0,0
45267,-90.9090909090909,4,2,1,65,0,1
57204,-90.9090909090909,4,2,1,48,0,1
57833,-76.9230769230769,4,2,1,65,0,1
58147,-100,4,2,1,65,0,1
58461,-142.857142857143,4,2,1,65,0,1
58775,-250,4,2,1,65,0,1
59089,-90.9090909090909,4,2,1,65,0,1
64901,-90.9090909090909,4,2,1,50,0,1
65058,-90.9090909090909,4,2,1,65,0,1
65293,-90.9090909090909,4,2,1,65,0,0
65372,-90.9090909090909,4,2,1,65,0,1
77309,-90.9090909090909,4,2,1,48,0,1
77937,-76.9230769230769,4,2,1,65,0,1
78251,-100,4,2,1,65,0,1
78566,-142.857142857143,4,2,1,65,0,1
78880,-250,4,2,1,65,0,1
79194,-90.9090909090909,4,2,1,65,0,1
80450,-111.111111111111,4,2,1,55,0,0
82963,-111.111111111111,4,2,1,50,0,0
85477,-166.666666666667,4,2,1,40,0,0
85791,-166.666666666667,4,2,1,20,0,0
87361,-166.666666666667,4,2,1,10,0,0

[Colours]
Combo1 : 255,255,128
Combo2 : 255,162,208
Combo3 : 141,252,219
Combo4 : 255,128,255

[HitObjects]
129,212,2545,6,0,L|138:266,2,44,0|0|0,3:0|0:0|3:0,0:0:0:0:
113,134,3016,1,0,3:0:0:0:
174,84,3330,1,0,3:0:0:0:
251,102,3644,1,0,3:0:0:0:
251,102,3958,5,0,3:0:0:0:
250,110,4037,1,0,3:0:0:0:
249,118,4115,1,0,3:0:0:0:
236,199,4272,1,0,3:0:0:0:
236,199,4901,1,0,3:0:0:0:
113,134,5058,5,0,3:0:0:0:
126,216,5215,1,0,3:0:0:0:
138,298,5372,1,0,3:0:0:0:
113,134,5529,5,0,3:0:0:0:
42,186,5843,1,0,3:0:0:0:
57,272,6157,1,0,3:0:0:0:
138,298,6471,1,0,3:0:0:0:
146,295,6550,1,0,3:0:0:0:
154,292,6628,1,0,3:0:0:0:
234,262,6785,1,0,3:0:0:0:
234,262,6942,6,0,L|223:338,1,66,2|0,0:3|0:0,0:0:0:0:
246,348,7257,2,0,L|260:256,1,92.3999971801759,2|0,0:0|0:0,0:0:0:0:
274,181,7571,5,4,3:2:0:0:
354,134,7728,1,0,0:0:0:0:
439,170,7885,1,0,3:0:0:0:
259,256,8042,6,0,L|190:240,1,61.5999981201172,0|8,3:0|0:1,0:0:0:0:
319,351,8356,2,0,L|380:338,1,61.5999981201172,0|8,3:0|0:1,0:0:0:0:
476,250,8670,2,0,P|467:205|439:170,1,92.3999971801759,0|0,3:0|0:0,0:0:0:0:
356,155,8984,1,0,3:0:0:0:
358,164,9063,1,0,3:0:0:0:
359,173,9141,1,8,3:1:0:0:
427,35,9299,1,0,3:0:0:0:
322,76,9456,1,8,0:1:0:0:
179,27,9613,5,0,3:0:0:0:
224,162,9770,1,8,0:3:0:0:
304,85,9927,1,0,3:0:0:0:
76,99,10084,5,6,0:0:0:0:
213,146,10241,1,0,3:0:0:0:
26,237,10398,5,2,0:0:0:0:
143,212,10555,1,0,3:0:0:0:
59,365,10712,5,8,0:3:0:0:
133,302,10869,1,0,3:0:0:0:
256,365,11026,2,0,P|242:320|235:280,1,61.5999981201172,2|0,3:2|0:0,0:0:0:0:
346,210,11340,6,0,P|290:188|231:200,1,105.6,4|0,0:0|0:0,0:0:0:0:
223,208,11655,1,8,0:0:0:0:
172,49,11812,2,0,L|326:22,1,140.8,2|2,0:0|0:0,0:0:0:0:
477,65,12283,1,4,0:3:0:0:
415,133,12440,1,2,0:0:0:0:
393,43,12597,5,0,3:0:0:0:
415,133,13068,1,0,3:0:0:0:
398,219,13539,5,0,0:0:0:0:
415,133,13853,1,0,3:0:0:0:
455,294,14325,5,0,3:0:0:0:
455,294,15110,5,0,3:0:0:0:
398,219,15581,1,0,3:0:0:0:
308,244,16052,5,0,0:0:0:0:
398,219,16367,1,0,3:0:0:0:
239,178,16838,5,0,3:0:0:0:
239,178,17623,5,0,3:0:0:0:
204,337,18094,1,0,3:0:0:0:
204,337,18880,5,0,3:0:0:0:
156,129,19351,1,0,3:0:0:0:
156,129,20136,5,0,3:0:0:0:
156,129,20764,2,0,L|173:213,2,61.5999981201172,0|8|0,0:0|0:1|3:0,0:0:0:0:
156,249,21393,6,0,L|170:178,1,61.5999981201172,6|0,0:0|0:0,0:0:0:0:
206,339,21707,1,8,0:0:0:0:
217,324,22021,6,0,L|295:301,1,61.5999981201172,2|2,0:0|3:2,0:0:0:0:
86,252,22335,1,8,0:0:0:0:
108,344,22492,1,2,3:2:0:0:
241,237,22649,6,0,L|258:131,1,79.1999975830079,6|2,0:0|0:0,0:0:0:0:
189,18,22963,1,8,0:0:0:0:
285,69,23121,2,0,P|324:63|362:55,1,79.1999975830079,2|0,0:0|0:0,0:0:0:0:
446,18,23435,1,2,0:0:0:0:
472,201,23592,2,0,L|385:178,1,79.1999975830079,8|0,0:0|0:0,0:0:0:0:
233,46,23906,5,2,3:2:0:0:
261,149,24063,1,2,0:0:0:0:
66,114,24220,2,0,P|103:106|153:91,1,79.1999975830079,8|2,0:0|0:0,0:0:0:0:
24,228,24534,2,0,P|62:236|100:247,1,79.1999975830079,0|2,3:0|0:0,0:0:0:0:
261,302,24848,2,0,P|219:322|179:358,1,79.1999975830079,8|0,3:2|0:0,0:0:0:0:
195,186,25162,6,0,P|207:148|220:84,1,79.1999975830079,2|2,3:2|0:0,0:0:0:0:
278,286,25477,1,8,0:0:0:0:
366,205,25634,2,0,L|462:182,1,79.1999975830079,2|0,0:0|0:0,0:0:0:0:
333,83,25948,1,2,0:0:0:0:
261,302,26105,2,0,L|183:283,1,79.1999975830079,8|0,0:0|0:0,0:0:0:0:
27,259,26419,6,0,P|61:224|144:246,1,118.799996374512,2|0,3:2|0:0,0:0:0:0:
203,208,26733,2,0,B|218:171|227:123,1,79.1999975830079,8|2,0:0|0:0,0:0:0:0:
62,34,27047,1,0,3:0:0:0:
125,129,27204,1,2,0:0:0:0:
303,61,27361,2,0,P|246:43|212:38,1,79.1999975830079,8|0,0:0|0:0,0:0:0:0:
203,208,27675,6,0,L|369:179,1,158.399995166016,2|8,3:2|0:0,0:0:0:0:
250,324,28147,2,0,P|209:298|138:373,1,158.399995166016,2|2,3:2|0:0,0:0:0:0:
335,344,28618,2,0,P|348:298|356:251,1,79.1999975830079,8|0,0:0|0:0,0:0:0:0:
429,132,28932,5,2,3:2:0:0:
465,283,29089,1,2,0:0:0:0:
340,109,29246,1,8,0:0:0:0:
495,199,29403,1,2,3:2:0:0:
466,35,29560,1,0,3:0:0:0:
429,132,29717,1,2,0:0:0:0:
262,43,29874,2,0,L|344:19,1,79.1999975830079,8|0,0:0|0:0,0:0:0:0:
207,193,30189,6,0,P|219:144|219:93,1,79.1999975830079,2|2,3:2|0:0,0:0:0:0:
107,236,30503,1,8,0:0:0:0:
190,302,30660,2,0,B|226:286|226:286|286:280,1,79.1999975830079,2|0,0:0|0:0,0:0:0:0:
419,348,30974,1,2,0:0:0:0:
343,200,31131,2,0,L|352:287,1,79.1999975830079,8|0,0:0|0:0,0:0:0:0:
501,164,31445,6,0,P|456:125|398:154,1,118.799996374512,6|0,3:2|0:0,0:0:0:0:
423,223,31759,2,0,P|468:214|491:186,1,79.1999975830079,8|0,0:0|0:0,0:0:0:0:
456,42,32073,1,2,0:0:0:0:
343,200,32230,2,0,L|302:193,1,39.5999987915039,8|8,0:0|0:0,0:0:0:0:
216,151,32388,1,2,0:0:0:0:
221,186,32466,1,2,0:0:0:0:
228,221,32545,1,8,0:0:0:0:
234,255,32623,1,8,0:0:0:0:
240,290,32702,1,12,0:0:0:0:
242,304,33016,6,0,L|99:279,1,118.799996374512,2|0,3:2|0:0,0:0:0:0:
55,329,33330,2,0,L|142:308,1,79.1999975830079,2|0,3:2|0:0,0:0:0:0:
93,206,33644,1,2,3:2:0:0:
160,132,33801,1,0,0:0:0:0:
254,160,33958,6,0,P|252:104|227:67,1,79.1999975830079,2|0,3:2|0:0,0:0:0:0:
152,33,34272,1,2,3:2:0:0:
69,246,34429,1,8,0:0:0:0:
29,165,34586,6,0,L|157:141,1,118.799996374512,2|0,3:2|0:0,0:0:0:0:
160,132,34901,2,0,L|138:227,1,79.1999975830079,2|0,3:2|0:0,0:0:0:0:
113,343,35215,1,6,0:0:0:0:
125,331,35529,6,0,L|267:361,1,118.799996374512,2|0,3:2|0:0,0:0:0:0:
308,316,35843,2,0,L|214:333,1,79.1999975830079,2|0,3:2|0:0,0:0:0:0:
196,240,36157,1,2,3:2:0:0:
325,151,36314,1,0,0:0:0:0:
112,54,36471,6,0,L|130:143,1,79.1999975830079,2|0,3:2|0:0,0:0:0:0:
311,229,36785,2,0,L|326:151,1,79.1999975830079,2|0,3:2|0:0,0:0:0:0:
197,65,37100,5,8,0:0:0:0:
210,131,37204,5,8,0:0:0:0:
225,197,37309,5,8,0:0:0:0:
190,256,37414,5,8,0:0:0:0:
124,275,37518,5,8,0:0:0:0:
62,244,37623,5,8,0:0:0:0:
31,179,37728,6,0,L|209:130,1,184.799994360352,6|2,0:0|0:0,0:0:0:0:
241,306,38356,5,8,3:2:0:0:
228,149,38513,1,2,0:0:0:0:
301,357,38984,5,2,3:2:0:0:
328,202,39141,1,2,0:0:0:0:
393,347,39613,5,8,0:0:0:0:
314,279,39770,1,0,3:0:0:0:
455,245,39927,5,2,0:0:0:0:
301,357,40084,2,0,L|293:307,1,30.7999990600586,2|2,0:0|0:0,0:0:0:0:
222,177,40241,5,12,3:2:0:0:
222,177,41497,5,8,0:0:0:0:
388,343,41655,1,2,3:2:0:0:
374,98,41812,1,8,0:0:0:0:
310,240,41969,1,2,0:0:0:0:
142,297,42126,5,8,0:0:0:0:
412,212,42283,1,2,0:0:0:0:
183,96,42440,5,8,0:0:0:0:
277,346,42597,1,0,3:0:0:0:
460,125,42754,1,8,0:0:0:0:
465,144,43068,5,8,0:0:0:0:
237,232,43225,1,8,0:0:0:0:
447,278,43382,5,8,0:0:0:0:
183,96,43539,1,8,0:0:0:0:
211,349,43696,5,8,0:0:0:0:
275,67,43853,1,8,0:0:0:0:
369,299,44011,5,0,3:0:0:0:
369,299,44325,1,0,3:0:0:0:
369,299,44639,1,0,3:0:0:0:
369,299,44953,2,0,L|356:255,3,30.7999990600586,0|0|0|0,3:0|3:0|3:0|3:0,0:0:0:0:
349,241,45267,6,0,P|279:228|195:206,1,145.200004431152,6|0,0:0|0:0,0:0:0:0:
124,254,45581,2,0,P|173:240|222:230,1,96.8000029541017,8|0,0:0|3:0,0:0:0:0:
237,121,45895,1,2,0:0:0:0:
210,314,46052,1,2,0:0:0:0:
29,195,46210,1,8,0:0:0:0:
124,254,46367,1,2,0:0:0:0:
182,46,46524,6,0,P|105:66|77:71,1,96.8000029541017,0|2,3:0|0:0,0:0:0:0:
330,144,46838,2,0,P|282:134|236:120,1,96.8000029541017,8|0,0:0|0:0,0:0:0:0:
460,21,47152,2,0,P|430:70|380:101,1,96.8000029541017,2|2,0:0|0:0,0:0:0:0:
303,309,47466,2,0,L|270:205,1,96.8000029541017,8|0,0:0|0:0,0:0:0:0:
415,349,47780,6,0,B|428:293|428:293|454:253|454:253|430:209|448:158,1,193.600005908203,6|8,0:0|0:0,0:0:0:0:
282,201,48251,1,0,3:0:0:0:
456,145,48408,2,0,P|393:128|347:113,1,96.8000029541017,2|0,0:0|0:0,0:0:0:0:
101,88,48723,1,8,0:0:0:0:
330,20,48880,1,2,0:0:0:0:
206,172,49037,5,0,3:0:0:0:
158,23,49194,1,2,0:0:0:0:
87,238,49351,2,0,P|98:285|106:332,1,96.8000029541017,8|0,0:0|0:0,0:0:0:0:
0,196,49665,1,2,3:2:0:0:
103,357,49822,1,2,0:0:0:0:
245,99,49979,2,0,P|184:79|149:74,1,96.8000029541017,8|0,3:2|0:0,0:0:0:0:
247,260,50293,6,0,P|304:222|386:256,1,145.200004431152,6|0,0:0|0:0,0:0:0:0:
414,357,50607,2,0,P|395:288|382:255,1,96.8000029541017,8|0,0:0|3:0,0:0:0:0:
299,326,50922,1,2,0:0:0:0:
474,219,51079,1,2,0:0:0:0:
211,123,51236,2,0,P|258:114|304:100,1,96.8000029541017,8|2,0:0|0:0,0:0:0:0:
112,244,51550,6,0,P|159:253|205:267,1,96.8000029541017,0|2,3:0|0:0,0:0:0:0:
23,74,51864,2,0,P|61:113|123:112,1,96.8000029541017,8|0,0:0|0:0,0:0:0:0:
293,25,52178,1,2,3:2:0:0:
221,151,52335,1,2,0:0:0:0:
322,332,52492,2,0,P|313:276|302:225,1,96.8000029541017,8|0,0:0|0:0,0:0:0:0:
401,53,52806,6,0,L|382:206,1,145.200004431152,6|0,0:0|0:0,0:0:0:0:
420,273,53121,2,0,P|428:210|380:182,1,96.8000029541017,8|0,0:0|0:0,0:0:0:0:
206,312,53435,1,2,3:2:0:0:
340,351,53592,1,2,0:0:0:0:
263,90,53749,2,0,P|211:68|160:95,1,96.8000029541017,8|0,0:0|0:0,0:0:0:0:
269,218,54063,6,0,P|299:99|328:23,1,193.600005908203,2|8,0:0|0:0,0:0:0:0:
373,166,54534,1,2,0:0:0:0:
190,256,54691,1,8,0:0:0:0:
367,360,54848,5,8,0:0:0:0:
400,331,54927,1,8,0:0:0:0:
403,287,55005,1,8,0:0:0:0:
384,247,55084,1,8,0:0:0:0:
362,209,55162,1,8,0:0:0:0:
373,166,55241,1,8,0:0:0:0:
407,140,55319,5,6,0:0:0:0:
323,296,55477,1,0,3:0:0:0:
151,71,55634,5,8,0:0:0:0:
254,205,55791,1,0,3:0:0:0:
349,21,55948,6,0,P|332:66|319:113,1,96.8000029541017,2|2,0:0|0:0,0:0:0:0:
400,331,56262,2,0,L|494:309,1,96.8000029541017,8|0,0:0|0:0,0:0:0:0:
277,224,56576,6,0,P|270:274|262:340,1,96.8000029541017,0|2,3:0|0:0,0:0:0:0:
392,167,56890,2,0,P|459:156|496:213,1,145.200004431152,8|0,0:0|0:0,0:0:0:0:
362,244,57204,5,8,0:0:0:0:
305,190,57309,5,8,0:0:0:0:
319,113,57414,5,8,0:0:0:0:
296,39,57518,5,8,0:0:0:0:
221,16,57623,5,8,0:0:0:0:
154,55,57728,5,8,0:0:0:0:
123,126,57833,6,0,L|154:303,1,171.599992144776,6|0,0:0|0:0,0:0:0:0:
334,261,58147,6,0,P|284:220|220:228,1,132,12|0,0:0|0:0,0:0:0:0:
72,320,58461,6,0,P|107:291|152:294,1,92.3999971801759,12|0,0:0|0:0,0:0:0:0:
248,347,58775,6,0,L|262:297,1,52.8,6|0,0:0|0:0,0:0:0:0:
220,228,59089,5,2,0:0:0:0:
425,328,59246,1,8,0:0:0:0:
245,361,59403,1,2,0:0:0:0:
388,204,59560,1,4,0:3:0:0:
278,53,59717,6,0,P|249:40|225:36,1,48.4000014770508,8|0,0:0|0:0,0:0:0:0:
159,85,59874,1,8,0:0:0:0:
149,122,59953,1,8,0:0:0:0:
155,159,60031,1,8,0:0:0:0:
179,189,60110,1,8,0:0:0:0:
200,221,60189,1,8,0:0:0:0:
209,258,60267,1,8,0:0:0:0:
194,294,60346,6,0,L|322:273,1,96.8000029541017,6|2,0:0|0:0,0:0:0:0:
90,363,60660,2,0,P|82:315|71:268,1,96.8000029541017,8|0,0:0|0:0,0:0:0:0:
255,134,60974,1,2,3:2:0:0:
179,189,61131,1,2,0:0:0:0:
54,74,61288,2,0,P|60:121|91:159,1,96.8000029541017,8|0,0:0|0:0,0:0:0:0:
225,22,61602,5,2,3:2:0:0:
179,189,61759,1,2,0:0:0:0:
387,73,61916,2,0,P|332:51|292:64,1,96.8000029541017,8|0,0:0|0:0,0:0:0:0:
228,272,62230,5,2,0:0:0:0:
340,201,62388,1,2,3:2:0:0:
356,336,62545,1,8,3:2:0:0:
259,155,62702,1,8,0:0:0:0:
178,358,62859,5,12,0:0:0:0:
423,117,63016,1,2,0:0:0:0:
146,159,63173,5,12,0:0:0:0:
405,267,63330,1,2,0:0:0:0:
338,8,63487,2,0,L|314:120,1,96.8000029541017,12|2,0:0|0:0,0:0:0:0:
240,350,63801,5,8,0:0:0:0:
211,198,63958,1,2,0:0:0:0:
357,248,64115,1,2,3:2:0:0:
156,305,64272,5,8,0:0:0:0:
357,248,64429,1,2,0:0:0:0:
209,103,64586,1,2,3:2:0:0:
240,350,64744,6,0,L|247:290,1,48.4000014770508,8|0,0:0|0:0,0:0:0:0:
304,177,64901,1,8,0:0:0:0:
306,138,64980,1,8,0:0:0:0:
323,103,65058,1,2,0:0:0:0:
351,76,65136,1,2,0:0:0:0:
388,67,65215,1,8,0:0:0:0:
424,79,65293,1,8,0:0:0:0:
451,106,65372,6,0,L|274:70,1,145.200004431152,6|0,0:0|0:0,0:0:0:0:
197,72,65686,2,0,P|239:50|300:65,1,96.8000029541017,8|0,0:0|3:0,0:0:0:0:
253,271,66000,1,2,0:0:0:0:
176,176,66157,1,2,0:0:0:0:
451,106,66314,1,8,0:0:0:0:
416,236,66471,1,2,0:0:0:0:
286,56,66628,6,0,L|269:163,1,96.8000029541017,0|2,3:0|0:0,0:0:0:0:
396,359,66942,2,0,P|339:345|292:330,1,96.8000029541017,8|0,0:0|0:0,0:0:0:0:
142,362,67257,1,2,0:0:0:0:
191,191,67414,1,2,0:0:0:0:
416,236,67571,2,0,P|405:181|397:127,1,96.8000029541017,8|0,0:0|0:0,0:0:0:0:
302,333,67885,6,0,L|326:184,1,145.200004431152,2|0,3:2|0:0,0:0:0:0:
296,80,68199,2,0,P|296:128|312:173,1,96.8000029541017,8|0,0:0|3:0,0:0:0:0:
191,191,68513,1,2,0:0:0:0:
398,140,68670,1,2,0:0:0:0:
175,37,68827,1,8,0:0:0:0:
204,295,68984,6,0,L|100:262,1,96.8000029541017,2|0,0:0|3:0,0:0:0:0:
264,365,69299,1,2,0:0:0:0:
325,189,69456,2,0,P|277:183|233:202,1,96.8000029541017,8|0,0:0|0:0,0:0:0:0:
77,98,69770,1,2,3:2:0:0:
109,242,69927,1,2,0:0:0:0:
265,22,70084,2,0,P|254:70|244:116,1,96.8000029541017,8|0,3:2|0:0,0:0:0:0:
20,29,70398,6,0,P|37:99|42:174,1,145.200004431152,6|0,0:0|0:0,0:0:0:0:
109,242,70712,2,0,P|67:204|24:206,1,96.8000029541017,8|0,0:0|3:0,0:0:0:0:
98,371,71026,1,2,0:0:0:0:
201,315,71183,1,2,0:0:0:0:
390,364,71340,2,0,P|402:306|419:261,1,96.8000029541017,8|2,0:0|0:0,0:0:0:0:
289,170,71655,6,0,L|309:294,1,96.8000029541017,0|2,3:0|0:0,0:0:0:0:
512,92,71969,1,8,0:0:0:0:
483,203,72126,1,0,0:0:0:0:
267,49,72283,2,0,P|314:26|367:37,1,96.8000029541017,2|2,3:2|0:0,0:0:0:0:
219,237,72597,2,0,P|168:223|111:212,1,96.8000029541017,8|0,0:0|0:0,0:0:0:0:
311,283,72911,6,0,P|323:206|343:117,1,145.200004431152,6|0,0:0|0:0,0:0:0:0:
437,122,73225,2,0,P|382:107|344:132,1,96.8000029541017,8|0,0:0|0:0,0:0:0:0:
398,330,73539,1,2,3:2:0:0:
219,237,73696,1,2,0:0:0:0:
422,26,73853,2,0,L|437:122,1,96.8000029541017,8|0,0:0|0:0,0:0:0:0:
206,37,74168,5,6,0:0:0:0:
330,104,74325,1,2,0:0:0:0:
135,178,74482,5,8,0:0:0:0:
341,78,74639,1,2,0:0:0:0:
338,334,74796,6,0,L|327:282,1,48.4000014770508,8|0,0:0|0:0,0:0:0:0:
372,170,74953,1,8,0:0:0:0:
340,200,75031,1,8,0:0:0:0:
297,208,75110,1,8,0:0:0:0:
256,192,75189,1,8,0:0:0:0:
221,166,75267,1,8,0:0:0:0:
177,166,75346,1,8,0:0:0:0:
135,178,75424,5,6,0:0:0:0:
302,132,75581,1,0,3:0:0:0:
129,33,75738,5,8,0:0:0:0:
282,232,75895,1,0,3:0:0:0:
137,357,76052,2,0,P|130:305|113:240,1,96.8000029541017,2|2,0:0|0:0,0:0:0:0:
34,101,76367,2,0,P|72:140|107:196,1,96.8000029541017,8|0,0:0|0:0,0:0:0:0:
282,232,76681,6,0,P|199:214|156:207,1,96.8000029541017,0|2,3:0|0:0,0:0:0:0:
362,364,76995,2,0,P|374:290|402:214,1,145.200004431152,8|0,0:0|0:0,0:0:0:0:
440,136,77309,5,8,0:0:0:0:
371,155,77414,5,8,0:0:0:0:
304,132,77518,5,8,0:0:0:0:
293,61,77623,5,8,0:0:0:0:
238,15,77728,5,8,0:0:0:0:
166,17,77833,5,8,0:0:0:0:
107,61,77937,6,0,P|76:138|127:202,1,171.599992144776,6|0,0:0|0:3,0:3:0:0:
176,256,78251,6,0,L|155:126,1,132,12|0,0:0|0:0,0:0:0:0:
274,219,78566,6,0,B|256:263|256:263|265:321,1,92.3999971801759,6|0,3:2|0:0,0:0:0:0:
353,223,78880,6,0,P|352:199|336:168,1,52.8,12|0,0:0|0:0,0:0:0:0:
268,132,79194,5,2,0:0:0:0:
349,354,79351,1,8,0:0:0:0:
512,223,79508,1,2,0:0:0:0:
481,336,79665,1,4,0:3:0:0:
397,110,79822,6,0,P|432:94|451:93,1,48.4000014770508,8|0,0:0|0:0,0:0:0:0:
434,193,79979,1,8,0:0:0:0:
390,201,80058,1,8,0:0:0:0:
348,188,80136,1,8,0:0:0:0:
317,157,80215,1,8,0:0:0:0:
306,115,80293,1,8,0:0:0:0:
314,71,80372,1,8,0:0:0:0:
341,37,80450,6,0,L|165:70,1,158.399995166016,6|2,0:0|0:0,0:0:0:0:
150,219,80922,1,8,0:0:0:0:
36,161,81079,2,0,P|82:128|113:130,1,79.1999975830079,2|0,0:0|0:0,0:0:0:0:
222,279,81393,2,0,L|248:171,1,79.1999975830079,2|0,0:0|0:0,0:0:0:0:
98,341,81707,5,8,0:0:0:0:
36,161,81864,1,2,0:0:0:0:
51,164,81942,1,2,0:0:0:0:
66,167,82021,1,2,0:0:0:0:
182,86,82178,1,0,0:0:0:0:
252,193,82335,5,0,3:0:0:0:
345,139,82649,1,0,3:0:0:0:
491,166,82963,5,4,3:2:0:0:
409,315,83592,1,0,3:0:0:0:
223,38,84220,5,4,3:2:0:0:
268,235,84848,1,0,3:0:0:0:
263,261,85477,6,0,B|282:306|271:347|271:347|310:309|353:290|353:290|362:370|462:360|462:360|508:261|433:231|433:231|457:177|457:177|420:205|365:188,1,633.599980664063
