osu file format v14

[General]
AudioFilename: audio.mp3
AudioLeadIn: 600
PreviewTime: 44007
Countdown: 0
SampleSet: Soft
StackLeniency: 0.7
Mode: 0
LetterboxInBreaks: 0
WidescreenStoryboard: 0

[Editor]
Bookmarks: 25158
DistanceSpacing: 1.1
BeatDivisor: 4
GridSize: 4
TimelineZoom: 2.3

[Metadata]
Title:PINK LEMONADE (TV Size)
TitleUnicode:ピンクレモネード (TV Size)
Artist:Sangatsu no Phantasia
ArtistUnicode:三月のパンタシア
Creator:eINess
Version:Hard
Source:ベルゼブブ嬢のお気に召すまま。
Tags:As Miss Beelzebub likes it beelzebub jou no okinimesu mama op opening anime japenese Affirmation Neoskylove lolia Karia
BeatmapID:1951364
BeatmapSetID:927277

[Difficulty]
HPDrainRate:5
CircleSize:4
OverallDifficulty:6
ApproachRate:8
SliderMultiplier:1.48
SliderTickRate:1

[Events]
//Background and Video events
0,0,"Beel.jpg",0,0
Video,-559,"PINK.mp4"
//Break Periods
//Storyboard Layer 0 (Background)
//Storyboard Layer 1 (Fail)
//Storyboard Layer 2 (Pass)
//Storyboard Layer 3 (Foreground)
//Storyboard Sound Samples

[TimingPoints]
32,314.13612565445,4,2,1,30,1,0
2545,-125,4,2,1,30,0,0
6942,-125,4,2,1,25,0,0
7257,-125,4,2,1,35,0,0
7571,-100,4,2,1,50,0,0
8356,-100,4,2,1,50,0,0
9141,-100,4,2,1,15,0,0
9299,-100,4,2,1,50,0,0
9456,-100,4,2,1,15,0,0
9613,-100,4,2,1,50,0,0
12597,-125,4,2,1,40,0,0
21079,-125,4,2,1,50,0,0
22649,-100,4,2,1,55,0,0
36471,-100,4,2,1,60,0,0
37100,-100,4,2,1,50,0,0
37414,-100,4,2,1,40,0,0
37728,-100,4,2,1,50,0,0
39141,-100,4,2,1,40,0,0
39613,-100,4,2,1,50,0,0
40084,-100,4,2,1,30,0,0
40241,-100,4,2,1,45,0,0
41497,-100,4,2,1,55,0,0
43068,-100,4,2,1,45,0,0
43382,-100,4,2,1,50,0,0
43696,-100,4,2,1,55,0,0
44011,-100,4,2,1,70,0,0
45267,-100,4,2,1,65,0,1
57204,-100,4,2,1,48,0,1
57833,-100,4,2,1,65,0,1
64901,-100,4,2,1,50,0,1
65058,-100,4,2,1,65,0,0
65372,-100,4,2,1,65,0,1
77309,-100,4,2,1,48,0,1
77937,-100,4,2,1,65,0,1
80450,-100,4,2,1,55,0,0
82963,-100,4,2,1,50,0,0
85477,-100,4,2,1,40,0,0

[Colours]
Combo1 : 255,255,128
Combo2 : 255,162,208
Combo3 : 141,252,219
Combo4 : 255,128,255

[HitObjects]
145,208,2545,6,0,L|155:279,2,59.2,0|0|0,3:0|0:0|3:0,0:0:0:0:
133,131,3016,1,0,3:0:0:0:
283,97,3330,1,0,3:0:0:0:
350,235,3644,1,0,3:0:0:0:
234,336,3958,2,0,L|181:324,2,29.6,0|0|0,3:0|3:0|3:0,0:0:0:0:
307,357,4272,1,0,3:0:0:0:
307,357,4901,5,0,3:0:0:0:
362,303,5058,2,0,P|391:288|426:285,1,59.2,0|0,3:0|3:0,0:0:0:0:
489,311,5372,1,0,3:0:0:0:
474,235,5529,1,0,3:0:0:0:
332,174,5843,1,0,3:0:0:0:
453,79,6157,1,0,3:0:0:0:
306,31,6471,2,0,L|257:43,2,29.6,0|0|0,3:0|3:0|3:0,0:0:0:0:
381,14,6785,1,0,3:0:0:0:
381,14,6942,6,0,L|363:150,1,118.4,2|2,0:3|0:0,0:0:0:0:
277,303,7571,6,0,L|268:212,1,74,4|0,3:2|0:0,0:0:0:0:
217,176,7885,1,0,3:0:0:0:
217,176,8042,2,0,P|133:209|59:186,1,148,0|0,3:0|3:0,0:0:0:0:
20,63,8670,1,0,3:0:0:0:
163,26,8984,2,0,L|151:73,2,37,0|0|8,3:0|3:0|3:1,0:0:0:0:
237,19,9299,2,0,L|212:115,1,74,0|8,3:0|0:1,0:0:0:0:
277,135,9613,2,0,P|331:120|352:117,1,74,0|8,3:0|0:3,0:0:0:0:
416,146,9927,1,0,3:0:0:0:
302,232,10084,6,0,L|209:212,1,74,6|0,0:0|3:0,0:0:0:0:
312,312,10398,2,0,L|219:292,1,74,2|0,0:0|3:0,0:0:0:0:
88,266,10712,2,0,L|181:246,1,74,8|0,0:3|3:0,0:0:0:0:
98,186,11026,2,0,L|191:166,1,74,2|0,3:2|0:0,0:0:0:0:
294,84,11340,6,0,P|251:30|185:53,1,148,4|8,0:0|0:0,0:0:0:0:
131,104,11812,2,0,L|160:250,1,148,2|2,0:0|0:0,0:0:0:0:
180,320,12283,1,4,0:3:0:0:
246,352,12440,1,2,0:0:0:0:
304,307,12597,6,0,P|333:277|421:296,1,118.4,0|0,3:0|0:0,0:0:0:0:
444,347,13068,2,0,L|465:215,1,118.4,0|0,3:0|0:0,0:0:0:0:
475,154,13539,1,0,0:0:0:0:
346,70,13853,6,0,B|305:62|305:62|276:39|276:39|236:32,1,118.4,0|0,3:0|0:0,0:0:0:0:
213,105,14325,1,0,3:0:0:0:
213,105,14482,2,0,B|252:111|252:111|281:134|281:134|322:142,1,118.4,0|0,0:0|0:0,0:0:0:0:
382,222,15110,6,0,P|327:255|269:232,1,118.4,0|0,3:0|0:0,0:0:0:0:
216,195,15581,2,0,L|255:326,1,118.4,0|0,3:0|0:0,0:0:0:0:
303,363,16052,1,0,0:0:0:0:
454,335,16367,6,0,L|473:208,1,118.4,0|0,3:0|0:0,0:0:0:0:
461,141,16838,1,0,3:0:0:0:
461,141,16995,2,0,P|403:137|366:93,1,118.4
215,63,17623,6,0,B|166:55|166:55|83:86,1,118.4,0|0,3:0|0:0,0:0:0:0:
68,149,18094,1,0,3:0:0:0:
68,149,18251,2,0,B|116:156|116:156|199:125,1,118.4
321,200,18880,6,0,L|448:174,1,118.4,0|0,3:0|0:0,0:0:0:0:
472,244,19351,1,0,3:0:0:0:
472,244,19508,2,0,P|453:302|446:366,1,118.4
299,316,20136,6,0,L|321:200,1,118.4,0|0,3:0|0:0,0:0:0:0:
276,137,20607,1,0,0:0:0:0:
276,137,20764,2,0,B|242:115|242:115|201:122|177:157,1,118.4,0|0,0:0|3:0,0:0:0:0:
74,276,21393,6,0,P|114:264|150:268,1,59.2,6|0,0:0|0:0,0:0:0:0:
195,307,21707,2,0,L|205:392,1,59.2,8|0,0:0|0:0,0:0:0:0:
273,336,22021,2,0,L|266:277,1,59.2,2|2,0:0|3:2,0:0:0:0:
324,227,22335,1,8,0:0:0:0:
395,255,22492,1,4,3:0:0:0:
436,123,22649,6,0,L|290:152,1,148,6|8,0:0|0:0,0:0:0:0:
241,96,23121,2,0,P|175:63|109:112,1,148,2|2,0:0|0:0,0:0:0:0:
45,117,23592,2,0,L|69:202,1,74,8|0,0:0|0:0,0:0:0:0:
36,258,23906,5,2,3:2:0:0:
108,273,24063,1,2,0:0:0:0:
158,328,24220,2,0,P|179:297|182:260,1,74,8|2,0:0|0:0,0:0:0:0:
238,211,24534,2,0,P|302:188|313:187,1,74,0|2,3:0|0:0,0:0:0:0:
329,258,24848,2,0,P|265:281|254:282,1,74,8|0,3:2|0:0,0:0:0:0:
246,354,25162,6,0,P|310:348|391:301,1,148,2|8,3:2|0:0,0:0:0:0:
446,346,25634,2,0,B|415:289|415:289|443:185,1,148,2|2,0:0|0:0,0:0:0:0:
402,143,26105,2,0,P|385:100|362:71,1,74,8|0,0:0|0:0,0:0:0:0:
305,39,26419,6,0,P|259:32|222:37,1,74,2|0,3:2|0:0,0:0:0:0:
177,85,26733,1,8,0:0:0:0:
197,156,26890,1,2,0:0:0:0:
219,226,27047,2,0,L|202:314,1,74,0|2,3:0|0:0,0:0:0:0:
273,327,27361,2,0,L|287:254,1,74,8|0,0:0|0:0,0:0:0:0:
339,202,27675,6,0,P|383:256|327:321,1,148,2|8,3:2|0:0,0:0:0:0:
273,327,28147,2,0,B|213:335|213:335|178:354|178:354|116:368,1,148,2|2,3:2|0:0,0:0:0:0:
58,352,28618,2,0,P|68:310|78:262,1,74,8|0,0:0|0:0,0:0:0:0:
46,211,28932,5,2,3:2:0:0:
105,167,29089,1,2,0:0:0:0:
83,96,29246,2,0,L|-17:75,1,74,8|2,0:0|3:2,0:0:0:0:
41,13,29560,2,0,L|113:28,1,74,0|2,3:0|0:0,0:0:0:0:
161,84,29874,2,0,L|184:160,1,74,8|0,0:0|0:0,0:0:0:0:
207,224,30189,6,0,B|208:158|228:119|228:119|283:88,1,148,2|8,3:2|0:0,0:0:0:0:
332,125,30660,2,0,P|380:146|452:89,1,148,2|2,0:0|0:0,0:0:0:0:
416,28,31131,2,0,P|371:13|337:12,1,74,8|0,0:0|0:0,0:0:0:0:
271,25,31445,6,0,B|207:36|207:36|176:51|176:51|115:63,2,148,6|8|2,3:2|0:0|0:0,0:0:0:0:
262,99,32230,1,8,0:0:0:0:
257,120,32309,1,8,0:0:0:0:
252,141,32388,2,0,L|263:196,3,37,2|2|8|8,0:0|0:0|0:0|0:0,0:0:0:0:
263,199,32702,6,0,L|156:183,1,74,12|0,0:0|0:0,0:0:0:0:
128,229,33016,2,0,P|134:266|141:311,1,74,2|0,3:2|0:0,0:0:0:0:
208,333,33330,2,0,P|266:356|333:298,1,148,2|2,3:2|3:2,0:0:0:0:
390,267,33801,1,0,0:0:0:0:
390,267,33958,6,0,P|426:284|460:287,1,74,2|0,3:2|0:0,0:0:0:0:
498,225,34272,2,0,P|476:190|450:169,1,74,2|8,3:2|0:0,0:0:0:0:
379,190,34586,2,0,B|366:150|366:150|399:28,1,148,2|2,3:2|3:2,0:0:0:0:
322,25,35058,1,0,0:0:0:0:
322,25,35215,6,0,L|292:125,1,74,6|0,0:0|0:0,0:0:0:0:
271,163,35529,2,0,L|292:233,1,74,2|0,3:2|0:0,0:0:0:0:
236,286,35843,2,0,P|167:284|148:217,1,148,2|2,3:2|3:2,0:0:0:0:
109,75,36471,6,0,L|5:93,1,74,2|0,3:2|0:0,0:0:0:0:
78,156,36785,2,0,L|150:143,1,74,2|0,3:2|0:0,0:0:0:0:
189,79,37100,2,0,L|179:27,2,49.3333333333333,8|8|8,0:0|0:0|0:0,0:0:0:0:
232,101,37414,2,0,L|222:149,2,49.3333333333333,8|8|8,0:0|0:0|0:0,0:0:0:0:
279,85,37728,6,0,P|343:67|389:149,1,148,6|0,0:0|0:0,0:0:0:0:
410,194,38199,1,2,0:0:0:0:
374,258,38356,5,8,3:2:0:0:
374,258,38513,1,2,0:0:0:0:
159,316,38984,1,2,3:2:0:0:
159,316,39141,1,2,0:0:0:0:
267,121,39613,6,0,L|251:205,1,74,8|0,0:0|3:0,0:0:0:0:
301,249,39927,2,0,L|317:333,1,74,2|2,0:0|0:0,0:0:0:0:
256,366,40241,1,12,3:2:0:0:
256,366,41497,6,0,P|245:312|243:273,1,74,8|0,0:0|3:0,0:0:0:0:
326,218,41812,2,0,L|428:244,1,74,8|2,0:0|0:0,0:0:0:0:
464,147,42126,2,0,L|392:128,1,74,8|2,0:0|0:0,0:0:0:0:
283,52,42440,2,0,L|311:147,1,74,8|0,0:0|3:0,0:0:0:0:
326,218,42754,1,8,0:0:0:0:
326,218,43068,6,0,L|222:195,1,74,8|8,0:0|0:0,0:0:0:0:
185,230,43382,2,0,L|112:214,2,74,8|8|8,0:0|0:0|0:0,0:0:0:0:
206,300,43853,1,8,0:0:0:0:
274,329,44011,6,0,P|332:302|399:350,2,148,0|0|0,3:0|3:0|3:0,0:0:0:0:
127,354,44953,2,0,L|68:340,3,37,0|0|0|0,3:0|3:0|3:0|3:0,0:0:0:0:
69,340,45267,6,0,L|46:186,1,148,6|8,0:0|0:0,0:0:0:0:
33,113,45738,1,0,3:0:0:0:
89,54,45895,2,0,P|156:28|202:105,1,148,2|8,0:0|0:0,0:0:0:0:
234,152,46367,1,2,0:0:0:0:
309,122,46524,6,0,L|328:30,1,74,0|2,3:0|0:0,0:0:0:0:
407,143,46838,2,0,L|421:215,1,74,8|0,0:0|0:0,0:0:0:0:
367,275,47152,1,2,0:0:0:0:
292,241,47309,1,2,0:0:0:0:
217,273,47466,2,0,L|202:345,1,74,8|0,0:0|0:0,0:0:0:0:
71,245,47780,6,0,B|126:232|126:232|156:199|156:199|226:186,1,148,6|8,0:0|0:0,0:0:0:0:
267,142,48251,1,0,3:0:0:0:
337,182,48408,2,0,L|352:100,1,74,2|0,0:0|0:0,0:0:0:0:
429,89,48723,2,0,L|415:161,1,74,8|2,0:0|0:0,0:0:0:0:
394,240,49037,5,0,3:0:0:0:
473,222,49194,1,2,0:0:0:0:
453,341,49351,2,0,L|296:319,1,148,8|2,0:0|3:2,0:0:0:0:
234,359,49822,1,2,0:0:0:0:
151,265,49979,2,0,P|209:243|250:249,1,74,8|0,3:2|0:0,0:0:0:0:
329,179,50293,6,0,L|151:149,1,148,6|8,0:0|0:0,0:0:0:0:
170,73,50764,1,0,3:0:0:0:
170,73,50922,2,0,P|115:28|48:51,1,148,2|8,0:0|0:0,0:0:0:0:
19,127,51393,1,2,0:0:0:0:
66,192,51550,6,0,P|60:234|49:277,1,74,0|2,3:0|0:0,0:0:0:0:
140,351,51864,2,0,L|127:278,1,74,8|0,0:0|0:0,0:0:0:0:
189,226,52178,2,0,P|237:209|268:216,1,74,2|2,3:2|0:0,0:0:0:0:
318,268,52492,2,0,P|351:283|387:281,1,74,8|0,0:0|0:0,0:0:0:0:
477,176,52806,6,0,L|499:7,2,148,6|8|2,0:0|0:0|3:2,0:0:0:0:
466,257,53592,1,2,0:0:0:0:
318,268,53749,2,0,L|307:355,1,74,8|0,0:0|0:0,0:0:0:0:
228,353,54063,6,0,P|197:282|261:230,1,148,2|8,0:0|0:0,0:0:0:0:
302,185,54534,1,2,0:0:0:0:
266,111,54691,1,8,0:0:0:0:
305,39,54848,1,8,0:0:0:0:
326,33,54927,1,8,0:0:0:0:
347,27,55005,2,0,L|412:42,3,37,8|8|8|8,0:0|0:0|0:0|0:0,0:0:0:0:
404,42,55319,6,0,L|418:131,1,74,6|0,0:0|3:0,0:0:0:0:
430,195,55634,1,8,0:0:0:0:
361,238,55791,1,0,3:0:0:0:
407,304,55948,2,0,L|487:284,1,74,2|2,0:0|0:0,0:0:0:0:
342,361,56262,2,0,L|262:341,1,74,8|0,0:0|0:0,0:0:0:0:
191,361,56576,6,0,B|184:307|184:307|212:269|212:269|203:191,1,148,0|8,3:0|0:0,0:0:0:0:
180,146,57047,1,0,0:0:0:0:
230,81,57204,2,0,L|209:5,2,49.3333333333333,8|8|8,0:0|0:0|0:0,0:0:0:0:
281,100,57518,2,0,L|267:147,2,49.3333333333333,8|8|8,0:0|0:0|0:0,0:0:0:0:
326,69,57833,6,0,P|367:82|405:105,1,74,6|0,0:0|0:0,0:0:0:0:
493,140,58147,2,0,P|478:99|469:55,1,74,12|0,0:0|0:0,0:0:0:0:
416,180,58461,2,0,L|400:266,1,74,12|0,0:0|0:0,0:0:0:0:
417,332,58775,6,0,P|383:272|319:295,1,148,6|2,0:0|0:0,0:0:0:0:
258,349,59246,1,8,0:0:0:0:
195,297,59403,2,0,P|186:231|174:195,1,74,2|4,0:0|0:3,0:0:0:0:
76,152,59717,1,8,0:0:0:0:
46,227,59874,1,8,0:0:0:0:
39,248,59953,1,8,0:0:0:0:
34,269,60031,2,0,L|50:334,3,37,8|8|8|8,0:0|0:0|0:0|0:0,0:0:0:0:
49,326,60346,6,0,L|149:341,1,74,6|2,0:0|0:0,0:0:0:0:
195,297,60660,2,0,L|267:284,1,74,8|0,0:0|0:0,0:0:0:0:
382,357,60974,2,0,L|406:277,1,74,2|2,3:2|0:0,0:0:0:0:
349,224,61288,2,0,L|327:153,1,74,8|0,0:0|0:0,0:0:0:0:
383,94,61602,5,2,3:2:0:0:
383,94,61759,1,2,0:0:0:0:
251,126,61916,2,0,L|180:102,1,74,8|0,0:0|0:0,0:0:0:0:
100,91,62230,2,0,L|114:163,1,74,2|2,0:0|3:2,0:0:0:0:
190,193,62545,2,0,L|175:265,1,74,8|8,3:2|0:0,0:0:0:0:
312,342,62859,6,0,P|263:314|227:311,1,74,12|2,0:0|0:0,0:0:0:0:
103,363,63173,2,0,P|140:361|173:345,1,74,12|2,0:0|0:0,0:0:0:0:
92,246,63487,2,0,P|56:248|23:264,1,74,12|2,0:0|0:0,0:0:0:0:
135,177,63801,6,0,L|218:161,2,74,8|2|2,0:0|0:0|3:2,0:0:0:0:
74,122,64272,2,0,P|58:83|63:46,2,74,8|2|2,0:0|0:0|3:2,0:0:0:0:
140,73,64744,1,8,0:0:0:0:
202,21,64901,1,8,0:0:0:0:
222,29,64979,1,8,0:0:0:0:
243,35,65058,2,0,L|305:22,3,37,2|2|8|8,0:0|0:0|0:0|0:0,0:0:0:0:
300,19,65372,6,0,L|269:176,1,148,6|8,0:0|0:0,0:0:0:0:
319,230,65843,1,0,3:0:0:0:
392,194,66000,2,0,P|452:172|477:263,1,148,2|8,0:0|0:0,0:0:0:0:
474,312,66471,1,2,0:0:0:0:
474,312,66628,6,0,L|383:322,1,74,0|2,3:0|0:0,0:0:0:0:
289,356,66942,2,0,L|278:276,1,74,8|0,0:0|0:0,0:0:0:0:
208,241,67257,1,2,0:0:0:0:
146,294,67414,1,2,0:0:0:0:
77,249,67571,2,0,P|66:201|65:167,1,74,8|0,0:0|0:0,0:0:0:0:
151,95,67885,6,0,P|66:89|32:32,1,148,6|8,3:2|0:0,0:0:0:0:
113,23,68356,1,0,3:0:0:0:
113,23,68513,2,0,L|202:14,1,74,2|2,0:0|0:0,0:0:0:0:
233,81,68827,2,0,L|306:88,1,74,8|2,0:0|0:0,0:0:0:0:
381,57,69141,5,0,3:0:0:0:
369,138,69299,1,2,0:0:0:0:
512,126,69456,2,0,P|479:108|443:107,1,74,8|0,0:0|0:0,0:0:0:0:
369,138,69770,2,0,L|387:229,1,74,2|2,3:2|0:0,0:0:0:0:
486,295,70084,2,0,L|500:222,1,74,8|0,3:2|0:0,0:0:0:0:
392,286,70398,6,0,P|340:279|308:187,1,148,6|8,0:0|0:0,0:0:0:0:
247,140,70869,1,0,3:0:0:0:
247,140,71026,2,0,B|201:147|201:147|150:172|150:172|104:180,1,148,2|8,0:0|0:0,0:0:0:0:
26,196,71497,1,2,0:0:0:0:
39,276,71655,6,0,L|134:260,1,74,0|2,3:0|0:0,0:0:0:0:
236,234,71969,2,0,L|214:331,1,74,8|0,0:0|0:0,0:0:0:0:
284,355,72283,2,0,L|300:282,1,74,2|2,3:2|0:0,0:0:0:0:
379,268,72597,2,0,P|390:228|365:183,1,74,8|0,0:0|0:0,0:0:0:0:
299,107,72911,6,0,P|382:109|418:54,2,148,6|8|2,0:0|0:0|3:2,0:0:0:0:
230,62,73696,1,2,0:0:0:0:
145,194,73853,2,0,L|64:180,1,74,8|0,0:0|0:0,0:0:0:0:
46,103,74168,6,0,L|194:130,1,148,2|8,0:0|0:0,0:0:0:0:
224,203,74639,1,2,0:0:0:0:
181,272,74796,1,8,0:0:0:0:
221,342,74953,1,8,0:0:0:0:
242,337,75031,1,8,0:0:0:0:
262,329,75110,2,0,L|319:346,3,37,8|8|8|8,0:0|0:0|0:0|0:0,0:0:0:0:
317,348,75424,6,0,L|342:261,1,74,6|0,0:0|3:0,0:0:0:0:
414,250,75738,2,0,P|417:213|405:178,1,74,8|0,0:0|3:0,0:0:0:0:
373,103,76052,1,2,0:0:0:0:
402,26,76210,1,2,0:0:0:0:
285,49,76367,2,0,P|237:35|193:2,1,74,8|0,0:0|0:0,0:0:0:0:
164,86,76681,6,0,P|123:86|88:106,1,74,0|2,3:0|0:0,0:0:0:0:
145,164,76995,2,0,L|151:237,1,74,8|0,0:0|0:0,0:0:0:0:
208,296,77309,2,0,P|172:319|151:320,2,49.3333333333333,8|8|8,0:0|0:0|0:0,0:0:0:0:
256,320,77623,2,0,P|257:362|248:381,2,49.3333333333333,8|8|8,0:0|0:0|0:0,0:0:0:0:
308,305,77937,6,0,P|351:289|389:242,1,74,6|0,0:0|0:0,0:0:0:0:
383,160,78251,2,0,P|347:171|319:194,1,74,12|0,0:0|0:0,0:0:0:0:
221,139,78566,2,0,P|203:106|176:82,1,74,4|0,3:2|0:0,0:0:0:0:
94,156,78880,2,0,P|111:188|138:212,1,74,12|0,0:0|0:0,0:0:0:0:
205,260,79194,5,2,0:0:0:0:
158,326,79351,1,8,0:0:0:0:
80,350,79508,2,0,P|77:302|100:267,1,74,2|4,0:0|0:3,0:0:0:0:
241,339,79822,1,8,0:0:0:0:
304,288,79979,1,8,0:0:0:0:
313,267,80058,1,8,0:0:0:0:
322,247,80136,2,0,L|311:188,3,37,8|8|8|8,0:0|0:0|0:0|0:0,0:0:0:0:
309,188,80450,6,0,P|340:135|434:150,1,148,6|2,0:0|0:0,0:0:0:0:
486,183,80922,1,8,0:0:0:0:
471,262,81079,2,0,L|393:251,1,74,2|0,0:0|0:0,0:0:0:0:
348,316,81393,2,0,L|274:326,1,74,2|0,0:0|0:0,0:0:0:0:
194,338,81707,6,0,L|207:265,1,74,8|2,0:0|0:0,0:0:0:0:
211,243,81942,1,2,0:0:0:0:
216,221,82021,1,2,0:0:0:0:
173,151,82178,1,0,0:0:0:0:
235,97,82335,2,0,P|281:82|317:87,1,74,0|0,3:0|0:0,0:0:0:0:
385,98,82649,2,0,P|429:116|454:143,1,74,0|0,3:0|0:0,0:0:0:0:
489,203,82963,5,4,3:2:0:0:
193,341,83592,1,0,3:0:0:0:
356,59,84220,1,4,3:2:0:0:
409,379,84848,1,0,3:0:0:0:
181,145,85477,1,0,3:0:0:0:
