osu file format v14

[General]
AudioFilename: audio.mp3
AudioLeadIn: 600
PreviewTime: 44007
Countdown: 0
SampleSet: Soft
StackLeniency: 0.7
Mode: 0
LetterboxInBreaks: 0
WidescreenStoryboard: 0

[Editor]
Bookmarks: 25158
DistanceSpacing: 1.1
BeatDivisor: 2
GridSize: 8
TimelineZoom: 2.3

[Metadata]
Title:PINK LEMONADE (TV Size)
TitleUnicode:ピンクレモネード (TV Size)
Artist:Sangatsu no Phantasia
ArtistUnicode:三月のパンタシア
Creator:eINess
Version:Easy
Source:ベルゼブブ嬢のお気に召すまま。
Tags:As Miss Beelzebub likes it beelzebub jou no okinimesu mama op opening anime japenese Affirmation Neoskylove lolia Karia
BeatmapID:1958433
BeatmapSetID:927277

[Difficulty]
HPDrainRate:2.5
CircleSize:2.8
OverallDifficulty:3
ApproachRate:4
SliderMultiplier:0.75
SliderTickRate:1

[Events]
//Background and Video events
0,0,"Beel.jpg",0,0
Video,-559,"PINK.mp4"
//Break Periods
//Storyboard Layer 0 (Background)
//Storyboard Layer 1 (Fail)
//Storyboard Layer 2 (Pass)
//Storyboard Layer 3 (Foreground)
//Storyboard Sound Samples

[TimingPoints]
32,314.13612565445,4,2,1,30,1,0
2545,-100,4,2,1,30,0,0
7571,-100,4,2,1,40,0,0
12597,-100,4,2,1,30,0,0
22649,-100,4,2,1,55,0,0
32702,-100,4,2,1,50,0,0
37728,-100,4,2,1,45,0,0
41497,-100,4,2,1,55,0,0
44011,-100,4,2,1,45,0,0
45267,-100,4,2,1,65,0,1
65215,-100,4,2,1,65,0,0
65372,-100,4,2,1,65,0,1
80450,-100,4,2,1,65,0,0

[Colours]
Combo1 : 255,255,128
Combo2 : 255,162,208
Combo3 : 141,252,219
Combo4 : 255,128,255

[HitObjects]
361,241,2545,6,0,P|406:209|383:321,1,262.5,0|0,3:0|3:0,0:0:0:0:
81,155,5058,6,0,B|136:143|136:143|172:105|172:105|212:125|248:121|272:109|291:92|301:54,1,262.5,0|0,3:0|3:0,0:0:0:0:
263,264,6942,2,0,L|251:352,1,75,2|2,0:3|0:0,0:0:0:0:
171,351,7571,6,0,P|123:359|69:297,1,112.5,4|0,3:2|3:0,0:0:0:0:
54,241,8356,1,0,3:0:0:0:
98,171,8670,2,0,B|159:179|159:179|177:167|177:167|263:177,1,150,0|0,3:0|3:0,0:0:0:0:
302,283,9770,1,8,0:3:0:0:
371,327,10084,6,0,P|429:310|447:296,1,75,6|2,0:0|0:0,0:0:0:0:
492,238,10712,2,0,L|472:135,1,75,8|2,0:3|3:2,0:0:0:0:
419,105,11340,2,0,B|363:109|326:78|326:78|270:109|270:109|283:143|254:197,1,225,4|4,0:0|0:3,0:0:0:0:
230,244,12597,6,0,L|83:220,2,112.5,0|0|0,3:0|3:0|0:0,0:0:0:0:
261,320,13853,1,0,3:0:0:0:
420,364,14482,2,0,L|440:261,1,75,0|0,0:0|0:0,0:0:0:0:
472,217,15110,6,0,P|414:238|368:184,2,112.5,0|0|0,3:0|3:0|0:0,0:0:0:0:
498,138,16367,1,0,3:0:0:0:
375,27,16995,2,0,L|285:47,1,75,0|0,0:0|0:0,0:0:0:0:
237,95,17623,6,0,P|170:86|161:170,1,150,0|0,3:0|0:0,0:0:0:0:
256,278,18880,2,0,P|323:287|332:203,1,150,0|0,3:0|0:0,0:0:0:0:
302,148,19822,1,0,0:0:0:0:
237,95,20136,6,0,L|87:121,1,150,0|0,3:0|0:0,0:0:0:0:
62,198,21079,1,0,3:0:0:0:
114,261,21393,2,0,L|211:237,1,75,6|8,0:0|0:0,0:0:0:0:
235,309,22021,2,0,L|307:327,1,75,2|8,0:0|0:0,0:0:0:0:
363,266,22649,6,0,P|360:320|398:360,2,112.5,6|2|8,0:0|0:0|0:0,0:0:0:0:
401,192,23906,2,0,L|488:171,1,75,2|8,3:2|0:0,0:0:0:0:
507,99,24534,1,0,3:0:0:0:
463,28,24848,1,8,3:2:0:0:
381,37,25162,6,0,B|326:77|252:43,2,112.5,2|2|8,3:2|0:0|0:0,0:0:0:0:
463,28,26419,1,2,3:2:0:0:
507,99,26733,1,8,0:0:0:0:
473,174,27047,2,0,L|401:192,1,75,0|8,3:0|0:0,0:0:0:0:
334,240,27675,6,0,P|361:288|371:354,2,112.5,2|2|8,3:2|3:2|0:0,0:0:0:0:
259,204,28932,1,2,3:2:0:0:
183,237,29246,1,8,0:0:0:0:
108,202,29560,2,0,L|128:95,1,75,0|8,3:0|0:0,0:0:0:0:
197,94,30189,6,0,P|155:53|75:63,2,112.5,2|2|8,3:2|0:0|0:0,0:0:0:0:
253,154,31445,1,6,3:2:0:0:
333,134,31759,1,8,0:0:0:0:
412,110,32073,2,0,L|510:81,1,75,2|2,0:0|0:0,0:0:0:0:
510,167,32702,5,12,0:0:0:0:
471,239,33016,2,0,L|399:260,1,75,2|2,3:2|3:2,0:0:0:0:
269,362,33958,2,0,P|289:319|212:234,1,150,2|2,3:2|3:2,0:0:0:0:
160,212,34901,1,2,3:2:0:0:
89,254,35215,5,6,0:0:0:0:
13,220,35529,2,0,L|25:135,1,75,2|2,3:2|3:2,0:0:0:0:
164,60,36471,2,0,P|237:31|298:95,2,150,2|8|6,3:2|0:0|0:0,0:0:0:0:
242,205,38356,6,0,L|413:172,1,150,8|2,3:2|3:2,0:0:0:0:
467,321,39613,1,8,0:0:0:0:
394,360,39927,1,2,0:0:0:0:
316,332,40241,6,0,P|269:318|225:321,1,75,12|0,3:2|0:0,0:0:0:0:
165,346,40869,2,0,L|150:258,1,75,0|0,3:0|0:0,0:0:0:0:
139,190,41497,2,0,B|112:154|71:152|48:167|48:167|7:227,2,150,8|8|8,0:0|0:0|0:0,0:0:0:0:
216,219,43068,6,0,P|316:191|361:211,1,150,8|8,0:0|0:0,0:0:0:0:
426,247,44011,2,0,L|446:341,2,75,0|0|0,3:0|3:0|3:0,0:0:0:0:
481,186,44953,1,0,3:0:0:0:
496,105,45267,6,0,L|323:69,1,150,6|2,0:0|0:0,0:0:0:0:
289,131,46210,1,8,0:0:0:0:
225,183,46524,1,0,3:0:0:0:
154,226,46838,2,0,L|60:202,2,75,8|2|8,0:0|0:0|0:0,0:0:0:0:
224,268,47780,6,0,P|287:309|358:249,1,150,6|2,0:0|0:0,0:0:0:0:
403,216,48723,1,8,0:0:0:0:
475,255,49037,2,0,L|464:347,2,75,0|8|2,3:0|0:0|3:2,0:0:0:0:
482,172,49979,1,8,3:2:0:0:
491,90,50293,6,0,P|397:45|364:75,1,150,6|2,0:0|0:0,0:0:0:0:
315,124,51236,1,8,0:0:0:0:
234,105,51550,2,0,L|220:30,2,75,0|8|2,3:0|0:0|3:2,0:0:0:0:
249,186,52492,1,8,0:0:0:0:
222,264,52806,6,0,P|179:280|129:263,1,75,6|8,0:0|0:0,0:0:0:0:
70,256,53435,2,0,P|34:226|24:174,1,75,2|8,3:2|0:0,0:0:0:0:
41,119,54063,2,0,L|200:81,1,150,2|8,0:0|0:0,0:0:0:0:
261,118,55005,1,8,0:0:0:0:
341,98,55319,6,0,P|372:70|421:64,2,75,6|8|2,0:0|0:0|0:0,0:0:0:0:
323,178,56262,1,8,0:0:0:0:
310,259,56576,2,0,L|299:353,1,75,0|8,3:0|0:0,0:0:0:0:
222,357,57204,1,8,0:0:0:0:
153,310,57518,1,8,0:0:0:0:
125,231,57833,6,0,P|86:255|71:306,2,75,6|12|12,0:0|0:0|0:0,0:0:0:0:
206,244,58775,2,0,P|248:220|234:122,1,150,6|2,0:0|0:0,0:0:0:0:
211,52,59717,2,0,L|284:38,1,75,8|8,0:0|0:0,0:0:0:0:
367,33,60346,6,0,L|355:120,1,75,6|8,0:0|0:0,0:0:0:0:
384,184,60974,1,2,3:2:0:0:
465,174,61288,1,8,0:0:0:0:
496,250,61602,2,0,L|484:337,1,75,2|8,3:2|0:0,0:0:0:0:
411,360,62230,2,0,P|365:351|327:329,1,75,2|8,0:0|3:2,0:0:0:0:
274,288,62859,6,0,L|179:315,2,75,12|12|12,0:0|0:0|0:0,0:0:0:0:
317,217,63801,2,0,P|342:151|324:108,2,112.5,8|8|8,0:0|0:0|0:0,0:0:0:0:
196,103,65372,6,0,P|142:88|89:166,1,150,6|2,0:0|0:0,0:0:0:0:
74,234,66314,1,8,0:0:0:0:
104,310,66628,1,0,3:0:0:0:
178,345,66942,2,0,P|185:298|171:262,2,75,8|2|8,0:0|0:0|0:0,0:0:0:0:
257,366,67885,6,0,P|267:311|240:216,1,150,2|2,3:2|0:0,0:0:0:0:
194,154,68827,1,8,0:0:0:0:
256,100,69141,2,0,L|358:66,1,75,0|8,3:0|0:0,0:0:0:0:
387,132,69770,2,0,L|458:108,1,75,2|8,3:2|3:2,0:0:0:0:
496,181,70398,6,0,L|342:229,1,150,6|2,0:0|0:0,0:0:0:0:
327,304,71340,1,8,0:0:0:0:
256,347,71655,2,0,P|211:354|156:328,2,75,0|8|2,3:0|0:0|3:2,0:0:0:0:
223,271,72597,1,8,0:0:0:0:
193,194,72911,6,0,L|208:88,1,75,6|8,0:0|0:0,0:0:0:0:
152,55,73539,2,0,P|82:33|54:40,1,75,2|8,3:2|0:0,0:0:0:0:
26,93,74168,2,0,L|40:260,1,150,6|8,0:0|0:0,0:0:0:0:
49,324,75110,1,8,0:0:0:0:
125,354,75424,6,0,P|171:349|214:333,1,75,6|8,0:0|0:0,0:0:0:0:
273,307,76052,1,2,0:0:0:0:
348,339,76367,1,8,0:0:0:0:
422,303,76681,2,0,P|438:256|430:220,1,75,0|8,3:0|0:0,0:0:0:0:
384,166,77309,1,8,0:0:0:0:
301,172,77623,1,8,0:0:0:0:
244,232,77937,6,0,P|218:194|225:144,2,75,6|12|4,0:0|0:0|3:2,0:0:0:0:
272,309,78880,2,0,L|91:340,1,150,12|2,0:0|0:0,0:0:0:0:
62,279,79822,2,0,P|48:228|67:194,1,75,8|8,0:0|0:0,0:0:0:0:
108,146,80450,6,0,L|76:66,1,75,6|2,0:0|0:0,0:0:0:0:
152,36,81079,2,0,L|179:105,1,75,2|2,0:0|0:0,0:0:0:0:
251,145,81707,2,0,P|346:144|373:90,1,150,8|0,0:0|3:0,0:0:0:0:
439,59,82649,1,0,3:0:0:0:
472,134,82963,6,0,L|436:300,1,150,4|0,3:2|3:0,0:0:0:0:
291,353,84220,2,0,L|259:206,1,150,4|0,3:2|3:0,0:0:0:0:
223,45,85477,1,0,3:0:0:0:
