osu file format v14

[General]
AudioFilename: audio.mp3
AudioLeadIn: 600
PreviewTime: 44007
Countdown: 0
SampleSet: Soft
StackLeniency: 0.7
Mode: 0
LetterboxInBreaks: 0
WidescreenStoryboard: 0

[Editor]
Bookmarks: 25158
DistanceSpacing: 0.9
BeatDivisor: 4
GridSize: 8
TimelineZoom: 2.3

[Metadata]
Title:PINK LEMONADE (TV Size)
TitleUnicode:ピンクレモネード (TV Size)
Artist:Sangatsu no Phantasia
ArtistUnicode:三月のパンタシア
Creator:eINess
Version:AF's Normal
Source:ベルゼブブ嬢のお気に召すまま。
Tags:As Miss Beelzebub likes it beelzebub jou no okinimesu mama op opening anime japenese Affirmation Neoskylove lolia Karia
BeatmapID:1940900
BeatmapSetID:927277

[Difficulty]
HPDrainRate:4
CircleSize:3.3
OverallDifficulty:4
ApproachRate:5.5
SliderMultiplier:1
SliderTickRate:1

[Events]
//Background and Video events
0,0,"Beel.jpg",0,0
Video,-559,"PINK.mp4"
//Break Periods
//Storyboard Layer 0 (Background)
//Storyboard Layer 1 (Fail)
//Storyboard Layer 2 (Pass)
//Storyboard Layer 3 (Foreground)
//Storyboard Sound Samples

[TimingPoints]
32,314.13612565445,4,2,1,30,1,0
2545,-90.9090909090909,4,2,1,30,0,0
7571,-90.9090909090909,4,2,1,40,0,0
8199,-90.9090909090909,4,2,1,20,0,0
9770,-90.9090909090909,4,2,1,40,0,0
12597,-90.9090909090909,4,2,1,30,0,0
22649,-90.9090909090909,4,2,1,55,0,0
32702,-90.9090909090909,4,2,1,50,0,0
37728,-90.9090909090909,4,2,1,45,0,0
41497,-90.9090909090909,4,2,1,55,0,0
44011,-90.9090909090909,4,2,1,45,0,0
45267,-90.9090909090909,4,2,1,65,0,1
65215,-90.9090909090909,4,2,1,65,0,0
65372,-90.9090909090909,4,2,1,65,0,1
80450,-90.9090909090909,4,2,1,65,0,0

[Colours]
Combo1 : 255,255,128
Combo2 : 255,162,208
Combo3 : 141,252,219
Combo4 : 255,128,255

[HitObjects]
420,68,2545,6,0,B|403:121|403:121|419:172,1,110.000003356934,0|0,3:0|3:0,0:0:0:0:
445,214,3016,2,0,L|335:204,1,110.000003356934,0|0,3:0|3:0,0:0:0:0:
300,296,3644,2,0,L|409:305,2,110.000003356934,0|0|0,3:0|3:0|3:0,0:0:0:0:
101,302,4901,1,0,3:0:0:0:
101,302,5058,6,0,B|118:249|118:249|101:197,1,110.000003356934,0|0,3:0|3:0,0:0:0:0:
76,156,5529,2,0,L|185:165,1,110.000003356934,0|0,3:0|3:0,0:0:0:0:
221,74,6157,2,0,L|111:64,2,110.000003356934,0|0|0,3:0|3:0|3:0,0:0:0:0:
355,10,7257,1,2,0:0:0:0:
419,85,7571,6,0,L|411:194,1,110.000003356934,4|0,3:2|3:0,0:0:0:0:
313,177,8199,2,0,L|320:286,1,110.000003356934,8|8,0:1|0:1,0:0:0:0:
397,349,8827,2,0,P|451:353|502:333,2,110.000003356934,8|8|8,0:1|3:1|0:1,0:0:0:0:
320,286,9770,1,8,0:3:0:0:
243,349,10084,6,0,L|133:341,1,110.000003356934,6|2,0:0|0:0,0:0:0:0:
80,257,10712,2,0,L|189:249,1,110.000003356934,8|2,0:3|3:2,0:0:0:0:
284,220,11340,2,0,P|305:170|283:121,1,110.000003356934,4|8,0:0|0:0,0:0:0:0:
245,89,11812,1,2,0:0:0:0:
169,152,12126,2,0,L|172:207,2,55.0000016784668,4|2|2,0:3|0:0|0:0,0:0:0:0:
124,130,12597,6,0,P|88:60|139:1,2,165.000005035401,0|0|0,3:0|3:0|0:0,0:0:0:0:
127,229,13853,2,0,P|206:208|286:187,1,165.000005035401,0|0,3:0|3:0,0:0:0:0:
334,172,14482,2,0,P|329:200|327:227,2,55.0000016784668,0|0|0,3:0|0:0|0:0,0:0:0:0:
381,85,15110,6,0,P|303:105|238:58,2,165.000005035401,0|0|0,3:0|3:0|0:0,0:0:0:0:
477,61,16367,2,0,L|460:225,1,165.000005035401,0|0,3:0|3:0,0:0:0:0:
416,247,16995,2,0,L|421:301,2,55.0000016784668,0|0|0,3:0|0:0|0:0,0:0:0:0:
318,227,17623,6,0,P|268:249|213:254,1,110.000003356934,0|0,3:0|0:0,0:0:0:0:
164,247,18094,2,0,L|174:320,2,55.0000016784668,0|0|0,3:0|0:0|0:0,0:0:0:0:
78,197,18723,1,0,0:0:0:0:
78,197,18880,2,0,B|54:148|54:148|65:93,1,110.000003356934,0|0,3:0|0:0,0:0:0:0:
94,53,19351,1,0,3:0:0:0:
122,12,19508,2,0,L|176:16,2,55.0000016784668,0|0|0,3:0|0:0|0:0,0:0:0:0:
162,102,20136,6,0,L|271:92,1,110.000003356934,0|0,3:0|0:0,0:0:0:0:
314,118,20607,1,0,0:0:0:0:
356,143,20764,2,0,L|410:138,2,55.0000016784668,0|8|0,3:0|0:1|3:0,0:0:0:0:
335,240,21393,2,0,L|444:230,2,110.000003356934,6|8|2,0:0|0:0|0:0,0:0:0:0:
262,307,22335,2,0,P|235:299|208:298,1,55.0000016784668,8|2,0:0|3:2,0:0:0:0:
165,325,22649,6,0,P|181:273|160:223,1,110.000003356934,6|8,0:0|0:0,0:0:0:0:
120,192,23121,2,0,P|98:142|114:90,1,110.000003356934,2|2,0:0|0:0,0:0:0:0:
147,53,23592,1,8,0:0:0:0:
238,90,23906,2,0,L|291:79,2,55.0000016784668,2|2|8,3:2|0:0|0:0,0:0:0:0:
216,134,24377,1,2,0:0:0:0:
246,172,24534,2,0,B|270:223|270:223|255:274,1,110.000003356934,0|8,3:0|3:2,0:0:0:0:
186,345,25162,6,0,L|132:334,2,55.0000016784668,2|2|8,3:2|0:0|0:0,0:0:0:0:
223,377,25634,2,0,P|277:367|331:359,1,110.000003356934,2|2,0:0|0:0,0:0:0:0:
380,366,26105,1,8,0:0:0:0:
390,267,26419,2,0,P|391:239|389:212,1,55.0000016784668,2|0,3:2|0:0,0:0:0:0:
364,169,26733,1,8,0:0:0:0:
338,124,26890,2,0,L|447:129,1,110.000003356934,2|2,0:0|0:0,0:0:0:0:
488,101,27361,1,8,0:0:0:0:
424,25,27675,6,0,L|314:30,1,110.000003356934,2|8,3:2|0:0,0:0:0:0:
278,65,28147,2,0,L|168:59,1,110.000003356934,2|2,3:2|0:0,0:0:0:0:
127,31,28618,1,8,0:0:0:0:
81,118,28932,2,0,P|81:146|87:173,1,55.0000016784668,2|2,3:2|0:0,0:0:0:0:
120,208,29246,2,0,P|119:235|113:262,1,55.0000016784668,8|2,0:0|3:2,0:0:0:0:
76,295,29560,2,0,L|21:291,2,55.0000016784668,0|2|8,3:0|0:0|0:0,0:0:0:0:
153,355,30189,6,0,P|208:345|262:336,1,110.000003356934,2|8,3:2|0:0,0:0:0:0:
309,350,30660,2,0,P|331:301|317:249,1,110.000003356934,2|2,0:0|0:0,0:0:0:0:
277,219,31131,1,8,0:0:0:0:
351,153,31445,2,0,L|347:98,1,55.0000016784668,6|0,3:2|0:0,0:0:0:0:
359,50,31759,2,0,B|411:36|411:36|462:57,1,110.000003356934,8|2,0:0|0:0,0:0:0:0:
490,98,32230,1,8,0:0:0:0:
482,147,32388,2,0,L|487:201,1,55.0000016784668,2|8,0:0|0:0,0:0:0:0:
502,248,32702,5,12,0:0:0:0:
452,333,33016,2,0,P|397:322|344:311,2,110.000003356934,2|2|2,3:2|3:2|3:2,0:0:0:0:
502,248,33958,2,0,P|507:219|505:194,1,55.0000016784668,2|0,3:2|0:0,0:0:0:0:
478,152,34272,2,0,L|424:165,1,55.0000016784668,2|8,3:2|0:0,0:0:0:0:
386,197,34586,2,0,L|279:170,1,110.000003356934,2|2,3:2|3:2,0:0:0:0:
191,123,35215,5,6,0:0:0:0:
116,187,35529,2,0,P|94:136|102:83,2,110.000003356934,2|2|2,3:2|3:2|3:2,0:0:0:0:
187,255,36471,2,0,P|240:244|294:234,1,110.000003356934,2|2,3:2|3:2,0:0:0:0:
386,271,37100,1,8,0:0:0:0:
456,201,37414,1,8,0:0:0:0:
395,122,37728,5,6,0:0:0:0:
394,122,37885,2,0,P|340:117|285:114,1,110.000003356934,2|2,0:0|0:0,0:0:0:0:
241,137,38356,1,8,3:2:0:0:
197,159,38513,1,2,0:0:0:0:
82,66,38984,1,2,3:2:0:0:
82,66,39141,2,0,B|105:115|105:115|93:169,1,110.000003356934,2|2,0:0|0:0,0:0:0:0:
56,203,39613,2,0,B|44:257|44:257|67:306,1,110.000003356934,8|2,0:0|0:0,0:0:0:0:
163,331,40241,1,12,3:2:0:0:
163,331,41497,6,0,L|217:323,1,55.0000016784668,8|0,0:0|3:0,0:0:0:0:
256,292,41812,2,0,L|310:299,1,55.0000016784668,8|2,0:0|0:0,0:0:0:0:
357,314,42126,2,0,P|351:341|353:369,2,55.0000016784668,8|2|8,0:0|0:0|0:0,0:0:0:0:
406,229,42754,6,0,P|419:175|405:123,1,110.000003356934,8|8,0:0|0:0,0:0:0:0:
366,92,43225,1,8,0:0:0:0:
326,60,43382,2,0,L|271:68,1,55.0000016784668,8|8,0:0|0:0,0:0:0:0:
238,105,43696,2,0,L|183:96,1,55.0000016784668,8|8,0:0|0:0,0:0:0:0:
147,62,44011,1,0,3:0:0:0:
80,350,44953,2,0,P|108:353|135:350,1,55.0000016784668,0|0,3:0|3:0,0:0:0:0:
181,333,45267,6,0,P|234:318|286:333,1,110.000003356934,6|8,0:0|0:0,0:0:0:0:
329,358,45738,1,0,3:0:0:0:
370,332,45895,2,0,P|375:277|372:222,1,110.000003356934,2|8,0:0|0:0,0:0:0:0:
349,178,46367,1,2,0:0:0:0:
325,132,46524,2,0,L|434:139,2,110.000003356934,0|8|2,3:0|0:0|0:0,0:0:0:0:
256,61,47466,1,8,0:0:0:0:
187,132,47780,6,0,L|77:139,1,110.000003356934,6|8,0:0|0:0,0:0:0:0:
46,178,48251,1,0,3:0:0:0:
14,216,48408,2,0,B|-1:270|-1:270|12:322,1,110.000003356934,2|8,0:0|0:0,0:0:0:0:
105,355,49037,2,0,L|159:347,1,55.0000016784668,0|2,3:0|0:0,0:0:0:0:
206,361,49351,2,0,P|187:309|196:256,2,110.000003356934,8|2|8,0:0|3:2|3:2,0:0:0:0:
304,372,50293,6,0,L|413:357,1,110.000003356934,6|8,0:0|0:0,0:0:0:0:
439,315,50764,1,0,3:0:0:0:
464,272,50922,2,0,L|354:257,1,110.000003356934,2|8,0:0|0:0,0:0:0:0:
315,232,51393,1,2,0:0:0:0:
312,182,51550,2,0,P|327:129|316:76,2,110.000003356934,0|8|2,3:0|0:0|3:2,0:0:0:0:
218,152,52492,1,8,0:0:0:0:
141,214,52806,6,0,P|86:207|31:200,1,110.000003356934,6|8,0:0|0:0,0:0:0:0:
40,101,53435,2,0,P|32:74|27:47,2,55.0000016784668,2|2|8,3:2|0:0|0:0,0:0:0:0:
137,87,54063,2,0,P|191:80|246:73,1,110.000003356934,2|8,0:0|0:0,0:0:0:0:
342,90,54691,2,0,P|347:118|347:145,1,55.0000016784668,8|8,0:0|0:0,0:0:0:0:
312,179,55005,2,0,P|307:206|307:233,1,55.0000016784668,8|8,0:0|0:0,0:0:0:0:
335,274,55319,6,0,P|389:265|443:258,1,110.000003356934,6|8,0:0|0:0,0:0:0:0:
494,343,55948,2,0,P|439:350|385:358,1,110.000003356934,2|8,0:0|0:0,0:0:0:0:
289,335,56576,1,0,3:0:0:0:
198,373,56890,1,8,0:0:0:0:
133,298,57204,1,8,0:0:0:0:
184,213,57518,1,8,0:0:0:0:
280,236,57833,6,0,L|387:211,2,110.000003356934,6|12|12,0:0|0:0|0:0,0:0:0:0:
184,213,58775,1,6,0:0:0:0:
133,298,59089,2,0,L|73:294,2,55.0000016784668,2|8|2,0:0|0:0|0:0,0:0:0:0:
197,373,59717,2,0,P|252:363|306:355,1,110.000003356934,8|8,0:0|0:0,0:0:0:0:
355,357,60189,1,8,0:0:0:0:
405,360,60346,6,0,B|386:309|386:309|399:255,1,110.000003356934,6|8,0:0|0:0,0:0:0:0:
452,171,60974,2,0,L|509:178,2,55.0000016784668,2|2|8,3:2|0:0|0:0,0:0:0:0:
372,112,61602,2,0,L|258:126,1,110.000003356934,2|8,3:2|0:0,0:0:0:0:
184,185,62230,2,0,B|162:135|162:135|174:81,1,110.000003356934,2|8,0:0|3:2,0:0:0:0:
249,15,62859,6,0,L|363:29,2,110.000003356934,12|12|12,0:0|0:0|0:0,0:0:0:0:
174,81,63801,2,0,L|119:74,2,55.0000016784668,8|2|2,0:0|0:0|3:2,0:0:0:0:
164,129,64272,2,0,L|130:172,2,55.0000016784668,8|2|2,0:0|0:0|3:2,0:0:0:0:
185,173,64744,1,8,0:0:0:0:
264,113,65058,1,2,0:0:0:0:
220,24,65372,6,0,P|272:38|324:23,1,110.000003356934,6|8,0:0|0:0,0:0:0:0:
368,4,65843,1,0,3:0:0:0:
409,25,66000,2,0,P|413:79|410:134,1,110.000003356934,2|8,0:0|0:0,0:0:0:0:
385,177,66472,1,2,0:0:0:0:
361,223,66629,2,0,L|470:215,2,110.000003356934,0|8|2,3:0|0:0|0:0,0:0:0:0:
290,292,67571,1,8,0:0:0:0:
193,267,67885,6,0,L|83:259,1,110.000003356934,2|8,3:2|0:0,0:0:0:0:
52,221,68356,1,0,3:0:0:0:
20,183,68513,2,0,B|5:129|5:129|18:76,1,110.000003356934,2|8,0:0|0:0,0:0:0:0:
106,31,69142,2,0,L|160:38,1,55.0000016784668,0|2,3:0|0:0,0:0:0:0:
207,24,69456,2,0,P|188:75|197:128,2,110.000003356934,8|2|8,0:0|3:2|3:2,0:0:0:0:
305,14,70398,6,0,L|414:28,1,110.000003356934,6|8,0:0|0:0,0:0:0:0:
440,71,70869,1,0,3:0:0:0:
465,114,71027,2,0,L|355:128,1,110.000003356934,2|8,0:0|0:0,0:0:0:0:
316,154,71498,1,2,0:0:0:0:
313,203,71655,2,0,P|327:255|316:308,2,110.000003356934,0|8|2,3:0|0:0|3:2,0:0:0:0:
219,234,72597,1,8,0:0:0:0:
142,172,72911,6,0,P|87:178|32:185,1,110.000003356934,6|8,0:0|0:0,0:0:0:0:
41,284,73540,2,0,P|33:310|28:337,2,55.0000016784668,2|0|8,3:2|0:0|0:0,0:0:0:0:
138,299,74168,2,0,P|192:305|247:312,1,110.000003356934,6|8,0:0|0:0,0:0:0:0:
343,295,74796,2,0,P|347:267|347:240,1,55.0000016784668,8|8,0:0|0:0,0:0:0:0:
313,207,75110,2,0,P|308:179|308:152,1,55.0000016784668,8|8,0:0|0:0,0:0:0:0:
347,122,75424,6,0,P|401:130|455:137,1,110.000003356934,6|8,0:0|0:0,0:0:0:0:
485,43,76053,2,0,P|438:15|384:22,1,110.000003356934,2|8,0:0|0:0,0:0:0:0:
290,51,76681,1,0,3:0:0:0:
199,13,76995,1,8,0:0:0:0:
134,88,77309,1,8,0:0:0:0:
185,173,77623,1,8,0:0:0:0:
281,150,77938,6,0,L|388:174,2,110.000003356934,6|12|4,0:0|0:0|3:2,0:0:0:0:
185,173,78880,1,12,0:0:0:0:
134,88,79194,2,0,L|74:92,2,55.0000016784668,2|8|2,0:0|0:0|0:0,0:0:0:0:
198,13,79822,2,0,P|252:22|306:30,1,110.000003356934,8|8,0:0|0:0,0:0:0:0:
356,23,80293,1,8,0:0:0:0:
406,26,80451,6,0,B|387:77|387:77|400:131,1,110.000003356934,6|2,0:0|0:0,0:0:0:0:
453,215,81079,2,0,L|510:208,2,55.0000016784668,2|0|2,0:0|0:0|0:0,0:0:0:0:
373,274,81707,2,0,L|259:260,1,110.000003356934,8|2,0:0|0:0,0:0:0:0:
185,201,82335,2,0,B|163:251|163:251|175:304,1,110.000003356934,0|0,3:0|3:0,0:0:0:0:
256,363,82963,6,0,B|379:379|325:274|452:296,2,220.000006713867,4|0|4,3:2|3:0|3:2,0:0:0:0:
97,243,84848,1,0,3:0:0:0:
257,126,85477,1,0,3:0:0:0:
