osu file format v14

[General]
AudioFilename: audio.mp3
AudioLeadIn: 0
PreviewTime: 44326
Countdown: 0
SampleSet: Soft
StackLeniency: 0.4
Mode: 0
LetterboxInBreaks: 0
WidescreenStoryboard: 1

[Editor]
Bookmarks: 2938,7965,12991,23043,33096,43148,45661,65766,85870
DistanceSpacing: 4.2
BeatDivisor: 4
GridSize: 32
TimelineZoom: 2

[Metadata]
Title:PINK LEMONADE (TV Size)
TitleUnicode:ピンクレモネード (TV Size)
Artist:Sangatsu no Phantasia
ArtistUnicode:三月のパンタシア
Creator:Wanpachi
Version:Insane
Source:ベルゼブブ嬢のお気に召すまま。
Tags:-_ex_- ex rosiie cycopton op opening anime japanese j-pop pop jpop 分島花音 kanon wakeshima 堀江晶太 shota horie やいり yairi as miss beelzebub likes it
BeatmapID:2750276
BeatmapSetID:1327577

[Difficulty]
HPDrainRate:5
CircleSize:3.8
OverallDifficulty:8
ApproachRate:8.8
SliderMultiplier:1.5
SliderTickRate:1

[Events]
//Background and Video events
0,0,"chirony.jpg",0,0
Video,0,"pinkku lemonado.mp4"
//Break Periods
//Storyboard Layer 0 (Background)
//Storyboard Layer 1 (Fail)
//Storyboard Layer 2 (Pass)
//Storyboard Layer 3 (Foreground)
//Storyboard Layer 4 (Overlay)
//Storyboard Sound Samples

[TimingPoints]
2939,314.13612565445,4,2,2,40,1,0
2939,-125,4,2,2,40,0,0
7965,-111.111111111111,4,2,2,60,0,0
10164,-125,4,2,1,60,0,0
10399,-125,4,2,1,5,0,0
10478,-111.111111111111,4,2,1,70,0,0
12991,-125,4,2,2,50,0,0
21394,-125,4,2,2,5,0,0
21473,-125,4,2,2,50,0,0
23043,-99.9999999999999,4,2,1,70,0,0
33096,-111.111111111111,4,2,1,60,0,0
35530,-111.111111111111,4,2,1,5,0,0
35609,-111.111111111111,4,2,1,60,0,0
40635,-125,4,2,1,60,0,0
41891,-100,4,2,1,70,0,0
44404,-166.666666666667,4,2,1,40,0,0
45661,-90.9090909090909,4,2,1,80,0,1
65137,-90.9090909090909,4,2,1,80,0,0
65766,-90.9090909090909,4,2,1,80,0,1
80844,-100,4,2,1,60,0,0
83357,-125,4,2,1,50,0,0
85870,-166.666666666667,4,2,1,40,0,0
87755,-166.666666666667,4,2,1,5,0,0

[Colours]
Combo1 : 255,145,148
Combo2 : 137,170,209
Combo3 : 215,185,186
Combo4 : 97,140,192

[HitObjects]
322,79,7493,5,2,0:0:0:0:
322,79,7572,1,2,0:0:0:0:
322,79,7651,1,2,3:2:0:0:
459,275,7965,5,14,3:2:0:0:
426,284,8279,1,10,0:0:0:0:
393,293,8593,1,8,0:0:0:0:
360,302,8907,1,8,0:0:0:0:
206,364,9221,5,8,0:0:0:0:
173,355,9535,1,10,0:0:0:0:
140,346,9849,1,8,0:0:0:0:
94,197,10164,2,0,L|180:174,1,90,10|0,0:3|0:0,0:0:0:0:
224,164,10478,6,0,P|274:207|266:271,1,134.999995880127,6|0,3:2|3:2,0:0:0:0:
108,262,10949,1,2,0:0:0:0:
108,262,11106,2,0,L|90:180,1,67.4999979400635,0|0,3:2|3:2,0:0:0:0:
186,102,11420,2,0,L|204:20,1,67.4999979400635,2|2,3:2|3:2,0:0:0:0:
307,187,11734,6,0,B|338:197|370:187|370:176|370:165|401:155|433:165,1,134.999995880127,6|8,3:2|0:0,0:0:0:0:
333,283,12206,2,0,B|199:270,1,134.999995880127,8|8,0:3|0:3,0:0:0:0:
240,181,12677,2,0,B|307:187,1,67.4999979400635,4|0,0:3|3:2,0:0:0:0:
142,345,12991,6,0,P|107:284|152:188,2,180,14|10|2,3:2|0:0|0:0,0:0:0:0:
333,283,14247,2,0,P|356:230|328:179,1,120,8|0,0:0|0:0,0:0:0:0:
328,179,14719,1,8,0:0:0:0:
364,73,14876,2,0,P|307:90|248:100,1,120,2|2,0:0|0:0,0:0:0:0:
146,229,15504,6,0,P|90:163|3:161,2,180,10|10|2,0:0|0:0|0:0,0:0:0:0:
266,336,16760,2,0,P|324:334|362:290,1,120,8|0,0:0|0:0,0:0:0:0:
362,290,17232,1,8,0:0:0:0:
475,339,17389,2,0,P|458:267|452:205,1,120,2|2,0:0|0:0,0:0:0:0:
493,56,18017,6,0,B|464:65|436:56|436:46|436:37|408:27|380:37,1,120,10|0,0:0|0:0,0:0:0:0:
380,38,18488,1,8,0:0:0:0:
277,107,18645,2,0,B|305:97|333:107|333:116|333:125|361:135|389:125,1,120,2|0,0:0|0:0,0:0:0:0:
291,298,19274,6,0,P|267:244|282:187,1,120,10|2,0:0|0:0,0:0:0:0:
282,187,19745,1,8,0:0:0:0:
216,42,19902,2,0,P|192:95|207:152,1,120,2|2,0:0|0:0,0:0:0:0:
150,278,20530,6,0,P|93:260|34:250,1,120,10|2,0:0|0:0,0:0:0:0:
33,249,21001,1,8,0:0:0:0:
10,348,21158,2,0,P|70:358|119:373,1,90,2|0,0:0|0:0,0:0:0:0:
126,375,21473,1,2,3:2:0:0:
242,255,21787,6,0,P|232:226|214:203,1,60,2|0,3:2|0:0,0:0:0:0:
83,157,22101,2,0,P|112:163|141:158,1,60,2|0,3:2|0:0,0:0:0:0:
247,68,22415,2,0,P|226:90|216:117,1,60,2|8,3:2|3:3,0:0:0:0:
242,255,22729,1,4,3:3:0:0:
242,255,22886,1,4,3:3:0:0:
377,141,23043,6,0,L|285:132,1,75,6|0,3:2|3:2,0:0:0:0:
421,38,23357,1,10,0:0:0:0:
493,130,23514,2,0,L|478:279,1,150,2|2,3:2|3:2,0:0:0:0:
347,351,23986,2,0,L|339:276,1,75,10|0,0:0|0:0,0:0:0:0:
198,164,24300,5,0,3:2:0:0:
198,164,24457,1,0,3:2:0:0:
188,322,24614,2,0,P|224:315|262:314,1,75,8|0,0:0|3:2,0:0:0:0:
122,243,24928,2,0,P|97:270|78:303,1,75,2|0,0:0|3:2,0:0:0:0:
228,231,25242,2,0,P|216:196|197:162,1,75,10|0,0:0|0:0,0:0:0:0:
45,91,25556,6,0,L|132:83,1,75,2|0,3:2|3:2,0:0:0:0:
212,32,25870,1,10,0:0:0:0:
90,174,26028,2,0,L|239:187,1,150,2|2,3:2|3:2,0:0:0:0:
365,87,26499,2,0,L|290:93,1,75,10|0,0:0|0:0,0:0:0:0:
315,258,26813,5,0,3:2:0:0:
315,258,26970,1,0,3:2:0:0:
465,124,27127,2,0,P|472:89|462:47,1,75,10|0,0:0|3:2,0:0:0:0:
383,193,27441,2,0,P|409:216|451:228,1,75,2|0,0:0|3:2,0:0:0:0:
365,87,27755,2,0,P|331:98|299:128,1,75,10|0,0:0|0:0,0:0:0:0:
229,322,28069,6,0,L|216:232,1,75,2|0,3:2|3:2,0:0:0:0:
194,70,28384,1,10,0:0:0:0:
134,173,28541,2,0,L|282:152,1,150,2|2,3:2|3:2,0:0:0:0:
383,298,29012,2,0,L|308:308,1,75,10|0,0:0|0:0,0:0:0:0:
129,269,29326,5,0,3:2:0:0:
129,269,29483,1,0,3:2:0:0:
282,168,29640,2,0,P|292:204|278:252,1,75,8|0,0:0|3:2,0:0:0:0:
200,111,29954,2,0,P|226:84|274:72,1,75,2|0,0:0|3:2,0:0:0:0:
196,209,30268,2,0,P|168:184|132:175,1,75,10|0,0:0|0:0,0:0:0:0:
95,363,30582,6,0,L|194:350,1,75,2|0,3:2|3:2,0:0:0:0:
264,294,30897,1,10,0:0:0:0:
148,120,31054,2,0,L|128:268,1,150,2|2,3:2|3:2,0:0:0:0:
282,168,31525,2,0,L|272:93,1,75,10|0,0:0|0:0,0:0:0:0:
105,42,31839,5,0,3:2:0:0:
105,42,31996,1,0,3:2:0:0:
111,202,32153,2,0,P|154:208|187:197,1,75,10|0,0:0|0:0,0:0:0:0:
223,20,32467,2,0,P|196:54|189:88,1,75,2|8,3:2|0:0,0:0:0:0:
208,112,32703,1,8,0:0:0:0:
208,112,32781,2,0,L|263:115,1,37.5,10|8,3:2|0:0,0:0:0:0:
368,213,32938,2,0,L|331:215,1,37.5,8|8,0:0|0:0,0:0:0:0:
249,354,33096,5,4,3:2:0:0:
233,322,33410,2,0,P|239:254|259:190,2,134.999995880127,2|2|0,3:2|3:2|3:2,0:0:0:0:
102,217,34195,1,2,0:0:0:0:
102,217,34352,2,0,P|134:206|167:203,1,67.4999979400635,2|2,3:2|0:0,0:0:0:0:
22,154,34666,2,0,P|7:184|0:217,1,67.4999979400635,2|10,3:2|0:0,0:0:0:0:
120,118,34980,2,0,P|100:90|75:67,1,67.4999979400635,2|0,3:2|0:0,0:0:0:0:
167,203,35295,2,0,P|217:198|265:183,1,101.249996910095,2|0,3:2|0:0,0:0:0:0:
290,161,35609,5,4,3:2:0:0:
314,136,35923,2,0,P|377:153|399:242,2,134.999995880127,2|2|0,3:2|3:2|3:2,0:0:0:0:
198,136,36708,1,0,0:0:0:0:
198,136,36865,2,0,P|196:102|189:69,1,67.4999979400635,2|0,3:2|0:0,0:0:0:0:
314,136,37179,2,0,P|316:102|323:69,1,67.4999979400635,2|0,3:2|0:0,0:0:0:0:
139,243,37493,6,0,P|116:242|94:238,2,44.999998626709,10|8|8,3:2|0:0|0:0,0:0:0:0:
233,269,37808,6,0,P|246:286|258:305,2,44.999998626709,2|8|4,3:2|0:3|0:3,0:0:0:0:
209,175,38122,5,6,3:2:0:0:
303,197,38279,2,0,B|334:207|366:197|366:186|366:175|397:165|429:175,1,134.999995880127,0|2,3:2|3:2,0:0:0:0:
283,322,38750,1,10,0:0:0:0:
214,257,38907,2,0,B|193:214|193:214|213:121,1,134.999995880127,0|8,3:2|0:0,0:0:0:0:
337,0,39378,5,0,3:2:0:0:
280,75,39535,2,0,P|208:87|156:35,1,134.999995880127,0|0,3:2|3:2,0:0:0:0:
35,127,40007,2,0,L|49:207,1,67.4999979400635,10|0,3:2|0:0,0:0:0:0:
116,339,40321,2,0,L|128:273,1,67.4999979400635,2|0,3:2|3:2,0:0:0:0:
153,246,40556,1,0,3:2:0:0:
153,246,40635,5,6,3:2:0:0:
443,326,41891,5,14,0:0:0:0:
467,194,42048,1,0,3:2:0:0:
311,299,42206,1,10,0:0:0:0:
336,168,42363,1,0,3:2:0:0:
482,327,42520,5,14,0:0:0:0:
469,155,42677,1,0,3:2:0:0:
309,339,42835,1,10,0:0:0:0:
296,166,42992,1,0,3:2:0:0:
398,372,43148,5,14,0:0:0:0:
361,360,43462,1,0,3:2:0:0:
348,204,43619,1,0,3:2:0:0:
255,336,43776,1,8,0:0:0:0:
269,160,43933,1,8,0:0:0:0:
181,360,44090,1,8,0:0:0:0:
165,165,44247,1,8,0:0:0:0:
255,336,44404,6,0,L|268:246,3,89.9999972534181,2|2|2|2,0:0|0:0|0:0|0:0,0:0:0:0:
0,178,45661,6,0,B|65:187|65:187|77:217|77:217|143:227,1,165.000005035401,6|8,3:2|0:0,0:0:0:0:
268,170,46132,1,2,0:0:0:0:
199,20,46289,2,0,P|132:60|148:136,1,165.000005035401,2|8,3:2|0:0,0:0:0:0:
239,265,46760,1,2,3:2:0:0:
361,126,46918,6,0,L|349:24,1,82.5000025177003,2|0,0:0|3:2,0:0:0:0:
460,244,47232,2,0,L|472:142,1,82.5000025177003,10|0,0:0|0:0,0:0:0:0:
315,328,47546,2,0,P|355:335|395:325,1,82.5000025177003,2|0,3:2|3:2,0:0:0:0:
266,181,47860,2,0,P|225:173|185:183,1,82.5000025177003,10|0,0:0|0:0,0:0:0:0:
57,384,48174,6,0,B|85:332|85:332|58:222,1,165.000005035401,2|8,3:2|0:0,0:0:0:0:
28,99,48645,1,2,0:0:0:0:
185,183,48802,2,0,B|165:263,1,82.5000025177003,2|0,3:2|3:2,0:0:0:0:
307,125,49117,1,8,0:0:0:0:
215,42,49274,6,0,B|134:61,1,82.5000025177003,0|0,3:2|0:0,0:0:0:0:
307,125,49588,1,0,3:2:0:0:
186,262,49745,2,0,P|176:222|185:182,1,82.5000025177003,8|0,0:0|0:0,0:0:0:0:
298,38,50059,1,0,3:2:0:0:
298,38,50216,1,0,3:2:0:0:
420,175,50373,2,0,P|429:135|420:95,1,82.5000025177003,8|0,0:0|0:0,0:0:0:0:
339,247,50687,6,0,P|412:287|510:249,1,165.000005035401,2|8,3:2|0:0,0:0:0:0:
420,175,51158,1,2,0:0:0:0:
236,200,51315,2,0,L|251:375,1,165.000005035401,2|8,3:2|0:0,0:0:0:0:
318,148,51787,1,2,3:2:0:0:
161,136,51944,6,0,L|73:128,1,82.5000025177003,2|0,0:0|3:2,0:0:0:0:
274,55,52258,2,0,L|361:47,1,82.5000025177003,10|0,0:0|0:0,0:0:0:0:
327,228,52572,2,0,P|314:190|318:149,1,82.5000025177003,2|0,3:2|3:2,0:0:0:0:
451,2,52886,2,0,P|464:40|460:81,1,82.5000025177003,10|0,0:0|0:0,0:0:0:0:
401,278,53200,6,0,P|324:249|243:238,2,165.000005035401,2|10|2,3:2|0:0|3:2,0:0:0:0:
327,158,53986,1,2,3:2:0:0:
301,334,54143,2,0,L|218:342,1,82.5000025177003,10|0,0:0|0:2,0:0:0:0:
7,252,54457,6,0,B|45:238|84:252|84:264|84:277|123:290|162:277,1,165.000005035401,2|8,3:2|0:0,0:0:0:0:
255,227,54928,1,0,3:2:0:0:
179,62,55085,2,0,L|85:52,1,82.5000025177003,0|8,3:2|0:0,0:0:0:0:
70,78,55321,1,8,0:0:0:0:
70,78,55399,2,0,L|75:125,1,41.2500012588501,8|8,3:2|0:0,0:0:0:0:
163,279,55556,2,0,L|167:238,1,41.2500012588501,10|8,0:0|0:0,0:0:0:0:
282,125,55713,5,6,3:2:0:0:
95,195,55870,1,2,0:0:0:0:
257,241,56028,1,10,0:0:0:0:
193,77,56185,1,2,0:0:0:0:
257,241,56342,2,0,P|298:253|351:237,1,82.5000025177003,2|0,3:2|3:2,0:0:0:0:
486,108,56656,2,0,P|445:96|392:112,1,82.5000025177003,10|0,0:0|0:0,0:0:0:0:
451,281,56970,6,0,L|441:180,1,82.5000025177003,2|0,3:2|3:2,0:0:0:0:
307,54,57284,2,0,L|297:155,1,82.5000025177003,10|0,0:0|0:0,0:0:0:0:
223,316,57598,6,0,L|228:370,2,55.0000016784668,0|8|8,3:2|0:0|0:0,0:0:0:0:
159,222,57912,6,0,L|164:167,2,55.0000016784668,2|8|4,3:2|0:3|0:3,0:0:0:0:
81,302,58226,5,6,3:2:0:0:
64,265,58541,1,10,0:0:0:0:
48,232,58855,1,10,0:0:0:0:
34,196,59169,6,0,P|105:155|186:140,1,165.000005035401,6|0,3:2|3:2,0:0:0:0:
336,62,59640,1,8,0:0:0:0:
438,154,59797,2,0,L|429:256,1,82.5000025177003,0|0,3:2|3:2,0:0:0:0:
305,317,60111,2,0,L|314:215,1,82.5000025177003,10|8,0:0|0:0,0:0:0:0:
280,209,60347,1,8,0:0:0:0:
280,209,60425,2,0,L|229:213,1,41.2500012588501,10|8,3:2|0:0,0:0:0:0:
85,295,60582,2,0,L|126:299,1,41.2500012588501,8|8,0:0|0:0,0:0:0:0:
235,365,60740,6,0,P|223:326|231:286,1,82.5000025177003,6|0,3:2|3:2,0:0:0:0:
129,107,61054,2,0,P|140:146|132:186,1,82.5000025177003,10|0,0:0|0:0,0:0:0:0:
85,295,61368,1,2,3:2:0:0:
234,364,61525,1,2,3:2:0:0:
321,217,61682,2,0,L|238:212,1,82.5000025177003,10|0,0:0|0:0,0:0:0:0:
450,357,61996,6,0,B|445:290|445:290|472:272|472:272|468:206,1,165.000005035401,2|8,3:2|0:0,0:0:0:0:
430,65,62467,1,0,0:0:0:0:
279,208,62624,2,0,B|361:213,1,82.5000025177003,2|0,3:2|3:2,0:0:0:0:
353,37,62938,2,0,B|270:42,1,82.5000025177003,10|0,0:0|3:2,0:0:0:0:
153,181,63253,5,14,0:0:0:0:
176,0,63410,1,0,3:2:0:0:
153,181,63567,2,0,P|113:192|74:180,1,82.5000025177003,10|0,0:0|3:2,0:0:0:0:
270,41,63881,2,0,P|299:68|308:108,1,82.5000025177003,10|0,0:0|3:2,0:0:0:0:
222,305,64195,6,0,B|163:282|163:282|152:178,1,165.000005035401,14|0,0:0|3:2,0:0:0:0:
271,40,64666,2,0,L|254:204,1,165.000005035401,8|0,0:0|3:2,0:0:0:0:
373,299,65138,6,0,L|362:198,1,82.5000025177003,8|8,0:0|0:0,0:0:0:0:
386,194,65373,1,8,0:0:0:0:
386,194,65452,2,0,L|391:143,1,41.2500012588501,8|8,3:2|0:0,0:0:0:0:
265,242,65609,2,0,L|261:283,1,41.2500012588501,8|8,0:0|0:0,0:0:0:0:
304,112,65766,6,0,P|365:61|443:79,1,165.000005035401,6|8,3:2|0:0,0:0:0:0:
386,194,66237,1,2,0:0:0:0:
238,162,66394,2,0,B|211:110|211:110|247:9,1,165.000005035401,2|8,3:2|0:0,0:0:0:0:
304,112,66865,1,2,3:2:0:0:
164,192,67022,6,0,P|123:193|86:176,1,82.5000025177003,2|0,0:0|3:2,0:0:0:0:
270,306,67336,2,0,P|311:305|348:322,1,82.5000025177003,10|0,0:0|0:0,0:0:0:0:
172,291,67651,2,0,L|185:377,1,82.5000025177003,2|0,3:2|3:2,0:0:0:0:
347,321,67965,2,0,L|360:240,1,82.5000025177003,10|0,0:0|0:0,0:0:0:0:
233,162,68279,6,0,B|271:176|310:162|310:150|310:137|349:124|388:137,1,165.000005035401,2|8,3:2|0:0,0:0:0:0:
360,239,68750,1,2,0:0:0:0:
233,162,68907,2,0,P|223:123|236:83,1,82.5000025177003,2|0,3:2|3:2,0:0:0:0:
398,41,69221,1,8,0:0:0:0:
447,209,69378,6,0,P|457:248|444:288,1,82.5000025177003,0|0,3:2|0:0,0:0:0:0:
472,109,69692,1,0,3:2:0:0:
360,239,69849,2,0,L|278:225,1,82.5000025177003,8|0,0:0|0:0,0:0:0:0:
157,263,70164,1,0,3:2:0:0:
157,263,70321,1,0,3:2:0:0:
93,104,70478,2,0,L|175:118,1,82.5000025177003,8|0,0:0|0:0,0:0:0:0:
308,281,70792,6,0,B|241:285|241:285|223:258|223:258|158:263,1,165.000005035401,2|8,3:2|0:0,0:0:0:0:
288,180,71263,1,2,0:0:0:0:
372,353,71420,2,0,P|408:283|374:210,1,165.000005035401,2|8,3:2|0:0,0:0:0:0:
239,252,71891,1,2,3:2:0:0:
130,110,72048,6,0,L|48:101,1,82.5000025177003,2|0,0:0|3:2,0:0:0:0:
157,262,72363,2,0,L|239:253,1,82.5000025177003,10|0,0:0|0:0,0:0:0:0:
315,89,72677,2,0,P|304:136|317:177,1,82.5000025177003,2|0,3:2|3:2,0:0:0:0:
394,347,72991,2,0,P|405:300|392:259,1,82.5000025177003,10|0,0:0|0:0,0:0:0:0:
157,262,73305,6,0,B|194:311|194:311|296:300,2,165.000005035401,2|10|2,3:2|0:0|3:2,0:0:0:0:
247,125,74090,1,2,3:2:0:0:
391,264,74247,2,0,L|388:361,1,82.5000025177003,10|0,0:0|0:0,0:0:0:0:
230,210,74562,6,0,L|224:45,1,165.000005035401,2|8,3:2|0:0,0:0:0:0:
333,0,75033,1,0,3:2:0:0:
469,141,75190,2,0,P|433:160|382:156,1,82.5000025177003,8|8,0:0|0:0,0:0:0:0:
366,136,75425,1,8,0:0:0:0:
366,136,75504,2,0,L|371:89,1,41.2500012588501,8|8,3:2|0:0,0:0:0:0:
249,236,75661,2,0,L|254:283,1,41.2500012588501,10|8,0:0|0:0,0:0:0:0:
174,117,75818,5,6,3:2:0:0:
342,222,75975,1,2,0:0:0:0:
159,220,76132,1,10,0:0:0:0:
272,83,76289,1,2,0:0:0:0:
159,220,76446,2,0,L|65:210,1,82.5000025177003,2|0,3:2|3:2,0:0:0:0:
233,335,76760,2,0,L|327:325,1,82.5000025177003,10|0,0:0|0:0,0:0:0:0:
102,294,77075,6,0,P|93:336|106:387,1,82.5000025177003,2|0,3:2|3:2,0:0:0:0:
267,254,77389,2,0,P|276:212|263:161,1,82.5000025177003,10|0,0:0|0:0,0:0:0:0:
58,147,77703,6,0,L|3:152,2,55.0000016784668,0|8|8,3:2|0:2|0:2,0:0:0:0:
171,87,78017,6,0,L|193:36,2,55.0000016784668,10|8|4,3:2|0:3|0:3,0:0:0:0:
166,214,78331,5,6,3:2:0:0:
178,250,78646,1,2,3:2:0:0:
189,281,78960,1,2,3:2:0:0:
204,314,79274,6,0,P|283:305|319:235,1,165.000005035401,14|0,0:0|3:2,0:0:0:0:
235,75,79745,1,8,0:0:0:0:
328,52,79902,2,0,L|309:157,1,82.5000025177003,2|0,3:2|3:2,0:0:0:0:
189,232,80216,2,0,L|204:314,1,82.5000025177003,10|8,0:0|0:0,0:0:0:0:
231,339,80452,1,8,0:0:0:0:
231,339,80530,2,0,L|224:380,1,41.2500012588501,10|8,3:2|0:0,0:0:0:0:
322,247,80687,2,0,L|315:207,1,41.2500012588501,8|8,0:0|0:0,0:0:0:0:
450,368,80844,6,0,P|465:291|402:229,1,150,6|0,3:2|3:2,0:0:0:0:
456,106,81315,1,8,0:0:0:0:
313,133,81473,2,0,L|227:141,1,75,2|8,3:2|0:3,0:0:0:0:
298,30,81787,2,0,L|373:37,1,75,2|4,3:2|0:3,0:0:0:0:
382,172,82101,6,0,B|346:117|346:117|374:31,1,150,6|0,3:2|3:2,0:0:0:0:
456,106,82572,1,8,0:3:0:0:
416,251,82729,2,0,P|380:257|344:247,1,75,2|4,3:2|0:3,0:0:0:0:
234,134,83043,2,0,P|271:127|307:137,1,75,2|0,3:2|3:2,0:0:0:0:
240,314,83357,6,0,P|170:225|234:133,1,240,6|2,3:2|0:0,0:0:0:0:
240,314,84614,6,0,P|346:278|345:166,1,240,6|2,3:2|0:0,0:0:0:0:
267,220,85870,5,2,0:0:0:0:
256,192,85949,12,0,87755,0:0:0:0:
