osu file format v14

[General]
AudioFilename: audio.mp3
AudioLeadIn: 0
PreviewTime: 65276
Countdown: 0
SampleSet: Soft
StackLeniency: 0.3
Mode: 0
LetterboxInBreaks: 0
WidescreenStoryboard: 1

[Editor]
Bookmarks: 40224,41480,45256,47769,50282,52795,65361,67874,70387,72900,85465,87350
DistanceSpacing: 1
BeatDivisor: 4
GridSize: 4
TimelineZoom: 2

[Metadata]
Title:Pink Lemonade (TV Size)
TitleUnicode:ピンクレモネード (TV Size)
Artist:Sangatsu no Phantasia
ArtistUnicode:三月のパンタシア
Creator:SupaV
Version:Insane
Source:ベルゼブブ嬢のお気に召すまま。
Tags:Beelzebub-jou Beelzebub jou no Okinimesu mama As Miss Beelzebub Likes It anime op opening j-pop j pop japanese jp female vocal vocalist 分島花音 kanon wakeshima 堀江晶太 shota horie やいり Girl's Blue Happy Sad afifakilie -_afifakilie_- lit120 -hakurei- midorijeon
BeatmapID:3531052
BeatmapSetID:1727195

[Difficulty]
HPDrainRate:5
CircleSize:4
OverallDifficulty:8
ApproachRate:8.7
SliderMultiplier:1.56
SliderTickRate:1

[Events]
//Background and Video events
Video,-1310,"awok.mp4"
0,0,"beel.jpg",0,0
//Break Periods
//Storyboard Layer 0 (Background)
//Storyboard Layer 1 (Fail)
//Storyboard Layer 2 (Pass)
//Storyboard Layer 3 (Foreground)
//Storyboard Layer 4 (Overlay)
//Storyboard Sound Samples

[TimingPoints]
2528,314.13612565445,4,2,1,50,1,0
2528,-142.857142857143,4,2,1,50,0,0
2685,-142.857142857143,4,2,2,50,0,0
2842,-142.857142857143,4,2,3,50,0,0
2999,-142.857142857143,4,2,4,50,0,0
3313,-142.857142857143,4,2,5,50,0,0
3627,-142.857142857143,4,2,6,50,0,0
3941,-142.857142857143,4,2,5,50,0,0
4019,-142.857142857143,4,2,7,50,0,0
4098,-142.857142857143,4,2,8,50,0,0
4255,-142.857142857143,4,2,3,50,0,0
4884,-142.857142857143,4,2,9,50,0,0
5041,-142.857142857143,4,2,10,50,0,0
5198,-142.857142857143,4,2,2,50,0,0
5355,-142.857142857143,4,2,3,50,0,0
5512,-142.857142857143,4,2,4,50,0,0
5826,-142.857142857143,4,2,5,50,0,0
6140,-142.857142857143,4,2,6,50,0,0
6454,-142.857142857143,4,2,5,50,0,0
6532,-142.857142857143,4,2,7,50,0,0
6611,-142.857142857143,4,2,8,50,0,0
6768,-142.857142857143,4,2,3,50,0,0
7082,-142.857142857143,4,2,1,50,0,0
7475,-142.857142857143,4,2,1,5,0,0
7554,-111.111111111111,4,2,2,60,0,0
7711,-111.111111111111,4,2,12,60,0,0
7868,-111.111111111111,4,2,13,60,0,0
8025,-111.111111111111,4,2,14,60,0,0
8339,-111.111111111111,4,2,15,60,0,0
8653,-111.111111111111,4,2,16,60,0,0
8967,-111.111111111111,4,2,15,60,0,0
9046,-111.111111111111,4,2,16,60,0,0
9124,-111.111111111111,4,2,2,60,0,0
9281,-111.111111111111,4,2,18,60,0,0
9596,-111.111111111111,4,2,19,60,0,0
9753,-111.111111111111,4,2,3,60,0,0
9910,-111.111111111111,4,2,20,60,0,0
10067,-100,4,2,3,60,0,0
10224,-100,4,2,4,60,0,0
10381,-100,4,2,5,55,0,0
10538,-100,4,2,6,55,0,0
10695,-100,4,2,6,65,0,0
11009,-100,4,2,7,70,0,0
11323,-111.111111111111,4,2,8,75,0,0
11637,-111.111111111111,4,2,2,75,0,0
11795,-111.111111111111,4,2,1,75,0,0
12266,-111.111111111111,4,2,2,75,0,0
12580,-125,4,2,9,50,0,0
12894,-125,4,2,22,50,0,0
13051,-125,4,2,23,50,0,0
13365,-125,4,2,24,50,0,0
13522,-125,4,2,25,50,0,0
13836,-125,4,2,26,50,0,0
14308,-125,4,2,27,50,0,0
14465,-125,4,2,22,50,0,0
14622,-125,4,2,1,50,0,0
14779,-125,4,2,28,50,0,0
14936,-125,4,2,29,50,0,0
15407,-125,4,2,22,50,0,0
15564,-125,4,2,30,50,0,0
15878,-125,4,2,31,50,0,0
16035,-125,4,2,25,50,0,0
16349,-125,4,2,32,50,0,0
16821,-125,4,2,33,50,0,0
16978,-125,4,2,22,50,0,0
17135,-125,4,2,1,50,0,0
17292,-125,4,2,28,50,0,0
17449,-125,4,2,34,50,0,0
17606,-125,4,2,35,50,0,0
18077,-125,4,2,36,50,0,0
18234,-125,4,2,22,50,0,0
18863,-125,4,2,37,50,0,0
19177,-125,4,2,22,50,0,0
19334,-125,4,2,27,50,0,0
19491,-125,4,2,22,50,0,0
19648,-125,4,2,1,50,0,0
19805,-125,4,2,22,50,0,0
19962,-125,4,2,38,50,0,0
20433,-125,4,2,22,50,0,0
20590,-125,4,2,39,50,0,0
20747,-125,4,2,22,50,0,0
20904,-125,4,2,1,50,0,0
21062,-125,4,2,10,50,0,0
21297,-125,4,2,10,5,0,0
21376,-100,4,2,11,65,0,0
21533,-100,4,2,11,50,0,0
21690,-100,4,2,10,65,0,0
21847,-100,4,2,10,50,0,0
22004,-100,4,2,12,65,0,0
22318,-100,4,2,3,65,0,0
22632,-100,4,2,13,70,0,0
22946,-100,4,2,40,70,0,0
23103,-100,4,2,14,70,0,0
23417,-100,4,2,15,70,0,0
23575,-100,4,2,40,70,0,0
23889,-100,4,2,16,70,0,0
24046,-100,4,2,40,70,0,0
24360,-100,4,2,17,70,0,0
24517,-100,4,2,5,70,0,0
24674,-100,4,2,40,70,0,0
25145,-100,4,2,18,70,0,0
25302,-100,4,2,40,70,0,0
25617,-100,4,2,19,70,0,0
25931,-100,4,2,15,70,0,0
26088,-100,4,2,40,70,0,0
26402,-100,4,2,16,70,0,0
26559,-100,4,2,40,70,0,0
26873,-100,4,2,17,70,0,0
27030,-100,4,2,5,70,0,0
27187,-100,4,2,40,70,0,0
27658,-100,4,2,20,70,0,0
27815,-100,4,2,40,70,0,0
28130,-100,4,2,21,70,0,0
28444,-100,4,2,15,70,0,0
28601,-100,4,2,40,70,0,0
28915,-100,4,2,22,70,0,0
29072,-100,4,2,40,70,0,0
29386,-100,4,2,17,70,0,0
29543,-100,4,2,5,70,0,0
29700,-100,4,2,40,70,0,0
30171,-100,4,2,23,70,0,0
30328,-100,4,2,40,70,0,0
30643,-100,4,2,24,70,0,0
30957,-100,4,2,15,70,0,0
31114,-100,4,2,41,70,0,0
31428,-100,4,2,25,70,0,0
31585,-100,4,2,2,70,0,0
31742,-100,4,2,22,70,0,0
32056,-100,4,2,26,70,0,0
32213,-100,4,2,4,70,0,0
32370,-100,4,2,15,70,0,0
32448,-100,4,2,4,70,0,0
32685,-100,4,2,27,65,0,0
32999,-111.111111111111,4,2,28,65,0,0
33313,-111.111111111111,4,2,29,65,0,0
33627,-111.111111111111,4,2,30,65,0,0
33784,-111.111111111111,4,2,22,65,0,0
33941,-111.111111111111,4,2,31,65,0,0
34098,-111.111111111111,4,2,22,65,0,0
34255,-111.111111111111,4,2,32,65,0,0
34412,-111.111111111111,4,2,22,65,0,0
34569,-111.111111111111,4,2,33,65,0,0
34804,-111.111111111111,4,2,33,5,0,0
34884,-111.111111111111,4,2,34,65,0,0
35041,-111.111111111111,4,2,1,65,0,0
35198,-111.111111111111,4,2,35,65,0,0
35512,-111.111111111111,4,2,36,65,0,0
35826,-111.111111111111,4,2,37,65,0,0
36454,-111.111111111111,4,2,38,65,0,0
36689,-111.111111111111,4,2,38,5,0,0
36768,-111.111111111111,4,2,39,65,0,0
37082,-111.111111111111,4,2,16,65,0,0
37397,-111.111111111111,4,2,7,65,0,0
37711,-111.111111111111,4,2,40,65,0,0
38025,-111.111111111111,4,2,6,65,0,0
38182,-111.111111111111,4,2,15,65,0,0
38339,-111.111111111111,4,2,42,65,0,0
38496,-111.111111111111,4,2,2,65,0,0
38810,-111.111111111111,4,2,2,50,0,0
38967,-111.111111111111,4,2,41,65,0,0
39124,-111.111111111111,4,2,2,65,0,0
39596,-111.111111111111,4,2,18,65,0,0
39910,-111.111111111111,4,2,10,65,0,0
40067,-111.111111111111,4,2,1,65,0,0
40224,-142.857142857143,4,2,42,65,0,0
40538,-142.857142857143,4,2,43,65,0,0
40852,-142.857142857143,4,2,8,65,0,0
41166,-142.857142857143,4,2,15,65,0,0
41480,-100,4,2,44,65,0,0
41637,-100,4,2,27,65,0,0
41795,-100,4,2,45,65,0,0
41952,-100,4,2,27,65,0,0
42109,-100,4,2,46,65,0,0
42266,-100,4,2,27,65,0,0
42423,-100,4,2,45,65,0,0
42580,-100,4,2,45,50,0,0
42737,-100,4,2,47,70,0,0
43051,-100,4,2,47,50,0,0
43208,-100,4,2,48,55,0,0
43365,-100,4,2,48,60,0,0
43522,-100,4,2,48,65,0,0
43679,-100,4,2,48,70,0,0
43836,-100,4,2,48,75,0,0
43993,-166.666666666667,4,2,49,60,0,0
44307,-166.666666666667,4,2,50,55,0,0
44621,-166.666666666667,4,2,51,50,0,0
44936,-100,4,2,52,45,0,0
45014,-100,4,2,43,55,0,0
45093,-100,4,2,43,65,0,0
45171,-100,4,2,43,75,0,0
45250,-76.9230769230769,4,2,43,80,0,1
45564,-76.9230769230769,4,2,5,80,0,1
45721,-76.9230769230769,4,2,22,80,0,1
45878,-83.3333333333333,4,2,44,80,0,1
46035,-83.3333333333333,4,2,55,80,0,1
46349,-83.3333333333333,4,2,15,80,0,1
46507,-83.3333333333333,4,2,9,80,0,1
46664,-83.3333333333333,4,2,2,80,0,1
46821,-83.3333333333333,4,2,41,80,0,1
47056,-83.3333333333333,4,2,41,5,0,1
47135,-83.3333333333333,4,2,45,80,0,1
47292,-83.3333333333333,4,2,2,80,0,1
47449,-111.111111111111,4,2,41,80,0,1
47685,-111.111111111111,4,2,41,5,0,1
47763,-76.9230769230769,4,2,46,80,0,1
48077,-76.9230769230769,4,2,5,80,0,1
48234,-76.9230769230769,4,2,22,80,0,1
48391,-83.3333333333333,4,2,10,80,0,1
48548,-83.3333333333333,4,2,2,80,0,1
48706,-83.3333333333333,4,2,53,80,0,1
48810,-83.3333333333333,4,2,54,80,0,1
48915,-83.3333333333333,4,2,55,80,0,1
49020,-83.3333333333333,4,2,10,80,0,1
49124,-83.3333333333333,4,2,56,80,0,1
49229,-83.3333333333333,4,2,57,80,0,1
49334,-83.3333333333333,4,2,58,80,0,1
49438,-83.3333333333333,4,2,59,80,0,1
49543,-83.3333333333333,4,2,55,80,0,1
49648,-83.3333333333333,4,2,47,80,0,1
49752,-83.3333333333333,4,2,60,80,0,1
49857,-83.3333333333333,4,2,61,80,0,1
49962,-83.3333333333333,4,2,62,80,0,1
50119,-83.3333333333333,4,2,63,80,0,1
50276,-76.9230769230769,4,2,48,80,0,1
50590,-76.9230769230769,4,2,5,80,0,1
50747,-76.9230769230769,4,2,22,80,0,1
50904,-83.3333333333333,4,2,49,80,0,1
51061,-83.3333333333333,4,2,55,80,0,1
51376,-83.3333333333333,4,2,15,80,0,1
51533,-83.3333333333333,4,2,11,80,0,1
51690,-83.3333333333333,4,2,2,80,0,1
51847,-83.3333333333333,4,2,41,80,0,1
52082,-83.3333333333333,4,2,41,5,0,1
52161,-83.3333333333333,4,2,50,80,0,1
52318,-83.3333333333333,4,2,2,80,0,1
52475,-111.111111111111,4,2,41,80,0,1
52710,-111.111111111111,4,2,41,5,0,1
52789,-76.9230769230769,4,2,51,80,0,1
53024,-76.9230769230769,4,2,51,5,0,1
53103,-83.3333333333333,4,2,41,80,0,1
53260,-83.3333333333333,4,2,41,50,0,1
53418,-83.3333333333333,4,2,52,80,0,1
53575,-83.3333333333333,4,2,15,80,0,1
53732,-83.3333333333333,4,2,64,80,0,1
53836,-83.3333333333333,4,2,59,80,0,1
53941,-83.3333333333333,4,2,56,80,0,1
54046,-83.3333333333333,4,2,53,80,0,1
54150,-83.3333333333333,4,2,56,80,0,1
54255,-83.3333333333333,4,2,59,80,0,1
54360,-83.3333333333333,4,2,55,80,0,1
54464,-83.3333333333333,4,2,54,80,0,1
54569,-83.3333333333333,4,2,65,80,0,1
54674,-83.3333333333333,4,2,54,80,0,1
54831,-83.3333333333333,4,2,66,80,0,1
54988,-83.3333333333333,4,2,63,80,0,1
55145,-83.3333333333333,4,2,22,80,0,1
55302,-90.9090909090909,4,2,55,50,0,0
55459,-90.9090909090909,4,2,22,50,0,0
55617,-90.9090909090909,4,2,41,80,0,0
55774,-90.9090909090909,4,2,22,80,0,0
55931,-90.9090909090909,4,2,29,80,0,0
56088,-90.9090909090909,4,2,2,80,0,0
56245,-90.9090909090909,4,2,41,80,0,0
56480,-90.9090909090909,4,2,41,5,0,0
56559,-90.9090909090909,4,2,56,80,0,0
56716,-90.9090909090909,4,2,2,80,0,0
56873,-90.9090909090909,4,2,41,80,0,0
57030,-90.9090909090909,4,2,41,50,0,0
57187,-90.9090909090909,4,2,57,80,0,0
57291,-90.9090909090909,4,2,22,80,0,0
57605,-90.9090909090909,4,2,1,80,0,0
57815,-76.9230769230769,4,2,58,80,0,1
58050,-76.9230769230769,4,2,58,5,0,1
58130,-76.9230769230769,4,2,67,80,0,1
58365,-76.9230769230769,4,2,67,5,0,1
58444,-76.9230769230769,4,2,68,80,0,1
58679,-76.9230769230769,4,2,68,5,0,1
58758,-66.6666666666667,4,2,59,80,0,1
59072,-66.6666666666667,4,2,1,80,0,1
59229,-66.6666666666667,4,2,4,80,0,1
59386,-83.3333333333333,4,2,60,80,0,1
59543,-83.3333333333333,4,2,2,80,0,1
59700,-83.3333333333333,4,2,69,80,0,1
60014,-83.3333333333333,4,2,70,80,0,1
60329,-83.3333333333333,4,2,61,80,0,1
60643,-83.3333333333333,4,2,41,80,0,1
60878,-83.3333333333333,4,2,41,5,0,1
60957,-83.3333333333333,4,2,62,80,0,1
61114,-83.3333333333333,4,2,2,80,0,1
61271,-83.3333333333333,4,2,41,80,0,1
61506,-83.3333333333333,4,2,41,5,0,1
61585,-83.3333333333333,4,2,63,80,0,1
61742,-83.3333333333333,4,2,55,80,0,1
62056,-83.3333333333333,4,2,55,50,0,1
62213,-83.3333333333333,4,2,62,80,0,1
62370,-83.3333333333333,4,2,2,80,0,1
62527,-83.3333333333333,4,2,41,80,0,1
62685,-83.3333333333333,4,2,7,80,0,1
62842,-83.3333333333333,4,2,71,80,0,1
62999,-83.3333333333333,4,2,27,80,0,1
63156,-83.3333333333333,4,2,45,80,0,1
63313,-83.3333333333333,4,2,27,80,0,1
63470,-83.3333333333333,4,2,45,80,0,1
63627,-83.3333333333333,4,2,72,80,0,1
64098,-83.3333333333333,4,2,2,80,0,1
64255,-83.3333333333333,4,2,45,80,0,1
64412,-83.3333333333333,4,2,64,80,0,1
64726,-83.3333333333333,4,2,43,80,0,1
65355,-76.9230769230769,4,2,65,80,0,1
65669,-76.9230769230769,4,2,5,80,0,1
65826,-76.9230769230769,4,2,22,80,0,1
65983,-83.3333333333333,4,2,66,80,0,1
66140,-83.3333333333333,4,2,55,80,0,1
66454,-83.3333333333333,4,2,67,80,0,1
66611,-83.3333333333333,4,2,12,80,0,1
66768,-83.3333333333333,4,2,2,80,0,1
66925,-83.3333333333333,4,2,41,80,0,1
67160,-83.3333333333333,4,2,41,5,0,1
67240,-83.3333333333333,4,2,68,80,0,1
67397,-83.3333333333333,4,2,2,80,0,1
67554,-111.111111111111,4,2,41,80,0,1
67789,-111.111111111111,4,2,41,5,0,1
67868,-76.9230769230769,4,2,69,80,0,1
68182,-76.9230769230769,4,2,5,80,0,1
68339,-76.9230769230769,4,2,22,80,0,1
68496,-83.3333333333333,4,2,10,80,0,1
68653,-83.3333333333333,4,2,2,80,0,1
68810,-83.3333333333333,4,2,60,80,0,1
68914,-83.3333333333333,4,2,55,80,0,1
69019,-83.3333333333333,4,2,56,80,0,1
69124,-83.3333333333333,4,2,13,80,0,1
69228,-83.3333333333333,4,2,56,80,0,1
69333,-83.3333333333333,4,2,59,80,0,1
69438,-83.3333333333333,4,2,73,80,0,1
69542,-83.3333333333333,4,2,54,80,0,1
69647,-83.3333333333333,4,2,65,80,0,1
69753,-83.3333333333333,4,2,54,80,0,1
69857,-83.3333333333333,4,2,61,80,0,1
69962,-83.3333333333333,4,2,66,80,0,1
70067,-83.3333333333333,4,2,74,80,0,1
70381,-76.9230769230769,4,2,48,80,0,1
70695,-76.9230769230769,4,2,5,80,0,1
70852,-76.9230769230769,4,2,22,80,0,1
71009,-83.3333333333333,4,2,49,80,0,1
71166,-83.3333333333333,4,2,55,80,0,1
71480,-83.3333333333333,4,2,15,80,0,1
71637,-83.3333333333333,4,2,14,80,0,1
71952,-83.3333333333333,4,2,41,80,0,1
72187,-83.3333333333333,4,2,41,5,0,1
72266,-83.3333333333333,4,2,50,80,0,1
72423,-83.3333333333333,4,2,2,80,0,1
72580,-111.111111111111,4,2,41,80,0,1
72815,-111.111111111111,4,2,41,5,0,1
72894,-76.9230769230769,4,2,51,80,0,1
73129,-76.9230769230769,4,2,51,5,0,1
73208,-83.3333333333333,4,2,41,80,0,1
73365,-83.3333333333333,4,2,41,50,0,1
73522,-83.3333333333333,4,2,57,80,0,1
73679,-83.3333333333333,4,2,15,80,0,1
73836,-83.3333333333333,4,2,58,80,0,1
73940,-83.3333333333333,4,2,57,80,0,1
74045,-83.3333333333333,4,2,77,80,0,1
74151,-83.3333333333333,4,2,70,80,0,1
74255,-83.3333333333333,4,2,77,80,0,1
74360,-83.3333333333333,4,2,57,80,0,1
74465,-83.3333333333333,4,2,58,80,0,1
74569,-83.3333333333333,4,2,59,80,0,1
74674,-83.3333333333333,4,2,55,80,0,1
74779,-83.3333333333333,4,2,78,80,0,1
74936,-83.3333333333333,4,2,4,80,0,1
75014,-83.3333333333333,4,2,80,80,0,1
75250,-83.3333333333333,4,2,22,80,0,1
75328,-83.3333333333333,4,2,63,80,0,1
75407,-90.9090909090909,4,2,55,80,0,0
75564,-90.9090909090909,4,2,22,80,0,0
75721,-90.9090909090909,4,2,41,80,0,0
75878,-90.9090909090909,4,2,22,80,0,0
76035,-90.9090909090909,4,2,45,80,0,0
76192,-90.9090909090909,4,2,2,80,0,0
76349,-90.9090909090909,4,2,41,80,0,0
76584,-90.9090909090909,4,2,41,5,0,0
76664,-90.9090909090909,4,2,56,80,0,0
76821,-90.9090909090909,4,2,2,80,0,0
76978,-90.9090909090909,4,2,45,80,0,0
77292,-90.9090909090909,4,2,71,80,0,0
77396,-90.9090909090909,4,2,22,80,0,0
77710,-90.9090909090909,4,2,1,80,0,0
77920,-76.9230769230769,4,2,58,80,0,1
78155,-76.9230769230769,4,2,58,5,0,1
78234,-76.9230769230769,4,2,72,80,0,1
78469,-76.9230769230769,4,2,72,5,0,1
78548,-76.9230769230769,4,2,15,80,0,1
78783,-76.9230769230769,4,2,15,5,0,1
78863,-66.6666666666667,4,2,81,80,0,1
79177,-66.6666666666667,4,2,3,80,0,1
79334,-66.6666666666667,4,2,2,80,0,1
79491,-83.3333333333333,4,2,73,80,0,1
79805,-83.3333333333333,4,2,82,80,0,1
80119,-83.3333333333333,4,2,83,80,0,1
80433,-100,4,2,74,75,0,0
80904,-100,4,2,4,75,0,0
81062,-100,4,2,75,75,0,0
81219,-100,4,2,1,75,0,0
81376,-100,4,2,15,75,0,0
81690,-100,4,2,76,75,0,0
81847,-100,4,2,66,75,0,0
82161,-100,4,2,1,75,0,0
82318,-100,4,2,77,75,0,0
82475,-100,4,2,1,75,0,0
82632,-100,4,2,78,75,0,0
82789,-100,4,2,2,75,0,0
82946,-142.857142857143,4,2,79,65,0,0
83574,-142.857142857143,4,2,22,65,0,0
84203,-166.666666666667,4,2,80,65,0,0
84831,-166.666666666667,4,2,43,65,0,0
85459,-333.333333333333,4,2,84,55,0,0
87343,-333.333333333333,4,2,84,5,0,0

[Colours]
Combo1 : 145,175,221
Combo2 : 226,146,206
Combo3 : 235,226,122

[HitObjects]
23,318,2528,6,1,P|35:343|44:381,2,54.5999983337403,2|2|2,2:2|2:2|2:2,0:0:0:0:
63,248,2999,1,2,2:2:0:0:
63,248,3313,6,1,P|99:207|166:222,1,109.199996667481,2|2,2:2|2:2,0:0:0:0:
149,209,3941,2,1,P|154:188|159:168,2,27.2999991668701,2|2|2,2:2|2:2|2:2,0:0:0:0:
202,264,4255,1,2,2:2:0:0:
489,318,4884,1,2,2:2:0:0:
489,318,5041,6,1,P|477:343|468:381,2,54.5999983337403,2|2|2,2:2|2:2|2:2,0:0:0:0:
449,248,5512,1,2,2:2:0:0:
449,248,5826,6,1,P|413:207|346:222,1,109.199996667481,2|2,2:2|2:2,0:0:0:0:
363,209,6454,2,1,P|358:188|353:168,2,27.2999991668701,2|2|2,2:2|2:2|2:2,0:0:0:0:
292,247,6768,1,2,2:2:0:0:
299,254,7082,5,2,2:3:0:0:
299,254,7161,1,2,2:3:0:0:
299,254,7240,2,1,P|289:222|266:154,1,81.8999975006104,10|0,2:1|0:0,0:0:0:0:
220,125,7554,6,1,P|228:83|237:36,1,70.1999978576661,14|2,2:1|2:2,0:0:0:0:
104,14,7868,1,10,2:2:0:0:
104,14,8025,2,1,P|37:10|15:77,1,140.399995715332,2|2,2:2|2:2,0:0:0:0:
13,69,8653,2,1,P|80:87|156:110,1,140.399995715332,2|2,2:2|2:2,0:0:0:0:
182,134,9046,1,2,2:2:0:0:
182,134,9124,1,2,2:3:0:0:
247,24,9281,1,2,2:2:0:0:
247,24,9596,6,1,P|210:10|178:-2,2,70.1999978576661,2|10|2,2:2|2:3|2:2,0:0:0:0:
315,125,10067,6,1,P|331:171|344:223,1,78,14|10,2:1|2:1,0:0:0:0:
263,281,10381,1,10,2:1:0:0:
263,281,10538,1,10,2:1:0:0:
164,171,10695,1,10,2:1:0:0:
93,348,10852,1,8,2:1:0:0:
12,193,11009,6,1,P|3:157|-5:124,2,52,10|0|0,2:1|0:0|0:0,0:0:0:0:
44,211,11323,6,1,P|77:256|159:248,1,140.399995715332,14|8,2:1|2:2,0:0:0:0:
208,184,11795,1,8,2:3:0:0:
208,184,12109,2,1,P|201:146|195:105,2,70.1999978576661,4|8|4,2:3|2:3|2:3,0:0:0:0:
286,257,12580,6,1,P|352:262|393:208,1,124.8,14|2,2:1|2:2,0:0:0:0:
415,134,13051,2,1,P|349:128|308:182,1,124.8,10|10,2:2|2:2,0:0:0:0:
257,264,13522,1,2,2:2:0:0:
257,264,13836,5,10,2:2:0:0:
442,384,14308,1,10,2:2:0:0:
442,384,14465,2,1,P|450:347|460:304,1,62.4,2|8,2:2|2:2,0:0:0:0:
512,254,14779,2,1,P|504:217|494:174,1,62.4,2|8,2:2|2:2,0:0:0:0:
412,85,15093,6,1,P|400:145|385:223,1,124.8,10|2,2:2|2:2,0:0:0:0:
293,240,15564,2,1,P|281:179|266:102,1,124.8,10|10,2:2|2:2,0:0:0:0:
329,37,16035,1,2,2:2:0:0:
329,37,16349,5,10,2:2:0:0:
150,131,16821,1,10,2:2:0:0:
150,131,16978,2,1,P|112:125|63:118,1,62.4,2|8,2:2|2:2,0:0:0:0:
30,216,17292,2,1,P|67:210|117:203,1,62.4,2|10,2:2|2:2,0:0:0:0:
215,219,17606,6,1,P|205:266|189:342,1,124.8,10|0,2:2|0:0,0:0:0:0:
277,372,18077,1,10,2:2:0:0:
277,372,18234,2,1,P|332:383|369:319,1,124.8,2|0,2:2|0:0,0:0:0:0:
506,215,18863,6,1,P|471:170|393:190,1,124.8,10|2,2:2|2:2,0:0:0:0:
338,236,19334,1,10,2:2:0:0:
338,236,19491,2,1,P|345:267|355:320,1,62.4,2|8,2:2|2:2,0:0:0:0:
237,253,19805,2,1,P|242:222|250:192,1,62.4,2|8,2:2|2:2,0:0:0:0:
328,123,20119,6,1,P|314:53|300:-19,1,124.8,10|2,2:2|2:2,0:0:0:0:
435,0,20590,1,10,2:2:0:0:
435,0,20747,2,1,P|427:38|419:83,1,62.4,2|8,2:2|2:2,0:0:0:0:
360,157,21062,2,1,B|402:149|402:149|412:157|412:157|462:149,1,93.6,10|0,2:1|0:0,0:0:0:0:
489,138,21376,6,1,P|498:177|507:225,1,78,10|0,2:1|0:0,0:0:0:0:
409,315,21690,2,1,P|418:275|427:228,1,78,10|0,2:1|0:0,0:0:0:0:
318,154,22004,2,1,P|259:144|235:232,1,156,10|8,2:1|2:3,0:0:0:0:
294,307,22475,1,8,2:3:0:0:
149,384,22632,6,1,P|106:377|56:368,1,78,14|8,2:1|2:1,0:0:0:0:
0,247,22946,1,10,2:2:0:0:
0,247,23103,2,1,P|30:186|122:195,1,156,10|10,2:1|2:1,0:0:0:0:
228,221,23575,2,1,P|216:263|206:316,1,78,10|0,2:2|0:0,0:0:0:0:
353,167,23889,5,10,2:1:0:0:
353,167,24046,1,8,2:1:0:0:
270,69,24203,2,1,P|239:45|183:55,1,78,8|10,2:2|2:1,0:0:0:0:
111,186,24517,2,1,P|151:175|214:159,1,78,2|8,2:3|2:1,0:0:0:0:
85,47,24831,2,1,P|44:36|-18:20,1,78,10|0,2:2|0:0,0:0:0:0:
0,168,25145,6,1,P|-7:214|23:255,1,78,10|8,2:1|2:1,0:0:0:0:
0,363,25459,1,10,2:2:0:0:
0,363,25617,2,1,P|80:343|170:324,1,156,10|10,2:1|2:1,0:0:0:0:
279,384,26088,2,1,P|289:337|300:288,1,78,10|0,2:2|0:0,0:0:0:0:
238,179,26402,5,10,2:1:0:0:
238,179,26559,1,8,2:1:0:0:
403,243,26716,2,1,P|446:233|498:222,1,78,10|10,2:2|2:1,0:0:0:0:
378,136,27030,2,1,P|335:126|283:115,1,78,2|8,2:3|2:1,0:0:0:0:
432,38,27344,2,1,P|470:29|508:20,1,78,10|0,2:2|0:0,0:0:0:0:
275,0,27658,6,1,P|263:44|277:83,1,78,10|8,2:1|2:1,0:0:0:0:
255,198,27973,1,10,2:2:0:0:
255,198,28130,2,1,P|180:185|100:171,1,156,10|10,2:1|2:1,0:0:0:0:
9,247,28601,2,1,P|18:286|32:353,1,78,10|0,2:2|0:0,0:0:0:0:
151,384,28915,5,10,2:1:0:0:
151,384,29072,1,8,2:1:0:0:
246,305,29229,2,1,P|278:285|336:305,1,78,8|10,2:2|2:1,0:0:0:0:
479,308,29543,2,1,P|469:338|455:396,1,78,2|8,2:3|2:1,0:0:0:0:
382,257,29857,2,1,P|372:226|358:169,1,78,10|0,2:2|0:0,0:0:0:0:
353,30,30171,6,1,P|395:22|428:46,1,78,10|8,2:1|2:1,0:0:0:0:
512,118,30486,1,10,2:2:0:0:
512,118,30643,2,1,P|493:189|477:282,1,156,10|10,2:1|2:1,0:0:0:0:
388,353,31114,2,1,P|342:351|315:318,1,78,10|0,2:2|0:0,0:0:0:0:
256,231,31428,5,10,2:1:0:0:
256,231,31585,1,8,2:1:0:0:
129,309,31742,2,1,P|142:350|156:403,1,78,14|0,2:2|0:0,0:0:0:0:
26,268,32056,1,10,2:1:0:0:
98,160,32213,1,8,2:2:0:0:
98,160,32292,1,8,2:2:0:0:
98,160,32370,2,1,L|155:147,1,39,10|8,2:1|2:2,0:0:0:0:
182,242,32527,2,1,L|125:229,1,39,8|8,2:2|2:2,0:0:0:0:
18,171,32685,5,14,2:1:0:0:
18,171,32999,2,1,P|28:98|41:19,2,140.399995715332,10|10|10,2:1|2:1|2:1,0:0:0:0:
18,255,33784,1,2,2:2:0:0:
18,255,33941,2,1,P|56:245|103:234,1,70.1999978576661,10|2,2:1|2:2,0:0:0:0:
142,343,34255,2,1,P|104:333|57:322,1,70.1999978576661,10|10,2:1|2:2,0:0:0:0:
177,209,34569,2,1,B|191:256|191:256|198:264|198:264|214:320,1,105.299996786499,10|0,2:1|0:0,0:0:0:0:
226,343,34884,2,1,P|252:367|306:346,1,70.1999978576661,10|8,2:1|2:3,0:0:0:0:
354,285,35198,5,14,2:1:0:0:
354,285,35512,2,1,P|416:268|505:253,2,140.399995715332,10|10|8,2:1|2:1|2:1,0:0:0:0:
257,173,36454,6,1,B|269:123|269:123|277:119|277:119|290:64,1,105.299996786499,10|0,2:1|0:0,0:0:0:0:
310,38,36768,2,1,P|339:15|382:23,1,70.1999978576661,10|0,2:1|0:0,0:0:0:0:
440,89,37082,6,1,P|434:113|429:142,2,46.7999985717774,10|8|8,2:2|2:2|2:2,0:0:0:0:
501,45,37397,6,1,P|495:20|490:-8,2,46.7999985717774,10|8|8,2:3|2:3|2:3,0:0:0:0:
512,128,37711,5,14,2:1:0:0:
512,128,37868,2,1,P|504:169|493:216,1,70.1999978576661,8|2,2:1|2:3,0:0:0:0:
421,267,38182,1,10,2:1:0:0:
291,188,38339,1,10,2:2:0:0:
291,188,38496,2,1,P|326:170|430:154,1,140.399995715332,8|0,2:1|0:0,0:0:0:0:
271,83,38967,5,10,2:1:0:0:
271,83,39124,2,1,P|202:62|111:53,1,140.399995715332,8|8,2:1|2:1,0:0:0:0:
16,109,39596,2,1,P|25:143|40:194,1,70.1999978576661,14|0,2:2|0:0,0:0:0:0:
131,223,39910,2,1,P|140:188|155:138,1,70.1999978576661,10|8,2:1|2:3,0:0:0:0:
131,127,40145,1,8,2:3:0:0:
131,127,40224,6,1,P|148:71|107:32,1,109.199996667481,14|2,2:1|2:2,0:0:0:0:
7,55,40852,2,1,P|-6:110|29:150,1,109.199996667481,2|2,2:3|2:1,0:0:0:0:
120,249,41480,6,1,P|168:238|218:230,1,78,14|8,2:2|2:1,0:0:0:0:
307,167,41795,1,14,2:2:0:0:
307,167,41952,1,8,2:1:0:0:
231,325,42109,1,14,2:2:0:0:
371,234,42266,1,8,2:1:0:0:
207,154,42423,2,1,P|158:145|102:133,1,78,14|0,2:2|0:0,0:0:0:0:
0,265,42737,5,14,2:2:0:0:
0,265,43051,5,8,2:2:0:0:
99,148,43208,1,10,2:2:0:0:
153,311,43365,1,8,2:2:0:0:
0,132,43522,1,8,2:2:0:0:
203,208,43679,1,8,2:2:0:0:
0,384,43836,1,8,2:2:0:0:
70,303,43993,6,1,P|82:262|57:205,2,93.5999971435548,2|2|2,2:2|2:2|2:2,0:0:0:0:
159,347,44936,6,1,L|173:401,1,39,2|2,2:2|2:2,0:0:0:0:
280,361,45093,2,1,L|271:323,1,39,2|2,2:2|2:2,0:0:0:0:
243,184,45250,6,1,B|304:197|378:211|378:211|413:187|400:149,1,202.799990716553,14|8,2:1|2:2,0:0:0:0:
367,13,45721,1,2,2:2:0:0:
213,61,45878,2,1,P|221:105|236:173,1,93.5999971435548,10|8,2:1|2:1,0:0:0:0:
129,262,46192,1,8,2:2:0:0:
50,130,46349,1,10,2:1:0:0:
50,130,46507,2,1,P|93:118|145:153,1,93.5999971435548,2|8,2:3|2:1,0:0:0:0:
239,314,46821,2,1,B|173:304|173:304|171:296|171:296|93:282,1,140.399995715332,10|0,2:2|0:0,0:0:0:0:
65,292,47135,2,1,P|51:344|81:379,1,93.5999971435548,10|8,2:1|2:1,0:0:0:0:
221,280,47449,2,1,B|210:232|210:232|216:226|216:226|206:169,1,105.299996786499,10|0,2:2|0:2,0:0:0:0:
163,116,47763,6,1,B|204:80|268:107|254:132|310:158|366:102,1,202.799990716553,10|8,2:1|2:2,0:0:0:0:
434,27,48234,1,2,2:2:0:0:
511,135,48391,2,1,P|501:183|489:241,1,93.5999971435548,10|8,2:1|2:1,0:0:0:0:
385,327,48706,6,1,P|368:359|374:391,2,62.3999980957032,10|2|2,2:2|2:2|2:2,0:0:0:0:
465,300,49020,6,1,P|496:318|508:349,2,62.3999980957032,2|2|2,2:3|2:2|2:2,0:0:0:0:
398,246,49334,5,10,2:2:0:0:
360,224,49438,5,2,2:2:0:0:
336,188,49543,5,2,2:2:0:0:
332,145,49648,5,10,2:1:0:0:
341,128,49752,5,2,2:2:0:0:
344,110,49857,5,2,2:2:0:0:
341,93,49962,6,1,P|301:69|240:91,1,93.5999971435548,10|2,2:2|2:2,0:0:0:0:
79,30,50276,6,1,B|117:167|117:167|121:124|150:106,1,202.799990716553,10|8,2:1|2:2,0:0:0:0:
233,8,50747,1,2,2:2:0:0:
282,185,50904,2,1,P|233:174|164:159,1,93.5999971435548,10|8,2:1|2:1,0:0:0:0:
50,63,51219,1,8,2:2:0:0:
0,224,51376,1,10,2:1:0:0:
0,224,51533,2,1,P|51:211|104:200,1,93.5999971435548,2|8,2:3|2:1,0:0:0:0:
268,182,51847,2,1,B|256:240|256:240|260:247|260:247|241:325,1,140.399995715332,10|0,2:2|0:0,0:0:0:0:
251,354,52161,2,1,P|298:367|336:336,1,93.5999971435548,10|8,2:1|2:1,0:0:0:0:
495,372,52475,2,1,B|484:323|484:323|486:316|486:316|473:259,1,105.299996786499,10|0,2:2|0:0,0:0:0:0:
498,242,52789,6,1,B|472:198|472:198|356:176,1,152.099993037415,10|0,2:1|0:0,0:0:0:0:
291,192,53103,2,1,P|292:149|331:105,1,93.5999971435548,10|0,2:2|0:0,0:0:0:0:
443,34,53418,1,10,2:1:0:0:
443,34,53575,1,10,2:1:0:0:
457,158,53732,6,1,P|478:175|523:174,2,62.3999980957032,10|2|2,2:2|2:2|2:2,0:0:0:0:
401,71,54046,6,1,P|422:54|467:55,2,62.3999980957032,10|2|2,2:1|2:2|2:2,0:0:0:0:
296,136,54360,6,1,P|317:153|362:152,2,62.3999980957032,10|2|2,2:2|2:2|2:2,0:0:0:0:
246,55,54674,5,10,2:1:0:0:
140,92,54831,1,8,2:2:0:0:
140,92,54910,1,8,2:2:0:0:
140,92,54988,2,1,L|150:144,1,46.7999985717774,10|8,2:2|2:2,0:0:0:0:
51,45,55145,2,1,L|61:-7,1,46.7999985717774,10|8,2:2|2:2,0:0:0:0:
0,133,55302,6,1,P|10:176|22:236,1,85.8000026184083,14|2,2:1|2:2,0:0:0:0:
4,365,55617,1,10,2:2:0:0:
105,276,55774,1,2,2:2:0:0:
193,377,55931,2,1,P|235:382|277:330,1,85.8000026184083,10|8,2:1|2:1,0:0:0:0:
328,239,56245,2,1,B|313:178|313:178|316:167|316:167|302:107,1,128.700003927612,10|0,2:2|0:0,0:0:0:0:
311,85,56559,2,1,P|338:53|398:62,1,85.8000026184083,10|8,2:1|2:1,0:0:0:0:
472,185,56873,2,1,P|431:174|382:162,1,85.8000026184083,10|0,2:2|0:0,0:0:0:0:
512,59,57187,6,1,P|508:28|487:0,2,57.2000017456055,10|8|8,2:1|2:2|2:2,0:0:0:0:
430,84,57501,6,1,P|413:61|412:31,2,57.2000017456055,10|8|4,2:2|2:3|2:3,0:0:0:0:
496,142,57815,6,1,B|523:180|523:180|493:304,1,152.099993037415,14|0,2:1|0:0,0:0:0:0:
512,350,58130,2,1,B|470:369|440:340|451:327|412:295|368:315,1,152.099993037415,10|0,2:2|0:0,0:0:0:0:
283,326,58444,2,1,P|266:381|295:335,1,152.099993037415,10|0,2:2|0:0,0:0:0:0:
313,231,58758,2,1,P|297:118|279:-24,1,234.000008926392,14|8,2:1|2:1,0:0:0:0:
158,0,59229,5,8,2:2:0:0:
59,64,59386,2,1,P|72:110|83:172,1,93.5999971435548,10|8,2:1|2:1,0:0:0:0:
24,277,59700,1,14,2:2:0:0:
149,281,59857,1,8,2:2:0:0:
149,281,59935,1,8,2:2:0:0:
149,281,60014,2,1,L|218:264,1,46.7999985717774,10|8,2:2|2:2,0:0:0:0:
221,173,60171,2,1,L|152:156,1,46.7999985717774,8|8,2:2|2:2,0:0:0:0:
59,64,60329,6,1,P|93:29|158:47,1,93.5999971435548,14|8,2:1|2:1,0:0:0:0:
268,9,60643,2,1,B|255:75|255:75|259:85|259:85|244:157,1,140.399995715332,10|0,2:2|0:0,0:0:0:0:
255,186,60957,2,1,P|308:195|342:154,1,93.5999971435548,10|8,2:1|2:1,0:0:0:0:
480,194,61271,2,1,B|467:127|467:127|471:117|471:117|456:45,1,140.399995715332,10|0,2:2|0:0,0:0:0:0:
430,33,61585,2,1,P|395:3|335:20,1,93.5999971435548,10|8,2:1|2:1,0:0:0:0:
227,91,61899,2,1,P|216:39|203:-25,1,93.5999971435548,8|0,2:2|0:0,0:0:0:0:
27,64,62213,6,1,P|-6:102|7:153,1,93.5999971435548,10|8,2:1|2:1,0:0:0:0:
84,255,62527,1,10,2:2:0:0:
84,255,62606,1,2,2:2:0:0:
84,255,62685,1,10,2:1:0:0:
214,127,62842,5,14,2:2:0:0:
20,164,62999,1,8,2:1:0:0:
234,268,63156,5,14,2:2:0:0:
0,239,63313,1,8,2:1:0:0:
201,344,63470,5,14,2:2:0:0:
18,375,63627,1,8,2:1:0:0:
144,176,63784,2,1,P|135:221|126:281,1,93.5999971435548,14|8,2:2|2:1,0:0:0:0:
237,373,64098,5,8,2:1:0:0:
304,221,64255,1,14,2:2:0:0:
304,221,64412,2,1,P|339:191|404:203,1,93.5999971435548,10|8,2:1|2:1,0:0:0:0:
512,185,64726,1,14,2:2:0:0:
512,339,64884,1,8,2:2:0:0:
512,339,64962,1,8,2:2:0:0:
512,339,65041,2,1,L|500:397,1,46.7999985717774,8|8,2:2|2:2,0:0:0:0:
387,364,65198,2,1,L|398:311,1,46.7999985717774,8|8,2:2|2:2,0:0:0:0:
389,170,65355,6,1,B|328:183|254:197|254:197|219:173|232:135,1,202.799990716553,14|8,2:1|2:2,0:0:0:0:
237,3,65826,1,2,2:2:0:0:
138,124,65983,2,1,P|182:131|246:144,1,93.5999971435548,10|8,2:1|2:1,0:0:0:0:
26,0,66297,1,8,2:2:0:0:
0,147,66454,1,10,2:1:0:0:
0,147,66611,2,1,P|13:195|33:260,1,93.5999971435548,2|8,2:3|2:1,0:0:0:0:
0,384,66925,2,1,B|60:373|60:373|64:363|64:363|141:349,1,140.399995715332,10|0,2:2|0:0,0:0:0:0:
155,325,67240,2,1,P|184:269|162:225,1,93.5999971435548,10|8,2:1|2:1,0:0:0:0:
113,129,67554,2,1,B|161:140|161:140|167:134|167:134|224:144,1,105.299996786499,10|0,2:2|0:2,0:0:0:0:
271,206,67868,6,1,B|313:168|294:112|294:112|345:91|335:8,1,202.799990716553,10|8,2:1|2:2,0:0:0:0:
472,0,68339,1,2,2:2:0:0:
472,164,68496,2,1,P|427:153|370:138,1,93.5999971435548,10|8,2:1|2:1,0:0:0:0:
224,111,68810,6,1,P|201:88|208:31,2,62.3999980957032,10|2|2,2:2|2:2|2:2,0:0:0:0:
298,72,69124,6,1,P|292:42|270:20,2,62.3999980957032,2|2|2,2:3|2:2|2:2,0:0:0:0:
300,151,69438,5,10,2:2:0:0:
323,194,69542,5,2,2:2:0:0:
329,243,69647,5,2,2:2:0:0:
304,287,69753,5,10,2:1:0:0:
297,304,69857,5,2,2:2:0:0:
296,323,69962,5,2,2:2:0:0:
299,340,70067,6,1,P|333:369|394:355,1,93.5999971435548,10|0,2:2|0:0,0:0:0:0:
498,222,70381,6,1,B|460:359|460:359|456:316|427:298,1,202.799990716553,10|8,2:1|2:2,0:0:0:0:
329,220,70852,1,2,2:2:0:0:
418,105,71009,2,1,P|464:94|533:81,1,93.5999971435548,10|8,2:1|2:1,0:0:0:0:
299,0,71323,1,8,2:2:0:0:
211,84,71480,1,10,2:1:0:0:
211,84,71637,2,1,P|222:131|236:189,1,93.5999971435548,2|8,2:3|2:1,0:0:0:0:
194,325,71952,2,1,B|130:314|130:314|127:303|127:303|48:288,1,140.399995715332,10|0,2:2|0:0,0:0:0:0:
35,267,72266,2,1,P|18:217|49:172,1,93.5999971435548,10|8,2:1|2:1,0:0:0:0:
186,158,72580,2,1,B|176:113|176:113|168:108|168:108|154:56,1,105.299996786499,10|0,2:2|0:0,0:0:0:0:
131,31,72894,6,1,B|174:0|174:0|297:16,1,152.099993037415,10|0,2:1|0:0,0:0:0:0:
356,0,73208,2,1,P|352:51|313:92,1,93.5999971435548,10|0,2:2|0:0,0:0:0:0:
223,175,73522,1,10,2:1:0:0:
223,175,73679,1,10,2:1:0:0:
327,261,73836,6,1,P|332:291|317:318,2,62.3999980957032,10|2|2,2:2|2:2|2:2,0:0:0:0:
244,199,74151,6,1,P|229:226|235:256,2,62.3999980957032,10|2|2,2:1|2:2|2:2,0:0:0:0:
355,128,74465,6,1,P|360:158|345:185,2,62.3999980957032,10|2|2,2:2|2:2|2:2,0:0:0:0:
281,72,74779,1,10,2:2:0:0:
427,58,74936,1,8,2:2:0:0:
427,58,75014,1,8,2:2:0:0:
427,58,75093,2,1,L|499:72,1,46.7999985717774,10|8,2:2|2:2,0:0:0:0:
512,175,75250,2,1,L|457:184,1,46.7999985717774,10|8,2:2|2:2,0:0:0:0:
327,261,75407,6,1,P|371:258|417:308,1,85.8000026184083,14|2,2:1|2:2,0:0:0:0:
512,384,75721,1,10,2:2:0:0:
447,215,75878,1,2,2:2:0:0:
297,277,76035,2,1,P|287:314|269:374,1,85.8000026184083,10|8,2:1|2:1,0:0:0:0:
134,384,76349,2,1,B|71:370|71:370|69:362|69:362|8:347,1,128.700003927612,10|0,2:2|0:0,0:0:0:0:
10,310,76664,2,1,P|2:261|42:229,1,85.8000026184083,10|8,2:1|2:1,0:0:0:0:
120,121,76978,2,1,P|130:158|148:218,1,85.8000026184083,14|0,2:2|0:0,0:0:0:0:
219,303,77292,6,1,P|235:326|237:354,2,57.2000017456055,10|8|8,2:1|2:2|2:2,0:0:0:0:
131,332,77606,6,1,P|133:360|149:383,2,57.2000017456055,10|8|4,2:2|2:3|2:3,0:0:0:0:
155,241,77920,6,1,B|129:147|129:147|163:83,1,152.099993037415,14|0,2:1|0:0,0:0:0:0:
180,23,78234,2,1,B|214:37|232:74|232:74|259:40|315:42,1,152.099993037415,14|0,2:1|0:0,0:0:0:0:
381,12,78548,2,1,P|366:93|360:175,1,152.099993037415,6|0,2:3|0:0,0:0:0:0:
286,212,78863,2,1,P|354:253|448:152,1,234.000008926392,14|8,2:2|2:1,0:0:0:0:
512,3,79334,5,12,2:2:0:0:
374,58,79491,2,1,P|323:49|268:39,1,93.5999971435548,10|8,2:1|2:1,0:0:0:0:
135,0,79805,1,14,2:2:0:0:
219,139,79962,1,8,2:2:0:0:
219,139,80041,1,8,2:2:0:0:
219,139,80119,2,1,L|204:200,1,46.7999985717774,10|8,2:2|2:2,0:0:0:0:
119,227,80276,2,1,L|103:179,1,46.7999985717774,8|8,2:2|2:2,0:0:0:0:
0,117,80433,6,1,P|57:92|158:77,1,156,14|8,2:1|2:1,0:0:0:0:
298,134,80904,1,8,2:2:0:0:
298,134,81062,2,1,P|289:90|277:38,1,78,10|8,2:1|2:3,0:0:0:0:
425,0,81376,2,1,P|416:38|409:76,1,78,10|4,2:1|2:3,0:0:0:0:
378,237,81690,6,1,P|417:264|461:248,1,78,14|8,2:1|2:2,0:0:0:0:
512,178,82004,2,1,P|481:152|429:167,1,78,10|8,2:2|2:3,0:0:0:0:
353,260,82318,2,1,P|361:302|373:353,1,78,10|4,2:1|2:3,0:0:0:0:
239,225,82632,2,1,P|248:187|255:149,1,78,10|4,2:1|2:3,0:0:0:0:
83,248,82946,6,1,B|118:321|204:302|204:302|163:284|158:237,1,218.399993334961,14|2,2:1|2:2,0:0:0:0:
395,126,84203,2,1,B|356:63|282:80|282:80|318:95|322:135,1,187.19999428711,14|2,2:1|2:2,0:0:0:0:
262,370,85459,6,1,B|332:399|369:341|369:341|399:351|399:351|445:291|520:325,1,280.799991430664,2|0,2:2|0:0,0:0:0:0:
