osu file format v14

[General]
AudioFilename: audio.mp3
AudioLeadIn: 0
PreviewTime: 45499
Countdown: 0
SampleSet: Soft
StackLeniency: 0.7
Mode: 3
LetterboxInBreaks: 0
SpecialStyle: 0
WidescreenStoryboard: 1

[Editor]
DistanceSpacing: 0.8
BeatDivisor: 4
GridSize: 8
TimelineZoom: 1.9

[Metadata]
Title:Pink Lemonade (TV Size)
TitleUnicode:ピンクレモネード (TV Size)
Artist:Sangatsu no Phantasia
ArtistUnicode:三月のパンタシア
Creator:Mirsaaa
Version:Lemonade
Source:ベルゼブブ嬢のお気に召すまま。
Tags:beelzebub jou no okinimesu mama as miss likes VVCL-1358 分島花音 kanon wakeshima やいり yairi 堀江晶太 shota horie opening op jpop J-pop pop anime japanese Beelzebub-jou
BeatmapID:3498244
BeatmapSetID:1711981

[Difficulty]
HPDrainRate:8
CircleSize:4
OverallDifficulty:8
ApproachRate:5
SliderMultiplier:1.4
SliderTickRate:1

[Events]
//Background and Video events
Video,-100,"video.avi"
0,0,"Background.jpg",0,0
//Break Periods
//Storyboard Layer 0 (Background)
//Storyboard Layer 1 (Fail)
//Storyboard Layer 2 (Pass)
//Storyboard Layer 3 (Foreground)
//Storyboard Layer 4 (Overlay)
//Storyboard Sound Samples
Sample,7960,0,"C#7H_Db7H.wav",60
Sample,37803,0,"F#7H_Gb7H.wav",40
Sample,49583,0,"D#7H_Eb7H.wav",40
Sample,55080,0,"F#6H_Gb6H.wav",40
Sample,70316,0,"D#6H_Eb6H.wav",40
Sample,75420,0,"F6H.wav",40

[TimingPoints]
421,314.13612565445,4,2,1,40,1,0
45656,-100,4,2,1,40,0,1
80839,-100,4,2,1,40,0,0

[HitObjects]
320,192,421,128,0,2934:0:0:0:0:
448,192,2305,128,0,2934:0:0:0:0:
64,192,2934,1,0,0:0:0:20:C#7H_Db7H.wav
192,192,2934,1,0,0:0:0:20:C#6H_Db6H.wav
448,192,3091,1,0,0:0:0:20:C7H.wav
320,192,3248,1,0,0:0:0:20:C#7H_Db7H.wav
64,192,3405,1,0,0:0:0:20:G#7H_Ab7H.wav
448,192,3405,1,0,0:0:0:0:
320,192,3719,1,0,0:0:0:20:F#7H_Gb7H.wav
192,192,4033,1,0,0:0:0:20:F7H.wav
448,192,4033,1,0,0:0:0:0:
320,192,4347,1,0,0:0:0:20:F#7H_Gb7H.wav
192,192,4426,1,0,0:0:0:20:F7H.wav
64,192,4504,1,0,0:0:0:20:D#7H_Eb7H.wav
448,192,4661,1,0,0:0:0:20:C#7H_Db7H.wav
320,192,5290,1,0,0:0:0:20:G#6H_Ab6H.wav
192,192,5447,1,0,0:0:0:20:C#7H_Db7H.wav
64,192,5447,1,0,0:0:0:20:C#6H_Db6H.wav
448,192,5604,1,0,0:0:0:20:C7H.wav
320,192,5761,1,0,0:0:0:20:C#7H_Db7H.wav
64,192,5918,1,0,0:0:0:20:G#7H_Ab7H.wav
448,192,5918,1,0,0:0:0:0:
320,192,6232,1,0,0:0:0:20:F#7H_Gb7H.wav
192,192,6546,1,0,0:0:0:20:F7H.wav
448,192,6546,1,0,0:0:0:0:
320,192,6860,1,0,0:0:0:20:F#7H_Gb7H.wav
192,192,6939,1,0,0:0:0:20:F7H.wav
64,192,7017,1,0,0:0:0:20:D#7H_Eb7H.wav
448,192,7174,1,0,0:0:0:20:C#7H_Db7H.wav
320,192,7331,128,0,7960:0:0:0:0:
64,192,7489,1,4,0:3:0:40:
192,192,7567,1,4,0:3:0:40:
448,192,7646,128,4,7960:0:3:0:40:
192,192,7960,1,0,0:0:0:60:C#6H_Db6H.wav
64,192,7960,1,2,0:0:0:40:
448,192,8117,1,0,0:0:0:60:C7H.wav
320,192,8274,1,0,0:0:0:60:C#7H_Db7H.wav
64,192,8431,1,0,0:0:0:60:G#7H_Ab7H.wav
448,192,8431,1,0,0:0:0:0:
320,192,8745,1,0,0:0:0:60:F#7H_Gb7H.wav
448,192,9059,128,0,9373:0:0:0:60:F7H.wav
192,192,9059,1,0,0:0:0:0:
320,192,9373,128,0,9452:0:0:0:60:F#7H_Gb7H.wav
192,192,9452,128,0,9530:0:0:0:60:F7H.wav
64,192,9530,128,0,9609:0:0:0:60:D#7H_Eb7H.wav
448,192,9688,128,0,9766:0:0:0:60:C#7H_Db7H.wav
64,192,9845,1,0,0:0:0:0:
320,192,10002,128,0,10159:0:0:0:60:D#7H_Eb7H.wav
192,192,10159,128,4,10316:1:0:0:40:
448,192,10159,1,0,0:0:0:60:F7H.wav
64,192,10316,128,0,10473:0:0:0:60:G#7H_Ab7H.wav
320,192,10473,1,2,0:0:0:40:
192,192,10473,1,4,0:0:0:40:
448,192,10473,1,0,0:0:0:60:A6H.wav
64,192,10630,1,0,0:0:0:60:F#7H_Gb7H.wav
192,192,10787,1,2,0:0:0:40:
448,192,10787,1,0,0:0:0:60:C#7H_Db7H.wav
320,192,10944,1,0,0:0:0:60:A6H.wav
448,192,11101,1,2,0:0:0:40:
64,192,11101,1,0,0:0:0:60:F#6H_Gb6H.wav
192,192,11258,1,0,0:0:0:60:C#6H_Db6H.wav
448,192,11415,1,2,0:0:0:40:
320,192,11415,1,0,0:0:0:0:
64,192,11494,1,0,0:0:0:0:
192,192,11572,1,0,0:0:0:0:
320,192,11651,1,0,0:0:0:0:
64,192,11729,1,4,0:0:0:40:
448,192,11729,1,2,0:0:0:40:
192,192,11729,128,0,12986:0:0:0:60:C#6H_Db6H.wav
448,192,12044,1,8,0:0:0:40:
320,192,12044,1,0,0:0:0:0:
64,192,12201,1,2,1:0:0:40:
320,192,12358,1,0,0:0:0:60:C6H.wav
448,192,12515,1,2,1:0:0:40:
64,192,12672,1,8,1:0:0:40:
320,192,12829,1,4,1:0:0:40:
64,192,12986,1,0,0:0:0:40:C#5H_Db5H.wav
448,192,12986,128,4,13300:0:0:0:40:
192,192,13300,1,0,0:0:0:0:
64,192,13457,128,2,13771:3:0:0:0:
320,192,13457,1,0,0:0:0:0:
192,192,13771,1,0,0:0:0:0:
448,192,13928,128,0,14242:0:0:0:0:
64,192,14085,1,0,0:0:0:0:
320,192,14242,1,0,0:0:0:40:F6H.wav
192,192,14242,1,2,3:0:0:0:
192,192,14714,1,0,0:0:0:40:F6H.wav
64,192,14714,1,2,3:0:0:0:
448,192,14871,128,0,15185:0:0:0:0:
64,192,15028,1,2,3:0:0:0:
320,192,15185,128,0,15499:0:0:0:0:
64,192,15499,1,0,0:0:0:40:D#6H_Eb6H.wav
192,192,15499,128,2,15813:3:0:0:0:
448,192,15813,1,0,0:0:0:0:
320,192,15970,1,0,0:0:0:40:D#6H_Eb6H.wav
64,192,15970,128,2,16284:3:0:0:0:
192,192,16127,1,0,0:0:0:0:
448,192,16284,1,2,3:0:0:0:
320,192,16284,1,0,0:0:0:0:
192,192,16441,128,0,16756:0:0:0:0:
448,192,16599,1,0,0:0:0:0:
64,192,16756,1,0,0:0:0:40:F6H.wav
320,192,16756,1,2,3:0:0:0:
448,192,16913,1,0,0:0:0:0:
320,192,17070,1,0,0:0:0:0:
64,192,17227,1,0,0:0:0:40:F6H.wav
192,192,17227,1,2,3:0:0:0:
448,192,17384,128,0,17698:0:0:0:0:
192,192,17541,1,2,3:0:0:0:
64,192,17698,128,0,18012:0:0:0:0:
448,192,17855,1,0,0:0:0:0:
320,192,18012,128,0,18483:0:0:0:40:D#6H_Eb6H.wav
192,192,18012,1,2,3:0:0:0:
64,192,18169,1,0,0:0:0:0:
448,192,18326,1,0,0:0:0:0:
192,192,18483,1,0,0:0:0:40:D#6H_Eb6H.wav
64,192,18483,1,2,3:0:0:0:
448,192,18640,128,0,19112:0:0:0:0:
64,192,18797,1,2,3:0:0:0:
192,192,18955,1,0,0:0:0:0:
320,192,19112,1,0,0:0:0:0:
64,192,19269,128,0,19583:0:0:0:40:F6H.wav
192,192,19269,1,2,3:0:0:0:
448,192,19426,1,0,0:0:0:0:
320,192,19583,128,0,19897:0:0:0:0:
192,192,19740,1,0,0:0:0:40:F6H.wav
448,192,19740,1,2,3:0:0:0:
64,192,19897,128,0,20211:0:0:0:0:
448,192,20054,1,2,3:0:0:0:
192,192,20211,128,0,20525:0:0:0:0:
320,192,20368,1,2,3:0:0:0:
448,192,20525,128,0,20839:0:0:0:40:C#6H_Db6H.wav
64,192,20525,1,0,0:0:0:0:
192,192,20682,1,0,0:0:0:0:
64,192,20839,128,0,21153:0:0:0:0:
448,192,20996,1,2,3:0:0:0:
320,192,21153,128,0,21468:0:0:0:0:
64,192,21311,1,2,3:0:0:0:
192,192,21468,128,2,21782:0:0:0:40:
448,192,21468,1,0,0:0:0:0:
448,192,21782,128,2,22096:0:0:0:40:
320,192,21782,128,0,22096:0:0:0:0:
192,192,22096,1,2,0:0:0:40:
64,192,22096,128,0,22410:0:0:0:0:
448,192,22253,1,2,3:0:0:0:
192,192,22410,1,2,0:0:0:40:
320,192,22410,128,0,22724:0:0:0:0:
64,192,22567,1,8,1:0:0:40:
192,192,22724,1,2,0:0:0:40:
448,192,22724,1,0,0:0:0:0:
320,192,22881,1,8,1:0:0:40:
64,192,23038,1,2,0:0:0:40:
192,192,23038,1,4,0:0:0:40:
448,192,23038,1,0,0:0:0:40:D#6H_Eb6H.wav
192,192,23195,1,2,0:0:0:40:
64,192,23195,1,0,0:0:0:0:
320,192,23352,1,8,0:0:0:40:
448,192,23352,1,0,0:0:0:0:
64,192,23510,1,2,0:0:0:40:
192,192,23510,1,0,0:0:0:0:
320,192,23667,1,0,0:0:0:0:
64,192,23824,1,2,0:0:0:40:
192,192,23824,1,0,0:0:0:0:
320,192,23981,1,8,0:0:0:40:
448,192,23981,1,0,0:0:0:0:
320,192,24295,1,2,0:0:0:40:
192,192,24295,1,0,0:0:0:40:F6H.wav
192,192,24452,1,2,0:0:0:40:
320,192,24452,1,0,0:0:0:0:
64,192,24609,1,8,0:0:0:40:
448,192,24609,1,0,0:0:0:0:
192,192,24766,1,2,0:0:0:40:
320,192,24766,1,0,0:0:0:0:
64,192,24923,1,0,0:0:0:0:
192,192,25080,1,2,0:0:0:40:
320,192,25080,1,0,0:0:0:0:
64,192,25237,1,8,0:0:0:40:
448,192,25237,1,0,0:0:0:0:
192,192,25394,1,0,0:0:0:0:
320,192,25551,1,2,0:0:0:40:
448,192,25551,1,0,0:0:0:40:D#6H_Eb6H.wav
448,192,25708,1,2,0:0:0:40:
320,192,25708,1,0,0:0:0:0:
192,192,25866,1,8,0:0:0:40:
64,192,25866,1,0,0:0:0:0:
320,192,26023,1,2,0:0:0:40:
448,192,26023,1,0,0:0:0:0:
64,192,26180,1,0,0:0:0:0:
448,192,26337,1,2,0:0:0:40:
320,192,26337,1,0,0:0:0:0:
64,192,26494,1,8,0:0:0:40:
192,192,26494,1,0,0:0:0:0:
192,192,26808,1,2,0:0:0:40:
320,192,26808,1,0,0:0:0:40:F6H.wav
192,192,26965,1,2,0:0:0:40:
320,192,26965,1,0,0:0:0:0:
64,192,27122,1,8,0:0:0:40:
448,192,27122,1,0,0:0:0:0:
320,192,27279,1,2,0:0:0:40:
192,192,27279,1,0,0:0:0:0:
448,192,27436,1,0,0:0:0:0:
192,192,27593,1,2,0:0:0:40:
320,192,27593,1,0,0:0:0:0:
64,192,27750,1,8,0:0:0:40:
448,192,27750,1,0,0:0:0:0:
320,192,27907,1,0,0:0:0:0:
192,192,28064,1,2,0:0:0:40:
64,192,28064,1,0,0:0:0:40:D#6H_Eb6H.wav
64,192,28222,1,2,0:0:0:40:
192,192,28222,1,0,0:0:0:0:
320,192,28379,1,8,0:0:0:40:
448,192,28379,1,0,0:0:0:0:
192,192,28536,1,2,0:0:0:40:
64,192,28536,1,0,0:0:0:40:D#6H_Eb6H.wav
448,192,28693,1,0,0:0:0:0:
64,192,28850,1,2,0:0:0:40:
192,192,28850,1,0,0:0:0:0:
320,192,29007,1,8,0:0:0:40:
448,192,29007,1,0,0:0:0:0:
192,192,29321,1,2,0:0:0:40:
320,192,29321,1,0,0:0:0:40:F6H.wav
320,192,29478,1,2,0:0:0:40:
192,192,29478,1,0,0:0:0:0:
64,192,29635,1,8,0:0:0:40:
448,192,29635,1,0,0:0:0:0:
320,192,29792,1,2,0:0:0:40:
192,192,29792,1,0,0:0:0:40:F6H.wav
64,192,29949,1,0,0:0:0:0:
192,192,30106,1,2,0:0:0:40:
320,192,30106,1,0,0:0:0:0:
64,192,30263,1,8,0:0:0:40:
448,192,30263,1,0,0:0:0:0:
192,192,30420,1,0,0:0:0:0:
320,192,30578,1,0,0:0:0:40:C#6H_Db6H.wav
448,192,30578,1,2,0:0:0:40:
320,192,30735,1,2,0:0:0:40:
448,192,30735,1,0,0:0:0:0:
192,192,30892,1,8,0:0:0:40:
64,192,30892,1,0,0:0:0:0:
320,192,31049,1,2,0:0:0:40:
448,192,31049,1,0,0:0:0:0:
192,192,31206,1,0,0:0:0:0:
320,192,31363,1,2,0:0:0:40:
448,192,31363,1,0,0:0:0:0:
192,192,31520,1,8,0:0:0:40:
64,192,31520,1,0,0:0:0:0:
192,192,31834,1,2,0:0:0:40:
320,192,31834,1,0,0:0:0:0:
320,192,31991,1,2,0:0:0:40:
192,192,31991,1,0,0:0:0:0:
64,192,32148,1,8,0:0:0:40:
448,192,32148,1,4,0:0:0:40:
192,192,32148,1,0,0:0:0:0:
192,192,32462,1,2,0:0:0:40:
64,192,32462,1,0,0:0:0:0:
320,192,32619,1,8,0:0:0:40:
448,192,32619,1,0,0:0:0:0:
192,192,32698,1,8,0:0:0:40:
64,192,32777,1,2,0:0:0:40:
448,192,32777,1,8,0:0:0:40:
320,192,32855,1,8,0:0:0:40:
64,192,32934,1,8,0:0:0:40:
192,192,32934,1,0,0:0:0:0:
320,192,33012,1,8,0:0:0:40:
448,192,33091,1,4,0:0:0:40:
192,192,33091,1,2,0:0:0:40:
64,192,33091,1,0,0:0:0:40:C#6H_Db6H.wav
320,192,33405,1,2,0:0:0:40:
448,192,33405,128,0,33562:0:0:0:40:D#6H_Eb6H.wav
448,192,33719,1,2,0:0:0:40:
320,192,33719,128,0,33876:0:0:0:40:F6H.wav
192,192,34033,1,2,0:0:0:40:
64,192,34033,1,0,0:0:0:40:F#6H_Gb6H.wav
448,192,34190,1,0,0:0:0:0:
192,192,34347,1,2,0:0:0:40:
64,192,34347,1,0,0:0:0:40:F6H.wav
320,192,34504,1,0,0:0:0:0:
64,192,34661,1,2,0:0:0:40:
192,192,34661,1,0,0:0:0:40:A6H.wav
320,192,34818,1,8,0:0:0:40:
448,192,34818,1,0,0:0:0:0:
192,192,34975,1,2,0:0:0:40:
64,192,34975,128,0,35290:0:0:0:40:C#7H_Db7H.wav
320,192,35290,128,2,35604:0:0:0:40:
448,192,35290,1,0,0:0:0:40:D#7H_Eb7H.wav
64,192,35447,1,2,1:0:0:40:
192,192,35604,1,6,0:0:0:40:
448,192,35604,1,0,0:0:0:40:F7H.wav
192,192,35918,1,2,0:0:0:40:
64,192,35918,128,0,36075:0:0:0:40:F#7H_Gb7H.wav
64,192,36232,1,2,0:0:0:40:
192,192,36232,128,0,36389:0:0:0:40:G#7H_Ab7H.wav
448,192,36546,1,2,0:0:0:40:
64,192,36546,1,0,0:0:0:0:
448,192,36860,128,2,37174:0:0:0:40:
320,192,36860,1,0,0:0:0:40:F7H.wav
64,192,37174,128,2,37489:0:0:0:40:
192,192,37174,1,0,0:0:0:40:F#7H_Gb7H.wav
320,192,37489,1,0,0:0:0:40:F7H.wav
448,192,37489,1,10,0:0:0:40:
192,192,37593,1,8,0:0:0:40:
64,192,37593,1,0,0:0:0:0:
320,192,37698,1,8,0:0:0:40:
448,192,37698,1,0,0:0:0:0:
64,192,37803,1,2,0:0:0:40:
192,192,37907,1,2,1:0:0:40:
320,192,38012,1,2,1:0:0:40:
192,192,38117,1,2,0:0:0:40:
64,192,38117,1,4,0:0:0:40:
448,192,38117,1,0,0:0:0:40:F7H.wav
320,192,38274,1,2,0:0:0:40:
448,192,38274,1,4,0:0:0:40:
64,192,38588,1,2,0:0:0:40:
320,192,38588,1,0,0:0:0:0:
448,192,38745,1,8,0:0:0:40:
192,192,38745,1,0,0:0:0:40:C#7H_Db7H.wav
64,192,38902,1,2,0:0:0:40:
320,192,38902,1,0,0:0:0:0:
192,192,39059,1,0,0:0:0:0:
448,192,39216,1,0,0:0:0:0:
320,192,39373,1,2,0:0:0:40:
192,192,39373,1,0,0:0:0:40:D#6H_Eb6H.wav
320,192,39530,1,2,0:0:0:40:
192,192,39530,1,0,0:0:0:0:
64,192,39688,1,0,0:0:0:0:
320,192,39845,1,2,0:0:0:40:
448,192,39845,1,0,0:0:0:0:
192,192,40002,1,8,0:0:0:40:
64,192,40002,1,6,0:0:0:40:
448,192,40002,1,0,0:0:0:40:C#7H_Db7H.wav
320,192,40316,1,2,0:0:0:40:
448,192,40316,1,0,0:0:0:0:
64,192,40473,1,2,0:0:0:0:
192,192,40551,1,0,0:0:0:0:
320,192,40630,1,2,0:0:0:40:
64,192,40630,1,4,0:0:0:40:
448,192,40630,1,0,0:0:0:40:C#6H_Db6H.wav
192,192,40944,128,0,41258:0:0:0:0:
320,192,41258,128,4,41572:3:0:0:40:
448,192,41572,128,0,41886:0:0:0:0:
320,192,41886,1,8,0:0:0:40:
64,192,41886,128,0,42201:0:0:0:0:
448,192,42044,1,2,0:0:0:40:
320,192,42044,1,0,0:0:0:0:
192,192,42201,1,8,0:0:0:40:
448,192,42201,128,0,42515:0:0:0:0:
192,192,42358,1,2,0:0:0:40:
64,192,42358,1,0,0:0:0:0:
320,192,42515,1,8,0:0:0:40:
64,192,42515,128,0,42829:0:0:0:0:
448,192,42672,1,2,0:0:0:40:
320,192,42672,1,0,0:0:0:0:
192,192,42829,1,8,0:0:0:40:
448,192,42829,128,4,43143:0:0:0:40:
64,192,43143,1,8,0:0:0:40:
192,192,43143,1,4,0:0:0:40:
320,192,43143,1,0,0:0:0:0:
448,192,43457,1,2,0:0:0:40:
192,192,43457,1,4,1:0:0:40:
64,192,43614,1,8,0:0:0:40:
320,192,43614,1,0,0:0:0:0:
192,192,43771,1,8,0:0:0:40:
448,192,43771,1,2,0:0:0:40:
64,192,43771,1,4,1:0:0:40:
192,192,43928,1,8,0:0:0:40:
320,192,43928,1,0,0:0:0:0:
320,192,44085,1,8,0:0:0:40:
448,192,44085,1,2,0:0:0:40:
64,192,44085,1,4,1:0:0:40:
320,192,44242,1,8,0:0:0:40:
64,192,44242,1,0,0:0:0:0:
192,192,44242,1,0,0:0:0:0:
448,192,44400,128,0,44714:0:0:0:60:C#6H_Db6H.wav
320,192,44714,128,0,45028:0:0:0:60:C6H.wav
192,192,45028,128,0,45342:0:0:0:60:A#5H_Bb5H.wav
64,192,45342,128,0,45656:0:0:0:60:G#5H_Ab5H.wav
448,192,45342,1,2,0:0:0:20:
320,192,45405,1,0,0:0:0:0:
192,192,45468,1,0,0:0:0:0:
320,192,45530,1,0,0:0:0:0:
192,192,45656,1,2,0:0:0:40:
448,192,45656,128,4,45970:0:0:0:40:
64,192,45970,1,8,0:0:0:40:
192,192,45970,1,0,0:0:0:0:
320,192,46127,128,0,46284:0:0:0:0:
192,192,46284,128,2,46599:0:0:0:40:
448,192,46284,1,0,0:0:0:0:
448,192,46441,1,2,0:0:0:40:
320,192,46599,1,8,0:0:0:40:
64,192,46599,1,0,0:0:0:0:
448,192,46756,128,2,46913:0:0:0:40:
192,192,46756,1,0,0:0:0:0:
64,192,46913,128,0,47070:0:0:0:0:
192,192,47070,1,2,0:0:0:40:
320,192,47070,1,0,0:0:0:0:
448,192,47227,128,8,47541:0:0:0:40:
64,192,47227,1,0,0:0:0:0:
320,192,47541,128,2,47855:0:0:0:40:
192,192,47541,1,0,0:0:0:0:
192,192,47698,1,2,0:0:0:40:
64,192,47855,128,8,48169:0:0:0:40:
448,192,47855,1,0,0:0:0:0:
192,192,48169,128,2,48483:0:0:0:40:
320,192,48169,1,0,0:0:0:0:
64,192,48483,1,8,0:0:0:40:
448,192,48483,1,0,0:0:0:0:
320,192,48640,128,0,48797:0:0:0:0:
64,192,48797,128,2,49112:0:0:0:40:
192,192,48797,1,0,0:0:0:0:
192,192,48955,1,2,0:0:0:40:
320,192,49112,1,0,0:0:0:40:C7H.wav
448,192,49112,1,8,0:0:0:40:
192,192,49269,1,2,0:0:0:40:
64,192,49269,1,0,0:0:0:40:A#6H_Bb6H.wav
448,192,49373,1,0,0:0:0:40:C7H.wav
320,192,49478,1,0,0:0:0:40:C#7H_Db7H.wav
192,192,49583,1,2,0:0:0:40:
448,192,49661,1,0,0:0:0:40:F7H.wav
320,192,49740,1,8,0:0:0:40:
64,192,49740,1,0,0:0:0:40:D#7H_Eb7H.wav
192,192,49845,1,0,0:0:0:40:C#7H_Db7H.wav
320,192,49936,1,0,0:0:0:40:C7H.wav
448,192,50054,1,2,0:0:0:40:
64,192,50054,1,0,0:0:0:40:A#6H_Bb6H.wav
192,192,50133,1,0,0:0:0:40:A6H.wav
448,192,50211,1,0,0:0:0:40:F6H.wav
320,192,50211,1,2,0:0:0:40:
192,192,50368,1,8,0:0:0:40:
64,192,50368,1,0,0:0:0:40:C6H.wav
320,192,50447,1,0,0:0:0:0:
448,192,50525,1,0,0:0:0:0:
64,192,50604,1,0,0:0:0:0:
192,192,50682,128,2,50996:0:0:0:40:
320,192,50682,1,0,0:0:0:0:
64,192,50996,1,8,0:0:0:40:
448,192,50996,1,0,0:0:0:0:
320,192,51153,128,0,51311:0:0:0:0:
64,192,51311,128,2,51625:0:0:0:40:
192,192,51311,1,0,0:0:0:0:
192,192,51468,1,2,0:0:0:40:
320,192,51625,1,8,0:0:0:40:
448,192,51625,1,0,0:0:0:0:
192,192,51782,128,2,51939:0:0:0:40:
64,192,51782,1,0,0:0:0:0:
448,192,51939,128,0,52253:0:0:0:0:
320,192,52096,1,2,0:0:0:40:
192,192,52253,128,8,52567:0:0:0:40:
64,192,52253,1,0,0:0:0:0:
448,192,52567,128,2,52881:0:0:0:40:
320,192,52567,1,0,0:0:0:0:
320,192,52724,1,2,0:0:0:40:
64,192,52881,128,8,53195:0:0:0:40:
192,192,52881,1,0,0:0:0:0:
320,192,53195,128,2,53510:0:0:0:40:
448,192,53195,1,0,0:0:0:0:
192,192,53510,128,8,53824:0:0:0:40:
64,192,53510,1,0,0:0:0:0:
320,192,53824,1,2,0:0:0:40:
448,192,53824,1,0,0:0:0:0:
320,192,53981,1,2,0:0:0:40:
448,192,53981,1,0,0:0:0:0:
192,192,54138,1,0,0:0:0:40:G#6H_Ab6H.wav
64,192,54138,128,8,54452:0:0:0:40:
448,192,54256,1,0,0:0:0:40:C#7H_Db7H.wav
320,192,54373,1,0,0:0:0:40:D#7H_Eb7H.wav
192,192,54452,1,0,0:0:0:40:F7H.wav
448,192,54452,1,2,0:0:0:40:
320,192,54570,1,0,0:0:0:40:D#7H_Eb7H.wav
192,192,54688,1,0,0:0:0:40:C#7H_Db7H.wav
448,192,54766,1,0,0:0:0:40:C7H.wav
64,192,54766,1,8,0:0:0:40:
320,192,54884,1,0,0:0:0:40:A#6H_Bb6H.wav
192,192,55002,1,0,0:0:0:40:G#6H_Ab6H.wav
448,192,55080,1,2,0:0:0:40:
64,192,55185,1,0,0:0:0:40:D#6H_Eb6H.wav
448,192,55237,1,8,0:0:0:40:
192,192,55237,1,0,0:0:0:0:
320,192,55316,1,8,0:0:0:40:
192,192,55394,1,0,0:0:0:40:C#6H_Db6H.wav
64,192,55394,1,10,0:0:0:40:
448,192,55473,1,8,0:0:0:40:
320,192,55551,1,0,0:0:0:0:
64,192,55551,1,8,0:0:0:40:
192,192,55630,1,8,0:0:0:40:
448,192,55708,1,4,0:0:0:40:
320,192,55708,1,2,0:0:0:40:
64,192,55708,1,0,0:0:0:0:
192,192,55866,128,0,56023:0:0:0:0:
320,192,56023,1,8,0:0:0:40:
64,192,56023,1,0,0:0:0:0:
448,192,56180,128,0,56337:0:0:0:0:
192,192,56337,1,2,0:0:0:40:
320,192,56337,128,0,56651:0:0:0:0:
192,192,56494,1,2,0:0:0:40:
64,192,56651,128,8,56965:0:0:0:40:
448,192,56651,1,0,0:0:0:0:
192,192,56965,128,2,57279:0:0:0:40:
320,192,56965,1,0,0:0:0:0:
320,192,57122,1,2,0:0:0:40:
64,192,57279,1,8,0:0:0:40:
448,192,57279,128,0,57593:0:0:0:0:
192,192,57593,1,2,0:0:0:40:
64,192,57593,1,0,0:0:0:0:
320,192,57698,1,8,0:0:0:40:
448,192,57698,1,0,0:0:0:0:
192,192,57803,1,8,0:0:0:40:
64,192,57803,1,0,0:0:0:0:
448,192,57907,1,8,0:0:0:40:
320,192,57907,1,0,0:0:0:0:
192,192,58012,1,2,1:0:0:40:
320,192,58117,1,2,1:0:0:40:
448,192,58222,1,4,0:0:0:40:
192,192,58222,1,2,0:0:0:40:
64,192,58222,1,0,0:0:0:0:
64,192,58536,1,8,0:0:0:40:
192,192,58536,1,2,1:0:0:40:
320,192,58536,1,0,0:0:0:0:
192,192,58850,1,8,0:0:0:40:
320,192,58850,1,2,1:0:0:40:
448,192,58850,1,0,0:0:0:0:
192,192,59164,1,4,0:0:0:40:
64,192,59164,1,2,0:0:0:40:
320,192,59164,1,0,0:0:0:0:
448,192,59164,1,0,0:0:0:0:
64,192,59478,1,2,0:0:0:40:
192,192,59478,1,0,0:0:0:0:
320,192,59635,1,8,0:0:0:40:
448,192,59635,1,0,0:0:0:0:
192,192,59792,1,2,0:0:0:40:
64,192,59792,1,0,0:0:0:0:
192,192,59949,1,2,0:0:0:40:
64,192,59949,1,0,0:0:0:0:
320,192,60106,1,8,0:0:0:40:
448,192,60106,1,0,0:0:0:0:
64,192,60263,1,8,0:0:0:40:
192,192,60263,1,0,0:0:0:0:
320,192,60342,1,8,0:0:0:40:
448,192,60420,1,8,0:0:0:40:
64,192,60420,1,2,0:0:0:40:
192,192,60499,1,8,0:0:0:40:
448,192,60578,1,8,0:0:0:40:
320,192,60578,1,0,0:0:0:0:
192,192,60656,1,8,0:0:0:40:
320,192,60735,1,4,0:0:0:40:
64,192,60735,1,2,0:0:0:40:
448,192,60735,128,0,61049:0:0:0:0:
64,192,60892,1,2,0:0:0:40:
320,192,61049,1,8,0:0:0:40:
192,192,61049,128,0,61363:0:0:0:0:
64,192,61363,128,2,61677:0:0:0:40:
448,192,61363,1,0,0:0:0:0:
448,192,61520,1,2,0:0:0:40:
320,192,61677,128,8,61991:0:0:0:40:
192,192,61677,1,0,0:0:0:0:
448,192,61991,128,2,62305:0:0:0:40:
64,192,61991,1,0,0:0:0:0:
64,192,62148,1,2,0:0:0:40:
192,192,62305,1,8,0:0:0:40:
320,192,62305,1,0,0:0:0:0:
192,192,62619,128,2,62934:0:0:0:40:
320,192,62619,1,0,0:0:0:0:
320,192,62777,1,2,0:0:0:40:
64,192,62934,1,8,0:0:0:40:
448,192,62934,128,0,63248:0:0:0:0:
192,192,63091,1,2,0:0:0:40:
320,192,63248,1,8,0:0:0:40:
64,192,63248,128,0,63562:0:0:0:0:
320,192,63405,1,2,0:0:0:40:
448,192,63405,1,0,0:0:0:0:
448,192,63562,128,8,63876:0:0:0:40:
192,192,63562,1,0,0:0:0:0:
192,192,63719,1,2,0:0:0:40:
64,192,63719,1,0,0:0:0:0:
64,192,63876,128,8,64190:0:0:0:40:
320,192,63876,1,0,0:0:0:0:
320,192,64033,1,2,0:0:0:40:
448,192,64033,1,0,0:0:0:0:
192,192,64190,1,8,0:0:0:40:
448,192,64190,1,0,0:0:0:0:
192,192,64347,1,2,0:0:0:40:
320,192,64347,1,0,0:0:0:0:
320,192,64504,1,2,0:0:0:40:
192,192,64504,1,0,0:0:0:0:
64,192,64661,1,8,0:0:0:40:
448,192,64661,1,4,0:0:0:40:
320,192,64661,1,0,0:0:0:0:
64,192,64818,1,2,0:0:0:40:
192,192,64818,1,0,0:0:0:0:
192,192,64975,1,2,0:0:0:40:
64,192,64975,1,0,0:0:0:0:
320,192,65133,1,8,0:0:0:40:
448,192,65133,1,0,0:0:0:0:
192,192,65133,1,0,0:0:0:0:
448,192,65290,1,8,0:0:0:40:
320,192,65290,1,0,0:0:0:0:
64,192,65368,1,8,0:0:0:40:
448,192,65447,1,8,0:0:0:40:
192,192,65447,1,2,0:0:0:40:
320,192,65525,1,8,0:0:0:40:
192,192,65604,1,8,0:0:0:40:
64,192,65604,1,0,0:0:0:0:
448,192,65682,1,8,0:0:0:40:
192,192,65761,1,4,0:0:0:40:
320,192,65761,1,2,0:0:0:40:
64,192,65761,128,0,66075:0:0:0:0:
448,192,66075,1,8,0:0:0:40:
320,192,66075,1,0,0:0:0:0:
192,192,66232,128,0,66389:0:0:0:0:
320,192,66389,128,2,66703:0:0:0:40:
64,192,66389,1,0,0:0:0:0:
64,192,66546,1,2,0:0:0:40:
192,192,66703,1,8,0:0:0:40:
448,192,66703,1,0,0:0:0:0:
64,192,66860,128,2,67017:0:0:0:40:
320,192,66860,1,0,0:0:0:0:
448,192,67017,128,0,67174:0:0:0:0:
192,192,67174,1,2,0:0:0:40:
320,192,67174,1,0,0:0:0:0:
64,192,67331,128,8,67646:0:0:0:40:
448,192,67331,1,0,0:0:0:0:
192,192,67646,128,2,67960:0:0:0:40:
320,192,67646,1,0,0:0:0:0:
320,192,67803,1,2,0:0:0:40:
448,192,67960,128,8,68274:0:0:0:40:
64,192,67960,1,0,0:0:0:0:
320,192,68274,128,2,68588:0:0:0:40:
192,192,68274,1,0,0:0:0:0:
448,192,68588,1,8,0:0:0:40:
64,192,68588,1,0,0:0:0:0:
192,192,68745,128,0,68902:0:0:0:0:
448,192,68902,128,2,69216:0:0:0:40:
320,192,68902,1,0,0:0:0:0:
320,192,69059,1,2,0:0:0:40:
64,192,69216,1,8,0:0:0:40:
192,192,69216,1,0,0:0:0:40:C7H.wav
448,192,69373,1,0,0:0:0:40:C#7H_Db7H.wav
320,192,69373,1,2,0:0:0:40:
64,192,69530,1,0,0:0:0:40:F7H.wav
320,192,69635,1,0,0:0:0:40:D#7H_Eb7H.wav
192,192,69740,1,0,0:0:0:40:C#7H_Db7H.wav
64,192,69845,1,0,0:0:0:40:F#7H_Gb7H.wav
448,192,69845,1,8,0:0:0:40:
320,192,69949,1,0,0:0:0:40:A#6H_Bb6H.wav
192,192,70054,1,0,0:0:0:40:G#6H_Ab6H.wav
448,192,70159,1,0,0:0:0:40:F#6H_Gb6H.wav
320,192,70159,1,2,0:0:0:40:
64,192,70237,1,0,0:0:0:40:F6H.wav
192,192,70316,1,2,0:0:0:0:
320,192,70394,1,0,0:0:0:40:C#6H_Db6H.wav
64,192,70473,1,8,0:0:0:40:
448,192,70473,1,0,0:0:0:0:
192,192,70551,1,0,0:0:0:40:C6H.wav
320,192,70630,1,0,0:0:0:40:C6H.wav
64,192,70787,128,2,71101:0:0:0:40:
192,192,70787,1,0,0:0:0:0:
320,192,71101,1,8,0:0:0:40:
448,192,71101,1,0,0:0:0:0:
192,192,71258,128,0,71415:0:0:0:0:
448,192,71415,128,2,71729:0:0:0:40:
320,192,71415,1,0,0:0:0:0:
320,192,71572,1,2,0:0:0:40:
192,192,71729,1,8,0:0:0:40:
64,192,71729,1,0,0:0:0:0:
320,192,71886,128,2,72044:0:0:0:40:
448,192,71886,1,0,0:0:0:0:
64,192,72044,128,0,72358:0:0:0:0:
192,192,72201,1,2,0:0:0:40:
320,192,72358,128,8,72672:0:0:0:40:
448,192,72358,1,0,0:0:0:0:
64,192,72672,128,2,72986:0:0:0:40:
192,192,72672,1,0,0:0:0:0:
192,192,72829,1,2,0:0:0:40:
448,192,72986,128,8,73300:0:0:0:40:
320,192,72986,1,0,0:0:0:0:
192,192,73300,128,4,73614:0:0:0:40:
64,192,73300,1,2,0:0:0:40:
320,192,73300,1,0,0:0:0:0:
320,192,73614,128,8,73928:0:0:0:40:
448,192,73614,1,0,0:0:0:0:
192,192,73928,1,2,0:0:0:40:
64,192,73928,1,0,0:0:0:0:
192,192,74085,1,2,0:0:0:40:
64,192,74085,1,0,0:0:0:0:
320,192,74164,1,0,0:0:0:40:C#7H_Db7H.wav
448,192,74242,128,8,74557:0:0:0:40:
64,192,74242,1,0,0:0:0:40:D#7H_Eb7H.wav
192,192,74400,1,0,0:0:0:40:F7H.wav
320,192,74478,1,0,0:0:0:40:F#7H_Gb7H.wav
192,192,74557,1,2,0:0:0:40:
64,192,74557,1,0,0:0:0:40:G#7H_Ab7H.wav
320,192,74674,1,0,0:0:0:40:F#7H_Gb7H.wav
192,192,74753,1,0,0:0:0:40:F7H.wav
448,192,74871,1,8,0:0:0:40:
64,192,74871,1,0,0:0:0:40:D#7H_Eb7H.wav
320,192,74975,1,0,0:0:0:40:C#7H_Db7H.wav
192,192,75080,1,0,0:0:0:40:C7H.wav
320,192,75185,1,8,0:0:0:40:
448,192,75185,1,0,0:0:0:40:A#6H_Bb6H.wav
64,192,75263,1,0,0:0:0:40:G#6H_Ab6H.wav
192,192,75342,1,8,0:0:0:40:
320,192,75342,1,0,0:0:0:40:F#6H_Gb6H.wav
448,192,75420,1,8,0:0:0:40:
192,192,75499,1,10,0:0:0:40:
64,192,75499,1,0,0:0:0:40:D#6H_Eb6H.wav
320,192,75578,1,8,0:0:0:40:
64,192,75656,1,8,0:0:0:40:
448,192,75656,1,0,0:0:0:0:
192,192,75735,1,8,0:0:0:40:
64,192,75813,1,4,0:0:0:40:
448,192,75813,1,2,0:0:0:40:
320,192,75813,1,0,0:0:0:0:
192,192,75970,128,0,76127:0:0:0:0:
320,192,76127,1,8,0:0:0:40:
64,192,76127,1,0,0:0:0:0:
448,192,76284,128,0,76441:0:0:0:0:
320,192,76441,1,2,0:0:0:40:
64,192,76441,128,0,76756:0:0:0:0:
320,192,76599,1,2,0:0:0:40:
448,192,76756,128,8,77070:0:0:0:40:
192,192,76756,1,0,0:0:0:0:
192,192,77070,128,2,77384:0:0:0:40:
320,192,77070,1,0,0:0:0:0:
320,192,77227,1,2,0:0:0:40:
448,192,77384,1,8,0:0:0:40:
64,192,77384,128,0,77698:0:0:0:0:
320,192,77698,1,2,0:0:0:40:
448,192,77698,1,0,0:0:0:0:
192,192,77803,1,8,0:0:0:40:
64,192,77803,1,0,0:0:0:0:
320,192,77907,1,8,0:0:0:40:
448,192,77907,1,0,0:0:0:0:
64,192,78012,1,8,0:0:0:40:
192,192,78012,1,0,0:0:0:0:
320,192,78117,1,8,1:0:0:40:
192,192,78222,1,8,1:0:0:40:
448,192,78326,1,4,0:0:0:40:
320,192,78326,1,2,0:0:0:40:
64,192,78326,128,0,78640:0:0:0:0:
448,192,78640,1,8,0:0:0:40:
320,192,78640,128,2,78955:0:0:0:40:
192,192,78876,1,2,1:0:0:40:
64,192,78955,1,0,0:0:0:0:
320,192,79112,1,2,0:0:0:40:
192,192,79112,1,0,0:0:0:0:
448,192,79269,1,8,0:0:0:40:
64,192,79269,1,4,0:0:0:40:
192,192,79269,128,0,79583:0:0:0:0:
448,192,79583,1,2,0:0:0:40:
320,192,79583,1,0,0:0:0:0:
192,192,79740,1,8,0:0:0:40:
64,192,79740,1,0,0:0:0:0:
320,192,79897,1,2,0:0:0:40:
448,192,79897,1,0,0:0:0:0:
320,192,80054,1,2,0:0:0:40:
448,192,80054,1,0,0:0:0:0:
192,192,80211,1,8,0:0:0:40:
64,192,80211,1,4,0:0:0:40:
448,192,80211,1,0,0:0:0:0:
192,192,80368,1,8,0:0:0:40:
320,192,80368,1,0,0:0:0:0:
64,192,80447,1,8,0:0:0:40:
320,192,80525,1,8,0:0:0:40:
448,192,80525,1,2,0:0:0:40:
192,192,80604,1,8,0:0:0:40:
64,192,80682,1,8,0:0:0:40:
448,192,80682,1,0,0:0:0:0:
320,192,80761,1,8,0:0:0:40:
192,192,80839,1,4,0:0:0:40:
448,192,80839,1,2,0:0:0:40:
64,192,80839,1,0,0:0:0:0:
192,192,81153,1,2,0:0:0:40:
448,192,81153,1,0,0:0:0:0:
320,192,81311,1,8,0:0:0:40:
64,192,81311,1,0,0:0:0:0:
192,192,81468,128,2,81625:0:0:0:40:
448,192,81468,1,0,0:0:0:0:
320,192,81625,128,2,81782:1:0:0:40:
64,192,81782,128,2,81939:0:0:0:40:
192,192,81782,1,0,0:0:0:0:
448,192,81939,128,8,82096:1:0:0:40:
320,192,82096,1,4,0:0:0:40:
64,192,82096,1,2,0:0:0:40:
192,192,82253,1,8,0:0:0:20:
320,192,82331,1,8,0:0:0:20:
64,192,82410,1,8,0:0:0:40:
192,192,82410,1,0,0:0:0:0:
320,192,82567,1,2,1:0:0:40:
192,192,82646,1,2,1:0:0:40:
448,192,82724,1,2,0:0:0:40:
64,192,82724,128,0,82881:0:0:0:0:
192,192,82881,128,8,83038:1:0:0:40:
64,192,83038,1,2,0:0:0:40:
448,192,83038,128,0,83195:0:0:0:0:
320,192,83195,128,4,83352:1:0:0:40:
64,192,83352,128,4,83981:0:0:0:40:
448,192,83352,1,2,0:0:0:40:
192,192,83352,1,0,0:0:0:0:
192,192,83981,128,4,84609:3:0:0:40:
320,192,84609,1,4,0:0:0:40:
64,192,84609,1,2,0:0:0:40:
448,192,84609,128,0,85237:0:0:0:0:
64,192,85237,128,0,85866:0:0:0:0:
320,192,85866,128,0,87750:0:0:0:20:F6H.wav
