osu file format v14

[General]
AudioFilename: audio.mp3
AudioLeadIn: 1000
PreviewTime: 43966
Countdown: 0
SampleSet: Soft
StackLeniency: 0.7
Mode: 0
LetterboxInBreaks: 0
WidescreenStoryboard: 1

[Editor]
Bookmarks: 36269
DistanceSpacing: 1.5
BeatDivisor: 4
GridSize: 4
TimelineZoom: 2.2

[Metadata]
Title:PINK LEMONADE
TitleUnicode:ピンクレモネード
Artist:Sangatsu no Phantasia
ArtistUnicode:三月のパンタシア
Creator:CPLs
Version:Insane
Source:ベルゼブブ嬢のお気に召すまま。
Tags:beelzebub jou no okinesu mama as miss like it aniplex lidenfilms 分島花音 やいり 堀江晶太
BeatmapID:1812500
BeatmapSetID:866991

[Difficulty]
HPDrainRate:6
CircleSize:4.3
OverallDifficulty:7.5
ApproachRate:9
SliderMultiplier:1
SliderTickRate:1

[Events]
//Background and Video events
Video,-556,"op4.mp4"
0,0,"bg.jpg",0,0
//Break Periods
//Storyboard Layer 0 (Background)
//Storyboard Layer 1 (Fail)
//Storyboard Layer 2 (Pass)
//Storyboard Layer 3 (Foreground)
//Storyboard Sound Samples

[TimingPoints]
2500,314.13612565445,4,2,1,40,1,0
7212,-58.8235294117647,4,2,1,50,0,0
12548,-100,4,2,1,30,0,0
21348,-76.9230769230769,4,2,1,55,0,0
22919,-76.9230769230769,4,2,2,60,0,0
32657,-76.9230769230769,4,2,1,60,0,0
32971,-76.9230769230769,4,2,2,60,0,0
35170,-76.9230769230769,4,2,1,60,0,0
37055,-76.9230769230769,4,2,2,60,0,0
37683,-76.9230769230769,4,2,1,60,0,0
38311,-76.9230769230769,4,2,2,60,0,0
40196,-76.9230769230769,4,2,1,60,0,0
41453,-76.9230769230769,4,2,2,60,0,0
45222,-66.6666666666667,4,2,1,70,0,1
45536,-66.6666666666667,4,2,2,70,0,1
48992,-66.6666666666667,4,2,2,50,0,1
50249,-66.6666666666667,4,2,2,70,0,1
54018,-66.6666666666667,4,2,2,50,0,1
54646,-66.6666666666667,4,2,1,70,0,1
54803,-66.6666666666667,4,2,2,70,0,1
55275,-66.6666666666667,4,2,1,70,0,1
55589,-66.6666666666667,4,2,2,70,0,1
57788,-66.6666666666667,4,2,1,70,0,1
58023,-66.6666666666667,4,2,2,70,0,1
58730,-66.6666666666667,4,2,1,70,0,1
59201,-66.6666666666667,4,2,2,70,0,1
60301,-66.6666666666667,4,2,1,70,0,1
60615,-66.6666666666667,4,2,2,70,0,1
65327,-66.6666666666667,4,2,1,70,0,1
65641,-66.6666666666667,4,2,2,70,0,1
69097,-66.6666666666667,4,2,2,50,0,1
70353,-66.6666666666667,4,2,2,70,0,1
74123,-66.6666666666667,4,2,2,50,0,1
74751,-66.6666666666667,4,2,1,70,0,1
74908,-66.6666666666667,4,2,2,70,0,1
75379,-66.6666666666667,4,2,1,70,0,1
75694,-66.6666666666667,4,2,2,70,0,1
80405,-76.9230769230769,4,2,1,70,0,0
82919,-100,4,2,1,65,0,0
84175,-100,4,2,2,65,0,0
87317,-100,4,2,1,20,0,0

[Colours]
Combo1 : 128,128,255
Combo2 : 255,255,170
Combo3 : 255,183,219
Combo4 : 125,190,255

[HitObjects]
79,198,2500,6,0,P|73:243|64:261,2,50,2|0|0,0:0|0:0|0:0,0:0:0:0:
148,119,2971,2,0,P|182:139|251:142,1,100,2|0,0:0|0:0,0:0:0:0:
338,131,3599,1,2,0:0:0:0:
338,131,3913,2,0,L|384:129,2,25,2|0|0,0:0|0:0|0:0,0:0:0:0:
338,131,4228,1,2,0:0:0:0:
395,319,4856,5,0,0:0:0:0:
395,319,5013,2,0,P|390:278|378:253,2,50,2|0|0,0:0|0:0|0:0,0:0:0:0:
292,297,5484,2,0,P|247:286|196:297,1,100,2|0,0:0|0:0,0:0:0:0:
95,329,6112,1,2,0:0:0:0:
95,329,6427,2,0,L|48:336,2,25,2|0|0,0:0|0:0|0:0,0:0:0:0:
95,329,6741,1,2,0:0:0:0:
95,329,7212,6,0,B|91:274|91:274|72:243|72:243|72:164,1,170.000003242493,2|4,0:0|0:0,0:0:0:0:
146,94,7683,2,0,L|234:87,1,85.0000016212464,0|8,0:0|0:0,0:0:0:0:
367,217,7997,2,0,L|279:224,1,85.0000016212464,0|8,0:0|0:0,0:0:0:0:
179,314,8311,2,0,L|172:226,1,85.0000016212464,0|8,0:0|0:0,0:0:0:0:
337,42,8625,2,0,L|344:130,1,85.0000016212464,0|10,0:0|0:0,0:0:0:0:
351,229,8940,1,0,0:0:0:0:
351,229,9018,1,0,0:0:0:0:
351,229,9097,1,8,0:0:0:0:
249,221,9254,6,0,B|196:221|180:179|180:179|167:222|107:222,1,170.000003242493,0|0,0:0|0:0,0:0:0:0:
186,321,9725,1,8,0:0:0:0:
95,101,9882,1,0,0:0:0:0:
262,103,10039,2,0,P|235:72|270:41,2,85.0000016212464,6|0|8,0:0|0:0|0:0,0:0:0:0:
363,105,10510,2,0,B|417:105|461:78|461:78|489:110|474:151,1,170.000003242493,0|0,0:0|0:0,0:0:0:0:
427,229,10981,1,8,0:0:0:0:
427,229,11060,1,0,0:0:0:0:
427,229,11139,1,0,0:0:0:0:
325,232,11296,6,0,B|288:257|288:257|214:235|214:235|175:263,1,170.000003242493,6|2,0:0|0:0,0:0:0:0:
276,110,11767,1,0,0:0:0:0:
276,110,11845,1,0,0:0:0:0:
276,110,11924,1,0,0:0:0:0:
355,269,12081,1,0,0:0:0:0:
159,268,12238,1,0,0:0:0:0:
159,268,12395,1,0,0:0:0:0:
268,203,12552,6,0,B|306:202|306:202|335:181|335:181|363:180,1,100,10|0,0:0|0:0,0:0:0:0:
455,225,13023,2,0,P|436:182|456:130,1,100,8|0,0:0|0:0,0:0:0:0:
364,75,13495,2,0,L|310:75,1,50,0|0,0:0|0:0,0:0:0:0:
289,75,13730,1,0,0:0:0:0:
263,75,13809,2,0,B|229:75|229:75|196:113|196:113|126:113|126:113,2,150,10|8|10,0:0|0:0|0:0,0:0:0:0:
275,172,14908,6,0,L|275:214,1,25,0|0,0:0|0:0,0:0:0:0:
275,249,15065,2,0,P|223:232|177:248,1,100,2|0,0:0|0:0,0:0:0:0:
230,330,15536,2,0,P|277:350|325:329,1,100,8|0,0:0|0:0,0:0:0:0:
395,277,16008,1,0,0:0:0:0:
395,277,16086,1,0,0:0:0:0:
395,277,16165,1,0,0:0:0:0:
303,225,16322,2,0,B|303:186|303:186|321:150|321:150|321:73,2,150,10|8|0,0:0|0:0|0:0,0:0:0:0:
194,112,17421,5,0,0:0:0:0:
194,112,17500,1,0,0:0:0:0:
194,112,17578,2,0,B|148:113|148:113|111:161|45:153,1,150,2|0,0:0|0:0,0:0:0:0:
192,209,18207,2,0,L|146:232,1,50,0|8,0:0|0:0,0:0:0:0:
155,336,18521,2,0,L|201:313,1,50,0|0,0:0|0:0,0:0:0:0:
289,260,18835,2,0,L|345:260,1,50,2|0,0:0|0:0,0:0:0:0:
400,344,19149,2,0,L|344:344,1,50,0|8,0:0|0:0,0:0:0:0:
425,261,19463,2,0,L|425:205,1,50,0|8,0:0|0:0,0:0:0:0:
343,127,19777,2,0,L|343:194,1,50,0|8,0:0|0:0,0:0:0:0:
213,231,20091,6,0,L|157:231,1,50,2|0,0:0|0:0,0:0:0:0:
100,324,20406,2,0,L|156:324,1,50,0|8,0:0|0:0,0:0:0:0:
72,179,20720,2,0,L|72:229,1,50,0|8,0:0|0:0,0:0:0:0:
173,167,21034,2,0,L|173:117,1,50,0|0,0:0|0:0,0:0:0:0:
367,78,21348,2,0,P|338:67|308:78,1,64.9999970245363,2|0,0:0|0:0,0:0:0:0:
141,248,21662,2,0,P|170:259|200:248,1,64.9999970245363,2|0,0:0|0:0,0:0:0:0:
366,191,21976,2,0,P|377:220|366:250,1,64.9999970245363,2|0,0:0|0:0,0:0:0:0:
352,280,22212,1,0,0:0:0:0:
323,294,22290,1,0,0:0:0:0:
293,307,22369,1,0,0:0:0:0:
260,307,22447,1,0,0:0:0:0:
227,307,22526,1,0,0:0:0:0:
194,307,22605,6,0,P|161:318|131:305,2,64.9999970245363,6|0|8,0:0|0:0|0:0,0:0:0:0:
162,214,23076,2,0,P|184:155|162:93,1,129.999994049073,0|0,0:0|0:0,0:0:0:0:
261,63,23547,2,0,P|281:102|307:117,1,64.9999970245363,8|0,0:0|0:0,0:0:0:0:
302,201,23861,2,0,P|271:210|248:233,2,64.9999970245363,2|0|8,0:0|0:0|0:0,0:0:0:0:
386,138,24332,2,0,B|386:157|386:157|409:186|409:186|409:269,1,129.999994049073,0|0,0:0|0:0,0:0:0:0:
315,343,24803,2,0,L|315:278,1,64.9999970245363,8|0,0:0|0:0,0:0:0:0:
264,177,25118,6,0,L|329:177,2,64.9999970245363,2|0|8,0:0|0:0|0:0,0:0:0:0:
206,255,25589,2,0,P|201:306|125:288,1,129.999994049073,0|0,0:0|0:0,0:0:0:0:
116,210,26060,2,0,L|67:161,1,64.9999970245363,8|0,0:0|0:0,0:0:0:0:
154,106,26374,2,0,L|108:60,2,64.9999970245363,2|0|8,0:0|0:0|0:0,0:0:0:0:
218,179,26845,2,0,P|277:151|334:177,1,129.999994049073,0|0,0:0|0:0,0:0:0:0:
277,259,27317,2,0,L|278:329,1,64.9999970245363,8|0,0:0|0:0,0:0:0:0:
172,98,27631,6,0,B|159:66|124:114|124:114|123:178,1,129.999994049073,2|8,0:0|0:0,0:0:0:0:
321,98,28102,2,0,B|333:66|368:114|368:114|369:178,1,129.999994049073,0|0,0:0|0:0,0:0:0:0:
216,181,28573,2,0,L|285:181,1,64.9999970245363,8|0,0:0|0:0,0:0:0:0:
312,277,28887,2,0,L|159:277,1,129.999994049073,2|8,0:0|0:0,0:0:0:0:
125,197,29358,1,0,0:0:0:0:
125,197,29437,1,0,0:0:0:0:
125,197,29516,2,0,L|125:128,1,64.9999970245363,0|0,0:0|0:0,0:0:0:0:
244,66,29830,2,0,L|244:135,1,64.9999970245363,8|0,0:0|0:0,0:0:0:0:
240,231,30144,6,0,B|275:232|275:232|308:260|308:260|371:260,1,129.999994049073,2|8,0:0|0:0,0:0:0:0:
235,324,30615,2,0,B|183:324|183:324|150:296|150:296|115:295,1,129.999994049073,0|0,0:0|0:0,0:0:0:0:
61,213,31086,1,8,0:0:0:0:
61,213,31165,1,0,0:0:0:0:
61,213,31243,1,0,0:0:0:0:
157,199,31400,2,0,L|232:199,1,64.9999970245363,2|0,0:0|0:0,0:0:0:0:
388,125,31714,6,0,L|388:193,1,64.9999970245363,8|0,0:0|0:0,0:0:0:0:
297,79,32029,2,0,L|297:147,1,64.9999970245363,8|0,0:0|0:0,0:0:0:0:
297,175,32264,1,8,0:0:0:0:
297,207,32343,1,8,0:0:0:0:
297,239,32421,1,8,0:0:0:0:
297,271,32500,2,0,L|299:305,2,32.4999985122681,8|8|4,0:0|0:0|0:0,0:0:0:0:
195,197,32814,1,0,0:0:0:0:
195,197,32892,1,0,0:0:0:0:
195,197,32971,6,0,L|128:197,1,64.9999970245363,2|0,0:0|0:0,0:0:0:0:
243,309,33285,2,0,L|310:309,1,64.9999970245363,0|0,0:0|0:0,0:0:0:0:
416,197,33599,2,0,L|351:197,1,64.9999970245363,2|0,0:0|0:0,0:0:0:0:
275,197,33913,2,0,L|276:132,1,64.9999970245363,0|0,0:0|0:0,0:0:0:0:
165,66,34228,2,0,L|164:131,1,64.9999970245363,2|8,0:0|0:0,0:0:0:0:
163,165,34463,1,0,0:0:0:0:
164,197,34542,2,0,B|125:197|125:197|105:174|105:174|33:173,1,129.999994049073,0|2,0:0|0:0,0:0:0:0:
340,291,35013,1,0,0:0:0:0:
340,291,35091,1,0,0:0:0:0:
340,291,35170,6,0,B|340:252|340:252|363:232|363:232|364:160,1,129.999994049073,4|2,0:0|0:0,0:0:0:0:
397,80,35641,2,0,L|329:80,1,64.9999970245363,0|0,0:0|0:0,0:0:0:0:
189,234,35955,2,0,L|257:234,1,64.9999970245363,0|2,0:0|0:0,0:0:0:0:
395,270,36269,2,0,L|395:205,1,64.9999970245363,0|0,0:0|0:0,0:0:0:0:
338,105,36584,1,0,0:0:0:0:
338,105,36662,1,0,0:0:0:0:
338,105,36741,1,2,0:0:0:0:
216,222,36898,1,0,0:0:0:0:
216,222,36976,1,0,0:0:0:0:
216,222,37055,2,0,L|271:225,2,43.3333313496908,8|8|8,0:0|0:0|0:0,0:0:0:0:
162,88,37369,2,0,L|217:91,2,43.3333313496908,8|0|0,0:0|0:0|0:0,0:0:0:0:
79,308,37683,5,4,0:0:0:0:
79,308,37840,2,0,P|104:264|108:179,1,129.999994049073,0|0,0:0|0:0,0:0:0:0:
178,116,38311,2,0,P|210:123|255:117,1,64.9999970245363,8|0,0:0|0:0,0:0:0:0:
363,237,38625,2,0,P|331:230|286:236,1,64.9999970245363,0|0,0:0|0:0,0:0:0:0:
171,235,38940,2,0,P|173:267|166:298,1,64.9999970245363,2|0,0:0|0:0,0:0:0:0:
362,61,39254,2,0,P|355:93|361:138,1,64.9999970245363,0|0,0:0|0:0,0:0:0:0:
441,238,39568,5,8,0:0:0:0:
441,238,39646,1,0,0:0:0:0:
441,238,39725,1,0,0:0:0:0:
264,317,39882,1,8,0:0:0:0:
264,317,39961,1,0,0:0:0:0:
264,317,40039,1,0,0:0:0:0:
288,101,40196,1,4,0:0:0:0:
288,101,41453,6,0,L|263:37,1,64.9999970245363,8|0,0:0|0:0,0:0:0:0:
426,131,41767,2,0,L|401:67,1,64.9999970245363,8|0,0:0|0:0,0:0:0:0:
219,209,42081,2,0,L|194:145,1,64.9999970245363,8|0,0:0|0:0,0:0:0:0:
334,191,42395,1,8,0:0:0:0:
346,221,42473,1,8,0:0:0:0:
358,251,42552,1,0,0:0:0:0:
370,281,42630,1,8,0:0:0:0:
382,311,42709,5,8,0:0:0:0:
230,216,42866,1,8,0:0:0:0:
426,146,43023,1,8,0:0:0:0:
389,323,43180,1,8,0:0:0:0:
222,220,43338,1,8,0:0:0:0:
435,141,43494,1,8,0:0:0:0:
399,337,43651,1,8,0:0:0:0:
399,337,43809,1,8,0:0:0:0:
257,111,43966,5,2,0:0:0:0:
257,78,44280,5,2,0:0:0:0:
256,44,44594,5,2,0:0:0:0:
259,189,44908,5,2,0:0:0:0:
266,213,44987,1,0,0:0:0:0:
265,240,45065,1,0,0:0:0:0:
254,263,45143,1,0,0:0:0:0:
238,279,45222,6,0,B|192:281|192:281|169:254|169:254|97:256,1,150.000005722046,6|8,0:0|0:0,0:0:0:0:
140,157,45694,1,0,0:0:0:0:
242,136,45851,2,0,L|320:125,1,75.0000028610231,0|0,0:0|0:0,0:0:0:0:
400,223,46165,2,0,L|322:234,1,75.0000028610231,8|0,0:0|0:0,0:0:0:0:
232,310,46479,2,0,L|221:232,1,75.0000028610231,2|0,0:0|0:0,0:0:0:0:
301,84,46793,2,0,L|312:162,1,75.0000028610231,8|0,0:0|0:0,0:0:0:0:
197,146,47107,2,0,L|122:156,1,75.0000028610231,0|0,0:0|0:0,0:0:0:0:
399,237,47421,2,0,L|325:248,1,75.0000028610231,8|0,0:0|0:0,0:0:0:0:
288,255,47657,1,0,0:0:0:0:
251,260,47735,6,0,B|238:214|238:214|199:178|199:178|188:126,1,150.000005722046,2|8,0:0|0:0,0:0:0:0:
301,117,48207,2,0,L|384:108,1,75.0000028610231,0|0,0:0|0:0,0:0:0:0:
475,213,48521,2,0,L|400:221,1,75.0000028610231,0|8,0:0|0:0,0:0:0:0:
288,231,48835,1,0,0:0:0:0:
188,129,48992,5,2,0:0:0:0:
139,139,49097,1,2,0:0:0:0:
91,153,49201,1,2,0:0:0:0:
291,166,49306,5,10,0:0:0:0:
340,156,49411,1,2,0:0:0:0:
388,142,49515,1,2,0:0:0:0:
228,262,49620,6,0,L|177:279,2,50.0000019073487,2|2|2,0:0|0:0|0:0,0:0:0:0:
350,291,49934,6,0,L|397:275,2,50.0000019073487,10|2|2,0:0|0:0|0:0,0:0:0:0:
421,82,50249,6,0,B|371:106|371:106|352:146|352:146|302:175,1,150.000005722046,2|8,0:0|0:0,0:0:0:0:
201,137,50720,1,0,0:0:0:0:
234,302,50877,2,0,L|179:235,1,75.0000028610231,0|0,0:0|0:0,0:0:0:0:
54,242,51191,2,0,L|101:299,1,75.0000028610231,8|0,0:0|0:0,0:0:0:0:
128,174,51505,2,0,L|195:119,1,75.0000028610231,2|0,0:0|0:0,0:0:0:0:
305,149,51819,2,0,L|247:196,1,75.0000028610231,8|0,0:0|0:0,0:0:0:0:
216,29,52133,2,0,L|271:96,1,75.0000028610231,0|0,0:0|0:0,0:0:0:0:
274,230,52447,2,0,L|219:163,1,75.0000028610231,8|0,0:0|0:0,0:0:0:0:
198,146,52683,1,0,0:0:0:0:
167,123,52762,6,0,P|118:139|116:62,1,150.000005722046,2|8,0:0|0:0,0:0:0:0:
220,32,53233,1,0,0:0:0:0:
265,134,53390,2,0,L|314:195,1,75.0000028610231,0|0,0:0|0:0,0:0:0:0:
208,235,53704,2,0,L|254:293,1,75.0000028610231,8|0,0:0|0:0,0:0:0:0:
363,274,54018,6,0,L|422:230,2,50.0000019073487,2|2|2,0:0|0:0|0:0,0:0:0:0:
374,114,54332,6,0,L|433:70,2,50.0000019073487,10|2|2,0:0|0:0|0:0,0:0:0:0:
288,179,54646,6,0,L|205:244,1,75.0000028610231,4|8,0:0|0:0,0:0:0:0:
198,247,54882,1,8,0:0:0:0:
163,262,54961,1,0,0:0:0:0:
126,269,55039,1,0,0:0:0:0:
88,263,55118,1,0,0:0:0:0:
54,246,55196,1,0,0:0:0:0:
54,246,55275,6,0,L|50:170,1,75.0000028610231,6|0,0:0|0:0,0:0:0:0:
170,74,55589,2,0,L|174:150,1,75.0000028610231,8|0,0:0|0:0,0:0:0:0:
162,281,55903,2,0,P|197:245|301:260,1,150.000005722046,0|8,0:0|0:0,0:0:0:0:
391,307,56374,1,0,0:0:0:0:
430,201,56531,2,0,L|430:115,1,75.0000028610231,2|0,0:0|0:0,0:0:0:0:
292,287,56845,2,0,L|292:201,1,75.0000028610231,8|0,0:0|0:0,0:0:0:0:
315,95,57159,5,8,0:0:0:0:
264,97,57264,1,8,0:0:0:0:
214,100,57369,1,8,0:0:0:0:
78,243,57474,5,8,0:0:0:0:
129,241,57579,1,8,0:0:0:0:
179,238,57684,1,8,0:0:0:0:
228,233,57788,6,0,P|236:288|206:348,1,112.500004291535,6|0,0:0|0:0,0:0:0:0:
273,217,58102,2,0,P|328:225|388:195,1,112.500004291535,8|0,0:0|0:0,0:0:0:0:
241,198,58416,2,0,P|233:143|263:83,1,112.500004291535,8|0,0:0|0:0,0:0:0:0:
279,63,58730,6,0,L|188:41,1,75.0000028610231,4|0,0:0|0:0,0:0:0:0:
127,126,59044,1,2,0:0:0:0:
60,251,59201,1,8,0:0:0:0:
202,231,59358,1,0,0:0:0:0:
238,224,59436,1,0,0:0:0:0:
275,218,59515,1,0,0:0:0:0:
312,212,59593,1,0,0:0:0:0:
351,207,59673,6,0,L|367:284,1,75.0000028610231,8|0,0:0|0:0,0:0:0:0:
455,187,59987,1,8,0:0:0:0:
449,149,60065,1,8,0:0:0:0:
443,112,60144,1,8,0:0:0:0:
437,75,60222,1,8,0:0:0:0:
430,39,60301,6,0,L|356:53,1,75.0000028610231,6|0,0:0|0:0,0:0:0:0:
296,164,60615,2,0,L|370:150,1,75.0000028610231,8|0,0:0|0:0,0:0:0:0:
220,85,60929,2,0,L|146:99,1,75.0000028610231,0|0,0:0|0:0,0:0:0:0:
80,216,61243,2,0,L|154:202,1,75.0000028610231,8|0,0:0|0:0,0:0:0:0:
265,187,61557,2,0,B|274:235|305:254|305:254|284:337,1,150.000005722046,2|8,0:0|0:0,0:0:0:0:
179,289,62029,1,0,0:0:0:0:
68,305,62186,6,0,P|65:267|52:232,1,75.0000028610231,0|0,0:0|0:0,0:0:0:0:
155,124,62500,2,0,P|158:162|171:197,1,75.0000028610231,8|0,0:0|0:0,0:0:0:0:
185,303,62814,2,0,P|223:300|258:287,1,75.0000028610231,10|0,0:0|0:0,0:0:0:0:
329,162,63128,2,0,P|291:165|256:178,1,75.0000028610231,8|0,0:0|0:0,0:0:0:0:
362,270,63442,2,0,P|400:267|435:254,1,75.0000028610231,8|0,0:0|0:0,0:0:0:0:
423,142,63756,6,0,B|449:107|449:107|348:75,1,150.000005722046,6|2,0:0|0:0,0:0:0:0:
208,54,64228,1,8,0:0:0:0:
257,179,64385,1,0,0:0:0:0:
359,78,64542,1,0,0:0:0:0:
201,54,64699,1,8,0:0:0:0:
255,188,64856,1,0,0:0:0:0:
247,224,64934,1,8,0:0:0:0:
238,260,65013,2,0,L|226:308,3,37.5000014305115,8|8|8|8,0:0|0:0|0:0|0:0,0:0:0:0:
218,333,65327,6,0,P|150:339|95:286,1,150.000005722046,6|8,0:0|0:0,0:0:0:0:
118,175,65798,1,0,0:0:0:0:
222,132,65955,2,0,B|273:122|273:122|295:143|295:143|372:129,1,150.000005722046,0|8,0:0|0:0,0:0:0:0:
470,99,66427,1,0,0:0:0:0:
443,208,66584,2,0,L|461:284,1,75.0000028610231,2|0,0:0|0:0,0:0:0:0:
343,243,66898,2,0,L|325:167,1,75.0000028610231,8|0,0:0|0:0,0:0:0:0:
397,116,67212,2,0,L|473:98,1,75.0000028610231,0|0,0:0|0:0,0:0:0:0:
310,79,67526,2,0,L|234:97,1,75.0000028610231,8|0,0:0|0:0,0:0:0:0:
200,105,67762,1,0,0:0:0:0:
163,113,67840,6,0,B|187:174|187:174|190:264,1,150.000005722046,2|8,0:0|0:0,0:0:0:0:
127,351,68311,1,0,0:0:0:0:
238,339,68468,2,0,L|324:314,1,75.0000028610231,0|0,0:0|0:0,0:0:0:0:
341,209,68783,2,0,L|268:229,1,75.0000028610231,8|0,0:0|0:0,0:0:0:0:
219,105,69097,6,0,L|196:47,2,50.0000019073487,2|2|2,0:0|0:0|0:0,0:0:0:0:
139,218,69411,6,0,L|120:171,2,50.0000019073487,10|2|2,0:0|0:0|0:0,0:0:0:0:
329,280,69725,5,2,0:0:0:0:
298,241,69829,1,2,0:0:0:0:
267,202,69934,1,2,0:0:0:0:
335,62,70039,5,10,0:0:0:0:
366,101,70144,1,2,0:0:0:0:
397,140,70248,1,2,0:0:0:0:
428,179,70353,6,0,P|455:247|429:319,1,150.000005722046,2|8,0:0|0:0,0:0:0:0:
338,252,70824,1,0,0:0:0:0:
225,261,70981,2,0,B|183:279|183:279|155:320|155:320|102:340,1,150.000005722046,0|8,0:0|0:0,0:0:0:0:
76,229,71453,1,0,0:0:0:0:
170,167,71610,2,0,L|243:148,1,75.0000028610231,2|0,0:0|0:0,0:0:0:0:
113,77,71924,2,0,L|40:96,1,75.0000028610231,8|0,0:0|0:0,0:0:0:0:
208,58,72238,2,0,L|281:39,1,75.0000028610231,0|0,0:0|0:0,0:0:0:0:
184,152,72552,2,0,L|203:225,1,75.0000028610231,8|0,0:0|0:0,0:0:0:0:
210,336,72866,6,0,B|245:303|288:324|288:324|300:255,1,150.000005722046,2|8,0:0|0:0,0:0:0:0:
307,146,73338,1,0,0:0:0:0:
400,208,73495,2,0,P|438:206|471:221,1,75.0000028610231,0|0,0:0|0:0,0:0:0:0:
382,104,73809,2,0,P|344:106|311:91,1,75.0000028610231,8|0,0:0|0:0,0:0:0:0:
302,243,74123,6,0,L|306:191,2,50.0000019073487,2|2|2,0:0|0:0|0:0,0:0:0:0:
181,314,74437,6,0,L|185:262,2,50.0000019073487,10|2|2,0:0|0:0|0:0,0:0:0:0:
60,280,74751,6,8,L|65:205,1,75.0000028610231,6|8,0:0|0:0,0:0:0:0:
71,168,74987,1,0,0:0:0:0:
76,131,75065,1,8,0:0:0:0:
80,93,75144,1,8,0:0:0:0:
85,56,75222,1,8,0:0:0:0:
89,18,75301,1,8,0:0:0:0:
89,18,75379,6,0,L|165:23,1,75.0000028610231,6|0,0:0|0:0,0:0:0:0:
304,122,75694,2,0,L|229:117,1,75.0000028610231,8|0,0:0|0:0,0:0:0:0:
138,110,76008,2,0,B|131:161|131:161|138:187|138:187|129:271,1,150.000005722046,0|8,0:0|0:0,0:0:0:0:
205,341,76479,1,0,0:0:0:0:
246,236,76636,2,0,L|327:240,1,75.0000028610231,2|0,0:0|0:0,0:0:0:0:
325,352,76950,2,0,L|406:356,1,75.0000028610231,8|0,0:0|0:0,0:0:0:0:
429,247,77264,2,0,L|431:193,2,50.0000019073487,8|8|8,0:0|0:0|0:0,0:0:0:0:
318,60,77578,1,8,0:0:0:0:
314,109,77682,1,8,0:0:0:0:
310,159,77787,1,0,0:0:0:0:
300,208,77892,6,0,P|235:206|190:172,1,112.500004291535,2|0,0:0|0:0,0:0:0:0:
336,207,78207,2,0,P|401:205|446:171,1,112.500004291535,2|0,0:0|0:0,0:0:0:0:
320,236,78520,2,0,P|318:301|284:346,1,112.500004291535,2|0,0:0|0:0,0:0:0:0:
251,338,78835,2,0,P|180:318|107:342,1,150.000005722046,6|2,0:0|0:0,0:0:0:0:
75,233,79306,2,0,L|61:156,1,75.0000028610231,8|0,0:0|0:0,0:0:0:0:
165,76,79620,2,0,L|178:149,1,75.0000028610231,0|8,0:0|0:0,0:0:0:0:
190,185,79856,1,0,0:0:0:0:
202,220,79934,1,0,0:0:0:0:
212,256,80013,1,8,0:0:0:0:
224,290,80091,2,0,L|238:326,3,37.5000014305115,8|8|8|8,0:0|0:0|0:0|0:0,0:0:0:0:
253,353,80406,6,0,P|317:335|380:353,1,129.999994049073,6|0,0:0|0:0,0:0:0:0:
425,266,80877,1,0,0:0:0:0:
338,221,81034,2,0,L|342:151,1,64.9999970245363,8|0,0:0|0:0,0:0:0:0:
438,166,81348,2,0,L|442:96,1,64.9999970245363,0|0,0:0|0:0,0:0:0:0:
354,58,81662,2,0,P|300:74|220:38,1,129.999994049073,4|0,0:0|0:0,0:0:0:0:
172,127,82133,1,0,0:0:0:0:
266,152,82290,2,0,L|260:228,1,64.9999970245363,8|0,0:0|0:0,0:0:0:0:
163,231,82605,2,0,L|157:307,1,64.9999970245363,0|0,0:0|0:0,0:0:0:0:
261,303,82919,6,0,P|336:325|402:304,1,150,4|0,0:0|0:0,0:0:0:0:
253,193,83547,2,0,P|178:171|112:192,1,150,2|0,0:0|0:0,0:0:0:0:
378,197,84175,2,0,L|401:47,1,150,4|0,0:0|0:0,0:0:0:0:
230,111,84803,2,0,L|207:261,1,150,2|0,0:0|0:0,0:0:0:0:
196,333,85432,1,2,0:0:0:0:
256,192,85510,12,0,87317,0:0:0:0:
