osu file format v14

[General]
AudioFilename: audio.mp3
AudioLeadIn: 0
PreviewTime: 44505
Countdown: 0
SampleSet: Soft
StackLeniency: 0.2
Mode: 0
LetterboxInBreaks: 0
WidescreenStoryboard: 0

[Editor]
Bookmarks: 3039,13092,23144,33197,45762,55814,65867,75919,85971,96024,106076,116129,128694,138746,148799,158851,168903,178956,189008,199060,209113,219165,234244,244296,254348,272038
DistanceSpacing: 1.2
BeatDivisor: 4
GridSize: 4
TimelineZoom: 1.7

[Metadata]
Title:Pink Lemonade
TitleUnicode:ピンクレモネード
Artist:Sangatsu no Phantasia
ArtistUnicode:三月のパンタシア
Creator:Andrea
Version:Sweetness~
Source:ベルゼブブ嬢のお気に召すまま。
Tags:Sekaii Sekai-nyan osuplayer111 Beelzebub-jou no Okinimesu mama As Miss Beelzebub Likes it opening full version anime japanese 分島花音 kanon wakeshima Shota Horie PENGUIN RESEARCH 堀江晶太 yairi やいり
BeatmapID:2637817
BeatmapSetID:1269321

[Difficulty]
HPDrainRate:7
CircleSize:4.4
OverallDifficulty:8
ApproachRate:9
SliderMultiplier:1.6
SliderTickRate:1

[Events]
//Background and Video events
0,0,"bgbgbgbg.jpg",0,0
//Break Periods
//Storyboard Layer 0 (Background)
//Storyboard Layer 1 (Fail)
//Storyboard Layer 2 (Pass)
//Storyboard Layer 3 (Foreground)
//Storyboard Layer 4 (Overlay)
//Storyboard Sound Samples

[TimingPoints]
3040,315.789473684211,4,2,1,50,1,0
3040,-133.333333333333,4,2,2,50,0,0
7776,290.556900726392,4,2,1,50,1,0
8066,314.13612565445,4,2,1,60,1,0
8066,-100,4,2,2,60,0,0
10579,-100,4,2,1,60,0,0
13092,-133.333333333333,4,2,1,50,0,0
23144,-100,4,2,1,60,0,0
44505,-100,4,2,2,60,0,0
45762,-100,4,2,1,80,0,1
65788,-100,4,2,1,80,0,0
65867,-100,4,2,1,80,0,1
85971,-100,4,2,2,60,0,0
89270,-100,4,2,2,40,0,0
89584,-100,4,2,2,45,0,0
89898,-100,4,2,2,50,0,0
90212,-100,4,2,2,55,0,0
90369,-100,4,2,2,60,0,0
96024,-100,4,2,1,60,0,0
116364,-100,4,2,1,5,0,0
116442,-100,4,2,1,60,0,0
116992,-100,4,2,1,5,0,0
117071,-100,4,2,1,60,0,0
118877,-100,4,2,1,5,0,0
118956,-100,4,2,1,60,0,0
119505,-100,4,2,1,5,0,0
119584,-100,4,2,1,60,0,0
128694,-100,4,2,1,80,0,1
148720,-100,4,2,1,80,0,0
148798,-100,4,2,1,80,0,1
168903,-100,4,2,1,60,0,0
173851,-100,4,2,1,5,0,0
173929,-100,4,2,1,60,0,0
174479,-100,4,2,1,5,0,0
174558,-100,4,2,1,60,0,0
176050,-100,4,2,1,5,0,0
176128,-100,4,2,1,60,0,0
211704,-100,4,2,1,40,0,0
212254,-100,4,2,1,30,0,0
212882,-100,4,2,1,20,0,0
213197,-100,4,2,1,10,0,0
213511,-100,4,2,1,5,0,0
214139,-133.333333333333,4,2,2,40,0,0
214453,-133.333333333333,4,2,2,5,0,0
214610,-133.333333333333,4,2,2,40,0,0
215081,-133.333333333333,4,2,2,5,0,0
215238,-133.333333333333,4,2,2,40,0,0
216966,-133.333333333333,4,2,2,5,0,0
217123,-133.333333333333,4,2,2,40,0,0
217909,-100,4,2,1,60,0,0
219165,-100,4,2,1,80,0,1
234165,-100,4,2,1,80,0,0
234244,-100,4,2,1,80,0,1
254348,-100,4,2,2,60,0,0
260631,315.789473684211,4,2,1,60,1,0
263157,352.941176470588,4,2,1,60,1,0
263509,322.58064516129,4,2,1,60,1,0
264046,521.739130434783,4,2,1,60,1,0
264698,319.148936170213,4,2,1,50,1,0
265655,-100,4,2,1,40,0,0
266932,-100,4,2,1,30,0,0
268208,-100,4,2,1,20,0,0
269485,-100,4,2,1,15,0,0
270761,-100,4,2,1,10,0,0
272038,-100,4,2,1,5,0,0

[Colours]
Combo1 : 181,150,233
Combo2 : 127,204,250
SliderBorder : 127,204,250
SliderTrackOverride : 181,150,233

[HitObjects]
168,104,3039,5,2,0:0:0:0:
213,32,3197,1,0,0:0:0:0:
299,32,3355,1,0,0:0:0:0:
344,104,3513,2,0,P|369:156|344:208,1,120.000004577637,2|2,0:0|0:0,0:0:0:0:
168,208,4145,6,0,P|143:156|168:104,1,120.000004577637,2|2,0:0|0:0,0:0:0:0:
167,104,4540,1,2,0:0:0:0:
167,104,4618,1,2,0:0:0:0:
256,156,4776,1,2,0:0:0:0:
256,344,5408,5,0,0:0:0:0:
204,280,5566,2,0,L|172:332,1,60.0000022888184,2|0,0:0|0:0,0:0:0:0:
340,331,5882,1,0,0:0:0:0:
340,331,6040,2,0,B|371:299|371:299|373:268|373:268|407:234,1,120.000004577637,2|2,0:0|0:0,0:0:0:0:
364,76,6671,6,0,B|332:107|332:107|330:138|330:138|296:172,1,120.000004577637,2|2,0:0|0:0,0:0:0:0:
298,169,7066,1,2,0:0:0:0:
298,169,7145,1,2,0:0:0:0:
213,169,7303,2,0,B|181:138|181:138|179:107|179:107|148:76,1,120.000004577637,2|0,0:0|0:0,0:0:0:0:
148,76,7697,1,0,0:0:0:0:
148,76,7776,1,8,3:0:0:0:
96,140,7921,1,0,0:0:0:0:
212,248,8066,5,4,0:0:0:0:
256,332,8223,1,0,0:0:0:0:
300,248,8380,1,0,0:0:0:0:
256,164,8537,2,0,B|224:88|280:88|256:8,1,160,2|2,0:0|0:0,0:0:0:0:
336,120,9008,1,0,0:1:0:0:
420,164,9165,6,0,B|452:240|396:240|420:320,1,160,2|2,0:0|0:0,0:0:0:0:
419,319,9558,1,2,0:0:0:0:
419,319,9636,1,2,0:0:0:0:
352,208,9793,2,0,B|288:208|288:208|252:188|252:188|192:188,1,160,2|0,0:0|0:0,0:0:0:0:
332,136,10264,2,0,B|372:136|372:136|408:156,1,80,8|0,0:3|0:0,0:0:0:0:
216,260,10579,6,0,B|176:260|176:260|140:240,1,80,4|0,0:0|0:0,0:0:0:0:
88,160,10893,1,2,0:0:0:0:
46,30,11050,1,0,0:0:0:0:
155,110,11207,1,2,0:0:0:0:
20,110,11364,1,0,0:0:0:0:
130,30,11521,2,0,B|170:30|170:30|202:54,1,80,2|0,0:0|0:0,0:0:0:0:
336,108,11835,6,0,P|404:72|472:108,1,160,4|8,0:0|0:0,0:0:0:0:
471,276,12306,2,0,P|403:312|336:276,1,160,8|8,0:3|0:3,0:0:0:0:
256,192,12778,1,8,0:3:0:0:
176,276,12935,1,4,0:3:0:0:
336,276,13092,6,0,P|352:220|336:162,1,120.000004577637,4|0,0:0|0:0,0:0:0:0:
256,192,13563,2,0,B|204:168|204:216|140:192,1,120.000004577637,8|0,0:1|0:0,0:0:0:0:
36,192,14034,2,0,L|56:128,1,60.0000022888184,0|0,0:0|0:0,0:0:0:0:
170,75,14348,6,0,L|138:199,1,120.000004577637,8|0,0:1|0:0,0:0:0:0:
112,276,14819,2,0,P|167:301|216:276,1,120.000004577637,8|0,0:1|0:0,0:0:0:0:
282,190,15291,2,0,B|256:184|256:184|224:192,1,60.0000022888184,0|0,0:0|0:0,0:0:0:0:
295,275,15605,6,0,P|347:301|400:276,1,120.000004577637,8|0,0:1|0:0,0:0:0:0:
398,190,16076,2,0,B|346:166|346:214|282:190,1,120.000004577637,8|0,0:1|0:0,0:0:0:0:
312,120,16547,2,0,L|272:64,1,60.0000022888184,0|0,0:0|0:0,0:0:0:0:
200,119,16861,6,0,P|175:171|201:224,1,120.000004577637,8|0,0:1|0:0,0:0:0:0:
311,224,17333,2,0,P|336:171|311:119,1,120.000004577637,8|0,0:1|0:0,0:0:0:0:
224,52,17804,2,0,B|256:44|256:44|282:50,1,60.0000022888184,0|0,0:0|0:0,0:0:0:0:
417,78,18118,6,0,B|374:86|374:86|354:110|354:110|311:119,1,120.000004577637,8|0,0:1|0:0,0:0:0:0:
201,119,18589,2,0,B|157:110|157:110|137:86|137:86|94:78,1,120.000004577637,8|0,0:1|0:0,0:0:0:0:
32,144,19060,2,0,L|96:156,1,60.0000022888184,0|0,0:0|0:0,0:0:0:0:
112,256,19374,6,0,P|165:281|217:256,1,120.000004577637,8|0,0:1|0:0,0:0:0:0:
295,256,19846,2,0,P|347:281|400:256,1,120.000004577637,8|0,0:1|0:0,0:0:0:0:
360,152,20317,2,0,L|348:212,1,60.0000022888184
276,172,20631,6,0,L|300:48,1,120.000004577637,8|0,0:1|0:0,0:0:0:0:
224,12,21102,2,0,L|201:129,1,120.000004577637,8|0,0:1|0:0,0:0:0:0:
136,60,21573,2,0,L|147:1,1,60.0000022888184,2|0,0:0|0:0,0:0:0:0:
118,150,21887,5,2,0:0:0:0:
298,54,22202,1,2,0:0:0:0:
394,234,22516,1,2,0:0:0:0:
214,330,22830,1,2,0:0:0:0:
164,241,22987,1,2,0:0:0:0:
118,150,23144,6,0,B|170:150|170:150|214:134|214:134|278:134,1,160,4|8,0:0|0:0,0:0:0:0:
388,192,23615,2,0,B|336:192|336:192|292:208|292:208|228:208,1,160,2|2,0:0|0:0,0:0:0:0:
152,76,24086,1,8,0:0:0:0:
256,16,24244,1,0,0:0:0:0:
360,76,24401,2,0,P|440:76|496:128,1,160,2|8,0:0|0:0,0:0:0:0:
440,216,24872,1,2,0:0:0:0:
440,216,25029,2,0,P|455:252|440:288,1,80,0|2,0:0|0:0,0:0:0:0:
344,360,25343,2,0,P|329:324|344:288,1,80,8|0,0:0|0:0,0:0:0:0:
167,287,25657,6,0,B|108:288|108:288|63:267|63:267|11:267,1,160,2|8,0:0|0:0,0:0:0:0:
12,164,26128,1,2,0:0:0:0:
84,88,26285,2,0,B|124:88|124:88|160:104,1,80,0|2,0:0|0:0,0:0:0:0:
256,148,26600,2,0,B|232:224|280:224|256:304,1,160,8|2,0:0|0:0,0:0:0:0:
324,188,27071,1,2,0:0:0:0:
184,260,27228,2,0,P|144:260|112:236,1,80,8|2,0:0|0:0,0:0:0:0:
324,188,27542,2,0,P|364:188|396:212,1,80,0|2,0:0|0:0,0:0:0:0:
376,296,27856,6,0,L|460:152,1,160,8|2,0:0|0:0,0:0:0:0:
372,96,28327,1,2,0:0:0:0:
324,188,28484,1,8,0:0:0:0:
276,96,28641,2,0,B|224:96|184:60|184:60|124:60,1,160,2|2,0:0|0:0,0:0:0:0:
8,96,29113,2,0,B|60:96|100:132|100:132|160:132,1,160,8|2,0:0|0:0,0:0:0:0:
256,192,29584,1,2,0:0:0:0:
320,272,29741,2,0,L|368:340,1,80,8|2,0:0|0:0,0:0:0:0:
192,272,30055,2,0,L|144:340,1,80,0|2,0:0|0:0,0:0:0:0:
256,192,30369,6,0,B|232:116|280:116|256:36,1,160,8|2,0:0|0:0,0:0:0:0:
324,152,30840,1,2,0:0:0:0:
184,76,30997,1,8,0:0:0:0:
324,152,31155,2,0,P|404:152|456:208,1,160,2|2,0:0|0:0,0:0:0:0:
396,344,31626,2,0,P|316:344|264:288,1,160,8|2,0:0|0:0,0:0:0:0:
208,200,32097,5,2,0:0:0:0:
158,46,32254,1,12,0:0:0:0:
108,200,32411,1,0,0:0:0:0:
238,105,32568,1,2,0:0:0:0:
77,105,32725,1,8,0:0:0:0:
94,73,32804,1,8,0:0:0:0:
121,49,32882,1,8,0:0:0:0:
158,46,32961,1,8,0:0:0:0:
194,49,33039,1,8,0:0:0:0:
221,73,33118,1,8,0:0:0:0:
238,105,33196,6,0,P|223:141|238:177,1,80,4|0,0:0|0:0,0:0:0:0:
352,264,33511,2,0,P|367:227|352:191,1,80,2|0,0:0|0:0,0:0:0:0:
238,177,33825,2,0,P|223:213|238:249,1,80,2|0,0:0|0:0,0:0:0:0:
352,190,34139,2,0,P|367:154|352:118,1,80,2|0,0:0|0:0,0:0:0:0:
238,177,34453,5,2,0:0:0:0:
115,107,34610,1,0,0:0:0:0:
212,81,34767,1,2,0:0:0:0:
141,203,34924,1,10,0:0:0:0:
212,81,35081,2,0,L|152:24,1,80,2|2,0:0|0:0,0:0:0:0:
141,203,35395,2,0,L|198:258,1,80,2|0,0:0|0:0,0:0:0:0:
405,154,35709,6,0,P|419:117|405:81,1,80,4|0,0:0|0:0,0:0:0:0:
212,81,36024,2,0,P|197:117|212:153,1,80,2|0,0:0|0:0,0:0:0:0:
345,34,36338,2,0,P|308:19|272:33,1,80,2|0,0:0|0:0,0:0:0:0:
273,202,36652,2,0,P|309:216|345:202,1,80,2|0,0:0|0:0,0:0:0:0:
208,348,36966,6,0,L|180:264,1,80,2|0,0:0|0:0,0:0:0:0:
72,264,37280,2,0,L|100:348,1,80,2|0,0:0|0:0,0:0:0:0:
160,200,37594,2,0,L|144:144,2,53.3333333333333,8|8|8,0:0|0:0|0:0,0:0:0:0:
60,188,37908,2,0,L|46:137,2,53.3333333333333,8|8|4,0:0|0:3|0:3,0:0:0:0:
52,56,38223,5,4,0:0:0:0:
52,56,38380,2,0,B|132:80|132:24|208:56,1,160,2|2,0:0|0:0,0:0:0:0:
301,148,38851,1,8,0:0:0:0:
301,148,39008,2,0,B|221:124|221:180|145:148,1,160,2|0,0:0|0:0,0:0:0:0:
324,324,39479,5,2,0:0:0:0:
324,324,39636,2,0,P|256:288|188:324,1,160,2|2,0:0|0:0,0:0:0:0:
326,251,40107,2,0,P|339:287|324:323,1,80,8|0,0:0|0:0,0:0:0:0:
188,323,40422,2,0,P|173:287|187:251,1,80,2|8,0:0|0:0,0:0:0:0:
256,200,40657,1,8,0:3:0:0:
256,200,40736,1,4,0:0:0:0:
256,200,41992,5,8,0:0:0:0:
200,27,42149,1,2,0:0:0:0:
346,134,42306,1,8,0:0:0:0:
165,134,42463,1,2,0:0:0:0:
312,27,42620,1,8,0:0:0:0:
256,200,42778,1,2,0:0:0:0:
165,134,42935,2,0,P|151:98|162:60,1,80,8|0,0:0|0:0,0:0:0:0:
341,60,43249,2,0,P|356:96|345:134,1,80,4|0,0:0|0:0,0:0:0:0:
192,335,43563,5,2,0:0:0:0:
256,224,43720,1,8,0:0:0:0:
320,335,43877,1,8,0:0:0:0:
171,346,44034,5,8,0:0:0:0:
256,200,44191,1,8,0:0:0:0:
340,346,44348,1,8,0:0:0:0:
151,346,44505,5,2,0:0:0:0:
359,346,44819,1,2,0:0:0:0:
256,160,45134,1,2,0:0:0:0:
151,346,45448,2,0,L|92:336,1,40,2|0,0:0|0:0,0:0:0:0:
76,248,45605,2,0,L|115:254,1,40,0|0,0:0|0:0,0:0:0:0:
60,172,45762,6,0,B|43:136|43:136|60:100,1,80,4|0,0:0|0:0,0:0:0:0:
184,20,46076,2,0,B|201:56|201:56|184:92,1,80,8|0,0:0|0:0,0:0:0:0:
328,92,46390,2,0,B|311:56|311:56|328:20,1,80,2|2,0:0|0:0,0:0:0:0:
452,100,46704,2,0,B|469:136|469:136|452:172,1,80,8|2,0:0|0:0,0:0:0:0:
328,304,47018,2,0,B|288:304|256:274|256:274|224:304|184:304,1,160,0|8,0:0|0:0,0:0:0:0:
328,220,47490,1,0,0:0:0:0:
256,108,47647,1,2,0:0:0:0:
184,220,47804,1,2,0:0:0:0:
256,80,47961,1,8,0:0:0:0:
328,220,48118,1,0,0:0:0:0:
256,52,48275,6,0,B|204:52|204:52|160:76|160:76|96:76,1,160,2|8,0:0|0:0,0:0:0:0:
32,192,48746,1,0,0:0:0:0:
102,308,48903,2,0,B|144:308|144:308|176:336,1,80,2|2,0:0|0:0,0:0:0:0:
256,284,49217,1,8,0:0:0:0:
256,284,49374,1,2,0:0:0:0:
339,333,49531,2,0,B|368:308|368:308|410:308,1,80,0|2,0:0|0:0,0:0:0:0:
412,212,49846,1,8,0:0:0:0:
460,64,50003,1,0,0:0:0:0:
334,155,50160,1,2,0:0:0:0:
489,155,50317,1,2,0:0:0:0:
364,64,50474,6,0,B|316:64|284:32|284:32|212:32,1,160,8|2,0:0|0:0,0:0:0:0:
140,96,50945,1,0,0:0:0:0:
64,156,51102,2,0,P|48:192|64:228,1,80,8|0,0:0|0:0,0:0:0:0:
172,348,51416,2,0,P|188:312|172:276,1,80,2|2,0:0|0:0,0:0:0:0:
339,276,51730,2,0,P|324:312|340:348,1,80,8|0,0:0|0:0,0:0:0:0:
416,348,52045,2,0,L|244:348,1,160,0|8,0:0|0:0,0:0:0:0:
196,272,52516,1,0,0:0:0:0:
316,272,52673,2,0,L|348:196,1,80,2|2,0:0|0:0,0:0:0:0:
164,198,52987,2,0,L|196:272,1,80,8|0,0:0|0:0,0:0:0:0:
256,164,53301,6,0,B|224:84|280:84|256:8,1,160,2|8,0:0|0:0,0:0:0:0:
324,116,53772,1,0,0:0:0:0:
184,48,53929,2,0,P|140:48|112:68,1,80,2|2,0:0|0:0,0:0:0:0:
63,227,54244,2,0,P|48:191|64:156,1,80,8|0,0:0|0:0,0:0:0:0:
111,315,54558,2,0,P|144:337|184:336,1,80,2|2,0:0|0:0,0:0:0:0:
256,272,54872,1,8,0:0:0:0:
329,336,55029,1,0,0:0:0:0:
400,272,55186,1,4,0:0:0:0:
400,112,55343,5,8,0:0:0:0:
372,100,55422,1,8,0:0:0:0:
344,88,55500,1,8,0:0:0:0:
316,76,55579,1,8,0:0:0:0:
288,64,55657,1,8,0:0:0:0:
260,52,55736,1,8,0:0:0:0:
232,40,55814,6,0,L|147:10,1,80,4|0,0:0|0:0,0:0:0:0:
40,81,56128,2,0,L|116:108,1,80,8|0,0:0|0:0,0:0:0:0:
216,228,56442,2,0,P|230:192|214:156,1,80,2|2,0:0|0:0,0:0:0:0:
116,276,56757,2,0,L|40:302,1,80,8|0,0:0|0:0,0:0:0:0:
208,336,57071,5,2,0:0:0:0:
216,228,57228,1,2,0:0:0:0:
116,276,57385,1,8,0:0:0:0:
208,336,57542,1,0,0:0:0:0:
216,228,57699,2,0,L|269:228,2,53.3333333333333,8|8|8,0:0|0:0|0:0,0:0:0:0:
336,308,58013,2,0,L|282:308,2,53.3333333333333,8|8|4,0:0|0:3|0:3,0:0:0:0:
368,228,58327,5,6,0:0:0:0:
256,52,58641,1,8,0:0:0:0:
144,228,58956,1,8,0:0:0:0:
368,228,59270,1,4,0:0:0:0:
144,228,59584,6,0,P|128:192|144:156,1,80,2|8,0:0|0:0,0:0:0:0:
291,80,59898,2,0,P|255:64|220:80,1,80,2|2,0:0|0:0,0:0:0:0:
367,156,60212,1,8,0:0:0:0:
398,180,60291,1,0,0:0:0:0:
406,218,60369,1,8,0:0:0:0:
388,253,60448,1,8,0:0:0:0:
351,267,60526,1,8,0:0:0:0:
314,255,60605,1,8,0:0:0:0:
294,221,60683,1,8,0:0:0:0:
300,183,60762,1,8,0:0:0:0:
330,157,60840,6,0,L|364:76,1,80,4|2,0:0|0:0,0:0:0:0:
388,253,61155,2,0,L|357:327,1,80,8|0,0:0|0:0,0:0:0:0:
398,180,61469,2,0,L|479:213,1,80,2|2,0:0|0:0,0:0:0:0:
314,255,61783,2,0,L|239:224,1,80,8|0,0:0|0:0,0:0:0:0:
112,120,62097,6,0,B|112:160|142:192|142:192|112:224|112:264,1,160,2|8,0:0|0:0,0:0:0:0:
36,192,62568,1,0,0:0:0:0:
183,120,62725,2,0,P|147:104|111:119,1,80,2|2,0:0|0:0,0:0:0:0:
111,264,63039,2,0,P|147:279|183:264,1,80,8|2,0:0|0:0,0:0:0:0:
344,192,63353,6,0,L|256:192,1,80,8|2,0:0|0:0,0:0:0:0:
431,107,63668,2,0,P|395:91|360:108,1,80,8|2,0:0|0:0,0:0:0:0:
491,228,63982,2,0,P|507:192|491:156,1,80,8|2,0:0|0:0,0:0:0:0:
359,275,64296,2,0,P|395:291|431:276,1,80,8|2,0:0|0:0,0:0:0:0:
220,188,64610,2,0,B|256:171|256:171|292:188,1,80,2|8,0:0|0:0,0:0:0:0:
256,264,64924,1,2,0:0:0:0:
188,108,65081,5,2,0:0:0:0:
217,81,65160,1,0,0:0:0:0:
255,72,65238,1,8,0:0:0:0:
294,81,65317,1,0,0:0:0:0:
323,107,65395,1,8,0:0:0:0:
352,136,65474,1,8,0:0:0:0:
388,151,65552,1,8,0:0:0:0:
427,149,65631,1,8,0:0:0:0:
461,128,65709,1,8,0:0:0:0:
481,93,65788,1,8,0:0:0:0:
472,52,65867,6,0,B|436:32|436:32|396:32,1,80,4|0,0:0|0:0,0:0:0:0:
294,81,66181,2,0,B|256:92|256:92|218:81,1,80,8|0,0:0|0:0,0:0:0:0:
115,32,66495,2,0,B|101:82|101:82|116:135|116:135|101:189,1,160,2|8,0:0|0:0,0:0:0:0:
40,136,66966,1,2,0:0:0:0:
40,136,67123,2,0,L|16:216,1,80,0|2,0:0|0:0,0:0:0:0:
180,88,67437,2,0,L|196:8,1,80,8|0,0:0|0:0,0:0:0:0:
332,88,67751,2,0,L|316:8,1,80,2|2,0:0|0:0,0:0:0:0:
472,136,68065,2,0,L|496:216,1,80,8|0,0:0|0:0,0:0:0:0:
324,300,68380,6,0,P|256:336|188:300,1,160,2|8,0:0|0:0,0:0:0:0:
256,232,68851,1,0,0:0:0:0:
168,192,69008,2,0,P|153:156|168:120,1,80,2|2,0:0|0:0,0:0:0:0:
343,119,69322,2,0,P|359:155|344:192,1,80,8|2,0:0|0:0,0:0:0:0:
220,244,69636,2,0,P|256:259|292:243,1,80,0|2,0:0|0:0,0:0:0:0:
292,68,69950,2,0,P|255:52|219:67,1,80,8|0,0:0|0:0,0:0:0:0:
168,148,70264,1,2,0:0:0:0:
256,192,70422,1,2,0:0:0:0:
344,148,70579,6,0,B|400:148|400:148|448:168|448:168|500:168,1,160,8|2,0:0|0:0,0:0:0:0:
500,72,71050,1,0,0:0:0:0:
384,224,71207,2,0,B|344:224|344:224|312:248,1,80,8|0,0:0|0:0,0:0:0:0:
220,344,71521,2,0,B|256:361|256:361|292:344,1,80,2|2,0:0|0:0,0:0:0:0:
200,248,71835,2,0,B|168:224|168:224|128:224,1,80,8|2,0:0|0:0,0:0:0:0:
96,304,72149,2,0,L|96:144,1,160,0|8,0:0|0:0,0:0:0:0:
96,48,72620,1,0,0:0:0:0:
256,48,72778,5,2,0:0:0:0:
208,196,72935,1,2,0:0:0:0:
333,105,73092,1,8,0:0:0:0:
178,105,73249,1,0,0:0:0:0:
304,196,73406,2,0,B|321:232|321:232|304:268,1,80,4|0,0:0|0:0,0:0:0:0:
194,345,73720,2,0,B|154:345|122:315|122:315|90:345|50:345,1,160,8|2,0:0|0:0,0:0:0:0:
186,265,74191,1,2,0:0:0:0:
58,265,74348,6,0,B|34:229|34:229|34:193,1,80,8|0,0:0|0:0,0:0:0:0:
186,265,74662,2,0,B|210:229|210:229|210:193,1,80,2|2,0:0|0:0,0:0:0:0:
66,113,74976,1,8,0:0:0:0:
122,193,75134,1,2,0:0:0:0:
178,113,75291,1,8,0:0:0:0:
122,33,75448,5,8,0:0:0:0:
159,18,75526,1,8,0:0:0:0:
198,9,75605,1,10,0:0:0:0:
237,8,75683,1,8,0:0:0:0:
277,9,75762,1,8,0:0:0:0:
316,18,75840,1,8,0:0:0:0:
353,32,75919,6,0,P|369:68|354:104,1,80,4|0,0:0|0:0,0:0:0:0:
220,188,76233,2,0,B|256:171|256:171|292:188,1,80,8|0,0:0|0:0,0:0:0:0:
157,103,76547,2,0,P|143:67|158:32,1,80,2|2,0:0|0:0,0:0:0:0:
353,32,76861,2,0,P|369:68|354:104,1,80,8|0,0:0|0:0,0:0:0:0:
220,188,77175,5,2,0:0:0:0:
290,259,77333,1,2,0:0:0:0:
361,188,77490,1,8,0:0:0:0:
290,117,77647,1,0,0:0:0:0:
290,259,77804,2,0,L|240:288,2,53.3333333333333,2|8|8,0:0|0:0|0:0,0:0:0:0:
173,214,78118,2,0,L|220:188,2,53.3333333333333,8|8|4,0:0|0:3|0:3,0:0:0:0:
96,264,78432,5,6,0:0:0:0:
184,32,78746,1,8,0:0:0:0:
416,120,79060,1,0,0:0:0:0:
328,352,79374,1,12,0:0:0:0:
96,264,79689,6,0,P|59:278|24:262,1,80,2|8,0:0|0:0,0:0:0:0:
24,121,80003,2,0,P|59:105|96:120,1,80,2|2,0:0|0:0,0:0:0:0:
172,192,80317,1,8,0:0:0:0:
192,225,80395,1,0,0:0:0:0:
230,236,80474,1,8,0:0:0:0:
266,221,80552,1,8,0:0:0:0:
284,186,80631,1,8,0:0:0:0:
274,148,80709,1,8,0:0:0:0:
243,125,80788,1,8,0:0:0:0:
204,128,80867,1,8,0:0:0:0:
176,155,80945,6,0,L|160:72,1,80,4|0,0:0|0:0,0:0:0:0:
266,221,81259,2,0,L|250:299,1,80,2|8,0:0|0:0,0:0:0:0:
274,148,81573,2,0,P|309:132|345:146,1,80,2|8,0:0|0:3,0:0:0:0:
192,225,81887,2,0,P|156:240|120:226,1,80,2|2,0:0|0:0,0:0:0:0:
328,344,82202,6,0,B|288:344|256:314|256:314|224:344|184:344,1,160,4|8,0:0|0:0,0:0:0:0:
256,220,82673,1,0,0:3:0:0:
328,344,82830,2,0,P|342:307|326:272,1,80,2|4,0:0|0:3,0:0:0:0:
185,272,83144,2,0,P|169:307|184:344,1,80,2|0,0:0|0:0,0:0:0:0:
256,220,83458,5,4,0:0:0:0:
256,40,84086,1,2,0:0:0:0:
256,220,84558,5,2,0:0:0:0:
256,220,84636,1,2,0:0:0:0:
256,220,84715,2,0,L|256:140,1,80,12|2,0:0|0:0,0:0:0:0:
160,9,85029,1,2,0:0:0:0:
256,140,85186,1,8,0:0:0:0:
102,90,85343,1,2,0:0:0:0:
256,40,85500,1,2,0:0:0:0:
160,171,85657,2,0,L|160:251,1,80,8|0,0:0|0:0,0:0:0:0:
352,251,85971,6,0,L|352:171,1,80,12|0,0:0|0:0,0:0:0:0:
256,92,86285,1,2,0:0:0:0:
160,171,86442,2,0,B|96:171|96:171|56:195|56:195|4:195,1,160,8|2,0:0|0:0,0:0:0:0:
120,256,86914,1,0,0:0:0:0:
120,256,87071,2,0,B|184:256|184:256|224:232|224:232|276:232,1,160,2|2,0:0|0:0,0:0:0:0:
273,232,87463,1,2,0:0:0:0:
273,232,87542,1,2,0:0:0:0:
324,88,87699,2,0,P|256:52|189:88,1,160,2|0,0:0|0:0,0:0:0:0:
156,180,88170,2,0,P|141:216|156:252,1,80
355,252,88484,6,0,P|371:216|356:180,1,80,12|0,0:0|0:0,0:0:0:0:
256,136,88798,1,0,0:0:0:0:
256,136,88956,2,0,B|224:208|280:208|256:292,1,160,12|8,0:0|0:0,0:0:0:0:
324,180,89427,1,8,0:0:0:0:
188,252,89584,1,8,0:0:0:0:
116,116,89741,1,8,0:0:0:0:
252,44,89898,1,8,0:0:0:0:
324,180,90055,1,8,0:0:0:0:
188,252,90212,1,8,0:0:0:0:
116,116,90369,5,8,0:0:0:0:
76,110,90448,1,8,0:0:0:0:
39,123,90526,1,8,0:0:0:0:
12,153,90605,1,8,0:0:0:0:
4,192,90683,1,8,0:0:0:0:
12,231,90762,1,8,0:0:0:0:
39,261,90840,1,8,0:0:0:0:
76,274,90919,1,8,0:0:0:0:
116,268,90997,6,0,P|157:273|188:252,1,80,4|0,0:0|0:0,0:0:0:0:
256,164,91312,1,8,0:0:0:0:
325,252,91469,2,0,B|372:251|396:223|396:223|476:223,1,160,2|2,0:0|0:0,0:0:0:0:
496,143,91940,1,8,0:0:0:0:
496,143,92097,2,0,L|496:311,1,160,2|2,0:0|0:0,0:0:0:0:
496,303,92490,1,2,0:0:0:0:
496,303,92568,1,8,0:0:0:0:
376,360,92725,1,2,0:0:0:0:
376,360,92804,1,0,0:0:0:0:
376,360,92882,6,0,B|336:360|336:360|300:336,1,80,0|2,0:0|0:0,0:0:0:0:
136,360,93196,2,0,B|176:360|176:360|212:336,1,80,8|0,0:0|0:0,0:0:0:0:
256,192,93511,1,2,0:0:0:0:
304,44,93668,1,0,0:0:0:0:
178,135,93825,1,8,0:0:0:0:
333,135,93982,1,0,0:0:0:0:
208,44,94139,2,0,P|168:44|132:64,1,80,2|0,0:0|0:0,0:0:0:0:
333,135,94453,2,0,P|373:135|409:115,1,80,8|0,0:0|0:0,0:0:0:0:
256,192,94767,6,0,B|232:264|284:264|256:348,1,160,2|12,0:0|0:0,0:0:0:0:
324,232,95238,1,0,0:0:0:0:
188,304,95395,1,8,0:0:0:0:
112,172,95552,1,8,0:0:0:0:
120,133,95631,1,8,0:0:0:0:
143,100,95709,1,8,0:0:0:0:
177,79,95788,1,8,0:0:0:0:
216,73,95867,1,8,0:0:0:0:
255,83,95945,1,8,0:0:0:0:
287,107,96024,6,0,B|327:107|359:137|359:137|391:107|431:107,1,160,4|8,0:0|0:0,0:0:0:0:
292,204,96495,2,0,P|359:239|427:203,1,160,2|2,0:0|0:0,0:0:0:0:
287,107,96966,2,0,L|184:124,1,80,8|0,0:0|0:0,0:0:0:0:
135,235,97280,2,0,L|295:203,1,160,2|8,0:0|0:0,0:0:0:0:
248,336,97751,2,0,L|91:367,1,160,2|2,0:0|0:0,0:0:0:0:
135,235,98223,2,0,P|120:199|135:163,1,80,8|0,0:0|0:0,0:0:0:0:
184,32,98537,6,0,B|224:32|256:62|256:62|288:32|328:32,1,160,2|8,0:0|0:0,0:0:0:0:
464,124,99008,2,0,B|424:124|392:94|392:94|360:124|320:124,1,160,2|2,0:0|0:0,0:0:0:0:
192,124,99479,2,0,P|176:160|191:196,1,80,8|0,0:0|0:0,0:0:0:0:
340,280,99793,2,0,B|256:256|256:312|184:280,1,160,2|8,0:0|0:0,0:0:0:0:
256,196,100264,2,0,B|288:268|232:268|256:352,1,160,2|2,0:0|0:0,0:0:0:0:
340,280,100736,2,0,B|357:244|357:244|340:208,1,80,8|0,0:0|0:0,0:0:0:0:
220,128,101050,6,0,B|256:111|256:111|292:128,1,80,2|0,0:0|0:0,0:0:0:0:
172,208,101364,2,0,B|155:244|155:244|172:280,1,80,8|2,0:0|0:0,0:0:0:0:
292,352,101678,2,0,B|256:369|256:369|220:352,1,80,0|2,0:0|0:0,0:0:0:0:
256,252,101992,1,8,0:0:0:0:
292,352,102149,1,0,0:0:0:0:
172,280,102306,6,0,B|120:280|120:280|76:296|76:296|12:296,1,160,2|8,0:0|0:0,0:0:0:0:
134,368,102778,2,0,B|195:368|195:368|239:352|239:352|292:352,1,160,2|2,0:0|0:0,0:0:0:0:
361,235,103249,2,0,B|378:271|378:271|361:307,1,80,8|0,0:0|0:0,0:0:0:0:
220,176,103563,2,0,B|256:159|256:159|292:176,1,80,2|2,0:0|0:0,0:0:0:0:
151,307,103877,2,0,B|134:271|134:271|151:235,1,80,8|2,0:0|0:0,0:0:0:0:
185,103,104191,2,0,L|220:176,1,80,0|2,0:0|0:0,0:0:0:0:
327,103,104505,2,0,L|292:176,1,80,8|0,0:0|0:0,0:0:0:0:
256,376,104819,5,2,0:0:0:0:
181,306,104976,1,2,0:0:0:0:
256,236,105134,1,8,0:0:0:0:
331,306,105291,1,2,0:0:0:0:
181,306,105448,2,0,P|166:269|182:234,1,80,8|2,0:0|0:0,0:0:0:0:
256,144,105762,1,8,0:0:0:0:
329,234,105919,1,8,0:0:0:0:
329,234,105997,1,8,0:0:0:0:
329,234,106076,6,0,P|345:269|331:306,1,80,4|2,0:0|0:0,0:0:0:0:
256,376,106390,1,8,0:0:0:0:
181,306,106547,2,0,P|101:306|50:245,1,160,2|2,0:0|0:0,0:0:0:0:
172,160,107018,2,0,L|136:236,1,80,8|0,0:0|0:0,0:0:0:0:
256,112,107333,2,0,L|256:28,1,80,2|2,0:0|0:0,0:0:0:0:
340,160,107647,2,0,L|376:236,1,80,8|2,0:0|0:0,0:0:0:0:
188,360,107961,5,0,0:0:0:0:
256,276,108118,1,2,0:0:0:0:
324,360,108275,2,0,B|384:360|384:360|416:340|416:340|480:340,1,160,8|2,0:0|0:0,0:0:0:0:
512,243,108746,1,2,0:0:0:0:
512,141,108903,1,8,0:0:0:0:
478,44,109060,2,0,B|416:44|416:44|384:24|384:24|324:24,1,160,2|2,0:0|0:0,0:0:0:0:
220,124,109531,6,0,P|256:139|292:124,1,80,8|0,0:0|0:0,0:0:0:0:
188,24,109846,2,0,P|151:8|115:23,1,80,2|2,0:0|0:0,0:0:0:0:
12,124,110160,2,0,P|48:139|84:124,1,80,8|2,0:0|0:0,0:0:0:0:
188,24,110474,1,0,0:0:0:0:
292,124,110631,1,2,0:0:0:0:
396,24,110788,6,0,B|426:75|426:75|457:90|457:90|493:152,1,160,8|2,0:0|0:0,0:0:0:0:
397,148,111259,1,2,0:0:0:0:
397,148,111416,1,8,0:0:0:0:
492,272,111573,2,0,B|462:220|462:220|430:205|430:205|394:143,1,160,2|2,0:0|0:0,0:0:0:0:
412,280,112045,2,0,L|448:352,1,80,8|0,0:0|0:0,0:0:0:0:
292,304,112359,2,0,L|256:232,1,80,2|2,0:0|0:0,0:0:0:0:
216,144,112673,6,0,B|168:144|132:104|132:104|64:104,1,160,8|0,0:0|0:0,0:0:0:0:
68,200,113144,1,2,0:0:0:0:
212,68,113301,2,0,B|248:48|248:48|288:48,1,80,8|0,0:0|0:0,0:0:0:0:
352,172,113615,2,0,B|328:244|376:244|352:328,1,160,2|8,0:0|0:0,0:0:0:0:
160,328,114086,2,0,B|136:244|184:244|160:172,1,160,2|0,0:0|0:0,0:0:0:0:
312,80,114558,1,8,0:0:0:0:
200,80,114715,1,0,0:0:0:0:
352,172,114872,6,0,B|369:208|369:208|352:244,1,80,4|2,0:0|0:0,0:0:0:0:
160,244,115186,2,0,B|143:208|143:208|160:172,1,80,8|0,0:0|0:0,0:0:0:0:
220,124,115422,1,8,0:0:0:0:
220,124,115500,2,0,B|256:107|256:107|292:124,1,80,8|8,0:0|0:0,0:0:0:0:
256,212,115814,1,8,0:0:0:0:
168,60,115971,1,8,0:0:0:0:
344,60,116128,6,0,P|399:41|455:60,1,120,4|0,0:0|0:0,0:0:0:0:
484,132,116442,2,0,P|498:168|484:204,1,80,2|0,0:0|0:0,0:0:0:0:
290,273,116757,2,0,P|309:218|290:162,1,120,8|0,0:0|0:0,0:0:0:0:
219,127,117071,2,0,P|206:91|220:55,1,80,2|0,0:0|0:0,0:0:0:0:
220,128,117385,5,2,0:0:0:0:
239,219,117542,1,0,0:0:0:0:
148,237,117699,1,2,0:0:0:0:
129,147,117856,1,0,0:0:0:0:
239,219,118013,2,0,P|253:256|238:292,1,80,8|0,0:0|0:0,0:0:0:0:
220,128,118327,2,0,L|299:110,1,80,2|0,0:0|0:0,0:0:0:0:
366,190,118641,6,0,B|390:246|390:246|366:302,1,120,2|0,0:0|0:0,0:0:0:0:
292,324,118956,2,0,B|256:341|256:341|220:324,1,80,2|0,0:0|0:0,0:0:0:0:
146,190,119270,2,0,B|122:246|122:246|146:302,1,120,8|0,0:0|0:0,0:0:0:0:
145,300,119584,1,2,0:0:0:0:
256,252,119741,1,4,0:3:0:0:
256,252,119819,1,4,0:3:0:0:
256,252,119898,5,4,0:0:0:0:
152,108,120212,1,2,0:0:0:0:
360,108,120526,2,0,L|380:48,2,53.3333333333333,2|8|8,0:0|0:0|0:3,0:0:0:0:
428,172,120840,2,0,L|444:121,2,53.3333333333333,8|4|4,0:3|0:3|0:3,0:0:0:0:
336,192,121155,5,4,0:0:0:0:
336,192,121312,2,0,B|336:232|306:264|306:264|336:296|336:336,1,160,2|2,0:0|0:0,0:0:0:0:
176,336,121783,1,8,0:0:0:0:
176,336,121940,2,0,B|176:296|206:264|206:264|176:232|176:192,1,160,2|0,0:0|0:0,0:0:0:0:
324,112,122411,5,2,0:0:0:0:
324,112,122568,2,0,P|256:76|188:112,1,160,2|2,0:0|0:0,0:0:0:0:
322,184,123039,2,0,P|337:147|323:111,1,80,12|0,0:0|0:0,0:0:0:0:
188,111,123353,2,0,P|174:147|189:184,1,80,2|2,0:0|0:0,0:0:0:0:
256,232,123589,1,0,0:0:0:0:
256,232,123668,1,4,0:0:0:0:
256,232,124296,6,0,L|300:256,1,40,2|8,0:0|0:0,0:0:0:0:
352,284,124453,2,0,L|396:308,1,40,8|8,0:0|0:3,0:0:0:0:
352,368,124610,2,0,L|308:344,1,40
256,316,124767,2,0,L|212:292,1,40,2|0,0:0|0:0,0:0:0:0:
195,229,124924,5,8,0:0:0:0:
99,98,125081,1,2,0:0:0:0:
253,148,125238,1,8,0:0:0:0:
99,198,125395,1,2,0:0:0:0:
195,67,125552,2,0,B|231:50|231:50|267:67,1,80,8|2,0:0|0:0,0:0:0:0:
400,120,125867,2,0,B|364:137|364:137|328:120,1,80,8|0,0:0|0:0,0:0:0:0:
200,312,126181,5,4,0:0:0:0:
256,198,126338,1,0,0:0:0:0:
312,312,126495,1,2,0:0:0:0:
188,324,126652,5,8,0:0:0:0:
256,180,126809,1,8,0:0:0:0:
324,324,126966,1,8,0:0:0:0:
176,336,127123,5,8,0:0:0:0:
256,162,127280,1,8,0:0:0:0:
336,336,127437,1,4,0:0:0:0:
167,136,127751,1,4,0:0:0:0:
167,136,128065,6,0,L|152:88,1,40,8|8,0:0|0:0,0:0:0:0:
80,156,128223,2,0,L|91:194,1,40,8|8,0:0|0:0,0:0:0:0:
200,248,128380,2,0,L|185:200,1,40,8|8,0:0|0:0,0:0:0:0:
120,284,128537,2,0,L|131:322,1,40,8|8,0:0|0:0,0:0:0:0:
220,328,128694,6,0,P|256:342|292:326,1,80,4|0,0:0|0:0,0:0:0:0:
390,227,129008,2,0,P|405:192|392:156,1,80,8|0,0:0|0:0,0:0:0:0:
291,57,129322,2,0,P|256:42|220:56,1,80,2|2,0:0|0:0,0:0:0:0:
120,155,129636,2,0,P|106:192|121:227,1,80,8|2,0:0|0:0,0:0:0:0:
220,276,129950,6,0,B|272:276|272:276|316:296|316:296|376:296,1,160,0|8,0:0|0:0,0:0:0:0:
252,352,130422,1,0,0:0:0:0:
332,220,130579,2,0,B|372:220|372:220|408:196,1,80,2|2,0:0|0:0,0:0:0:0:
360,44,130893,2,0,B|320:44|320:44|284:68,1,80,8|0,0:0|0:0,0:0:0:0:
164,128,131207,2,0,B|84:104|84:156|8:124,1,160,2|8,0:0|0:0,0:0:0:0:
8,260,131678,1,0,0:0:0:0:
8,260,131835,6,0,B|84:228|84:280|164:256,1,160,2|8,0:0|0:0,0:0:0:0:
56,328,132306,1,2,0:0:0:0:
124,188,132463,1,0,0:0:0:0:
272,240,132620,1,2,0:0:0:0:
204,380,132778,2,0,P|164:380|132:356,1,80,8|0,0:0|0:0,0:0:0:0:
200,217,133092,2,0,P|240:217|272:241,1,80,2|2,0:0|0:0,0:0:0:0:
352,328,133406,6,0,B|396:328|424:296|424:296|504:296,1,160,8|2,0:0|0:0,0:0:0:0:
502,191,133877,1,0,0:0:0:0:
502,88,134034,2,0,P|466:74|430:90,1,80,8|0,0:0|0:0,0:0:0:0:
326,192,134348,2,0,P|362:206|398:190,1,80,2|2,0:0|0:0,0:0:0:0:
292,88,134662,2,0,P|256:74|220:90,1,80,8|0,0:0|0:0,0:0:0:0:
186,192,134976,6,0,B|186:240|186:240|204:284|204:284|204:348,1,160,0|8,0:0|0:0,0:0:0:0:
308,348,135448,1,0,0:0:0:0:
128,336,135605,2,0,B|128:296|128:296|108:260,1,80,2|2,0:0|0:0,0:0:0:0:
264,192,135919,2,0,B|264:232|264:232|284:268,1,80,8|0,0:0|0:0,0:0:0:0:
396,272,136233,1,2,0:0:0:0:
476,192,136390,1,0,0:0:0:0:
396,112,136547,6,0,P|316:112|256:64,1,160,8|2,0:0|0:0,0:0:0:0:
160,4,137018,1,2,0:0:0:0:
84,88,137175,1,8,0:0:0:0:
179,147,137333,1,0,0:0:0:0:
255,63,137490,2,0,P|317:112|396:112,1,160,2|8,0:0|0:0,0:0:0:0:
448,12,137961,1,0,0:0:0:0:
504,108,138118,1,8,0:0:0:0:
504,276,138275,5,8,0:0:0:0:
476,288,138353,1,8,0:0:0:0:
448,300,138432,1,8,0:0:0:0:
420,312,138511,1,8,0:0:0:0:
392,324,138589,1,8,0:0:0:0:
364,336,138668,1,8,0:0:0:0:
336,348,138746,6,0,P|300:363|264:349,1,80,4|0,0:0|0:0,0:0:0:0:
184,240,139060,2,0,P|219:224|255:238,1,80,8|0,0:0|0:0,0:0:0:0:
156,344,139374,2,0,P|120:359|84:345,1,80,2|2,0:0|0:0,0:0:0:0:
0,244,139689,2,0,P|35:228|71:242,1,80,8|0,0:0|0:0,0:0:0:0:
202,137,140003,5,2,0:0:0:0:
184,240,140160,1,2,0:0:0:0:
96,164,140317,2,0,L|40:104,1,80,8|0,0:0|0:0,0:0:0:0:
202,137,140631,2,0,L|244:180,2,53.3333333333333,2|8|8,0:0|0:0|0:0,0:0:0:0:
332,152,140945,2,0,L|294:113,2,53.3333333333333,8|4|2,0:3|0:3|0:0,0:0:0:0:
392,212,141259,5,4,0:0:0:0:
236,328,141573,1,8,0:0:0:0:
120,172,141887,1,8,0:0:0:0:
276,56,142202,1,4,0:0:0:0:
276,56,142516,6,0,P|312:40|348:56,1,80,2|8,0:0|0:0,0:0:0:0:
352,176,142830,2,0,P|316:192|280:176,1,80,2|2,0:0|0:0,0:0:0:0:
204,56,143144,2,0,P|240:40|276:56,1,80,8|0,0:0|0:0,0:0:0:0:
280,176,143458,2,0,P|245:191|209:176,1,80,2|2,0:0|0:0,0:0:0:0:
184,376,143772,6,0,B|224:376|256:346|256:346|288:376|328:376,1,160,4|8,0:0|0:0,0:0:0:0:
256,260,144244,1,0,0:0:0:0:
184,376,144401,2,0,P|168:340|184:304,1,80,2|2,0:0|0:0,0:0:0:0:
328,304,144715,2,0,P|343:340|328:376,1,80,8|0,0:0|0:0,0:0:0:0:
255,260,145029,6,0,B|279:176|223:176|255:104,1,160,2|8,0:0|0:0,0:0:0:0:
188,228,145500,1,0,0:0:0:0:
320,140,145657,2,0,P|356:124|392:140,1,80,2|2,0:0|0:0,0:0:0:0:
391,244,145971,2,0,P|355:259|320:244,1,80,8|2,0:0|0:0,0:0:0:0:
192,140,146285,6,0,P|156:124|120:140,1,80,8|2,0:0|0:0,0:0:0:0:
120,244,146600,2,0,P|156:259|191:244,1,80,8|2,0:0|0:0,0:0:0:0:
320,140,146914,2,0,B|337:104|337:104|320:68,1,80,8|2,0:0|0:0,0:0:0:0:
192,68,147228,2,0,B|175:104|175:104|192:140,1,80,8|2,0:0|0:0,0:0:0:0:
292,224,147542,2,0,B|256:241|256:241|220:224,1,80,2|8,0:0|0:0,0:0:0:0:
320,140,147856,1,2,0:0:0:0:
192,140,148013,1,2,0:0:0:0:
348,280,148170,5,8,0:0:0:0:
347,319,148249,1,0,0:0:0:0:
327,354,148327,1,8,0:0:0:0:
294,375,148406,1,8,0:0:0:0:
256,380,148484,1,8,0:0:0:0:
218,375,148563,1,8,0:0:0:0:
185,354,148641,1,8,0:0:0:0:
165,319,148720,1,8,0:0:0:0:
164,280,148798,6,0,P|148:245|162:209,1,80,4|0,0:0|0:0,0:0:0:0:
349,208,149113,2,0,P|364:244|348:280,1,80,8|0,0:0|0:0,0:0:0:0:
220,149,149427,2,0,P|255:133|292:148,1,80,2|2,0:0|0:0,0:0:0:0:
356,56,149741,1,8,0:0:0:0:
256,8,149898,1,2,0:0:0:0:
156,56,150055,2,0,B|100:56|100:56|52:80|52:80|0:80,1,160,0|8,0:0|0:0,0:0:0:0:
120,128,150526,1,0,0:0:0:0:
120,128,150683,2,0,B|160:128|160:128|196:152,1,80,2|2,0:0|0:0,0:0:0:0:
392,128,150997,2,0,B|352:128|352:128|318:150,1,80,8|0,0:0|0:0,0:0:0:0:
256,224,151312,6,0,B|232:296|280:296|256:380,1,160,2|8,0:0|0:0,0:0:0:0:
328,264,151783,1,0,0:0:0:0:
328,264,151940,2,0,B|412:288|412:240|484:264,1,160,2|8,0:0|0:0,0:0:0:0:
372,196,152411,1,2,0:0:0:0:
452,336,152568,2,0,B|416:360|416:360|380:360,1,80,0|2,0:0|0:0,0:0:0:0:
220,292,152882,2,0,B|256:275|256:275|292:292,1,80,8|0,0:0|0:0,0:0:0:0:
132,360,153196,2,0,B|96:360|96:360|60:336,1,80,2|2,0:0|0:0,0:0:0:0:
60,224,153511,6,0,P|96:156|60:88,1,160,8|2,0:0|0:0,0:0:0:0:
144,16,153982,1,0,0:0:0:0:
292,88,154139,2,0,P|255:102|220:86,1,80,8|0,0:0|0:0,0:0:0:0:
368,16,154453,2,0,L|408:88,1,80,2|2,0:0|0:0,0:0:0:0:
392,240,154767,2,0,L|352:168,1,80,8|2,0:0|0:0,0:0:0:0:
256,292,155081,2,0,P|176:292|124:228,1,160,0|8,0:0|0:0,0:0:0:0:
240,144,155552,1,0,0:0:0:0:
240,144,155709,2,0,L|208:224,1,80,2|2,0:0|0:0,0:0:0:0:
156,108,156024,2,0,L|188:28,1,80,8|0,0:0|0:0,0:0:0:0:
327,33,156338,6,0,P|407:33|463:85,1,160,4|8,0:0|0:0,0:0:0:0:
492,192,156809,1,0,0:0:0:0:
492,192,156966,2,0,B|509:228|509:228|492:264,1,80,2|2,0:0|0:0,0:0:0:0:
392,360,157280,2,0,B|375:324|375:324|392:288,1,80,8|0,0:0|0:0,0:0:0:0:
328,164,157594,2,0,B|256:128|256:128|184:164,1,160,2|8,0:0|0:0,0:0:0:0:
256,252,158065,1,0,0:0:0:0:
184,163,158223,5,10,0:0:0:0:
151,143,158301,1,8,0:0:0:0:
112,148,158380,1,8,0:0:0:0:
86,178,158458,1,8,0:0:0:0:
85,217,158537,1,10,0:0:0:0:
110,248,158615,1,8,0:0:0:0:
148,256,158694,1,8,0:0:0:0:
182,237,158772,1,8,0:0:0:0:
197,200,158851,6,0,L|280:192,1,80,4|0,0:0|0:0,0:0:0:0:
356,280,159165,2,0,P|371:244|357:208,1,80,8|0,0:0|0:0,0:0:0:0:
276,304,159479,2,0,L|196:311,1,80,2|2,0:0|0:0,0:0:0:0:
200,180,159793,2,0,L|283:172,1,80,8|0,0:0|0:0,0:0:0:0:
477,207,160107,5,2,0:0:0:0:
380,182,160264,1,2,0:0:0:0:
356,280,160422,1,8,0:0:0:0:
453,303,160579,1,0,0:0:0:0:
380,182,160736,2,0,L|408:132,2,53.3333333333333,2|8|8,0:0|0:0|0:3,0:0:0:0:
344,68,161050,2,0,L|317:114,2,53.3333333333333,8|4|2,0:3|0:3|0:0,0:0:0:0:
256,48,161364,5,4,0:0:0:0:
112,192,161678,1,8,0:0:0:0:
256,336,161992,1,0,0:0:0:0:
400,192,162306,1,12,0:0:0:0:
400,192,162620,6,0,B|400:236|400:236|368:268,1,80,2|8,0:0|0:0,0:0:0:0:
220,340,162935,2,0,B|256:323|256:323|292:340,1,80,2|2,0:0|0:0,0:0:0:0:
137,261,163249,1,8,0:0:0:0:
98,262,163327,1,0,0:0:0:0:
67,237,163406,1,8,0:0:0:0:
60,199,163484,1,8,0:0:0:0:
79,165,163563,1,10,0:0:0:0:
115,151,163641,1,8,0:0:0:0:
152,164,163720,1,8,0:0:0:0:
172,197,163798,1,8,0:0:0:0:
165,236,163877,6,0,P|200:251|236:237,1,80,4|0,0:0|0:0,0:0:0:0:
347,148,164191,2,0,P|311:132|275:146,1,80,8|0,0:0|0:0,0:0:0:0:
237,236,164505,2,0,P|272:251|308:237,1,80,2|2,0:0|0:0,0:0:0:0:
418,150,164819,2,0,P|382:134|346:148,1,80,8|0,0:0|0:0,0:0:0:0:
236,237,165134,6,0,B|180:237|180:237|132:261|132:261|80:261,1,160,2|8,0:0|0:0,0:0:0:0:
200,312,165605,1,0,0:0:0:0:
108,188,165762,2,0,L|28:188,1,80,2|2,0:0|0:0,0:0:0:0:
200,312,166076,2,0,L|280:312,1,80,8|0,0:0|0:0,0:0:0:0:
368,264,166390,6,0,B|404:192|404:192|368:120,1,160,2|8,0:0|0:0,0:0:0:0:
292,192,166861,1,0,0:0:0:0:
440,304,167018,2,0,L|476:224,1,80,2|2,0:0|0:0,0:0:0:0:
440,80,167333,2,0,L|476:160,1,80,8|0,0:0|0:0,0:0:0:0:
292,192,167647,5,2,0:0:0:0:
161,288,167804,1,8,0:0:0:0:
211,134,167961,1,2,0:0:0:0:
261,288,168118,1,8,0:0:0:0:
130,192,168275,5,8,0:0:0:0:
97,214,168353,1,8,0:0:0:0:
58,211,168432,1,8,0:0:0:0:
30,184,168511,1,8,0:0:0:0:
26,145,168589,1,8,0:0:0:0:
48,112,168668,1,8,0:0:0:0:
85,101,168746,1,8,0:0:0:0:
121,116,168825,1,8,0:0:0:0:
139,151,168903,6,0,B|179:151|179:151|211:175,1,80,4|2,0:0|0:0,0:0:0:0:
256,260,169217,1,8,0:0:0:0:
301,175,169374,2,0,B|361:175|361:175|401:191|401:191|457:191,1,160,0|2,0:0|0:0,0:0:0:0:
420,264,169846,2,0,B|380:264|380:264|344:246,1,80,8|0,0:0|0:0,0:0:0:0:
344,104,170160,2,0,B|384:104|384:104|424:124,1,80,2|2,0:0|0:0,0:0:0:0:
301,175,170474,1,8,0:0:0:0:
256,260,170631,1,0,0:0:0:0:
211,175,170788,6,0,P|195:140|210:103,1,80,2|2,0:0|0:0,0:0:0:0:
291,22,171102,2,0,P|255:7|220:24,1,80,8|0,0:0|0:0,0:0:0:0:
301,175,171416,2,0,P|317:140|302:103,1,80,2|2,0:0|0:0,0:0:0:0:
211,175,171730,1,8,0:0:0:0:
301,175,171887,6,0,P|381:175|433:231,1,160,0|2,0:0|0:0,0:0:0:0:
316,316,172359,2,0,L|352:240,1,80,8|0,0:0|0:0,0:0:0:0:
196,316,172673,2,0,L|160:240,1,80,2|2,0:0|0:0,0:0:0:0:
308,280,172987,2,0,L|344:204,1,80,8|0,0:0|0:0,0:0:0:0:
204,280,173301,2,0,L|168:204,1,80,2|2,0:0|0:0,0:0:0:0:
256,44,173615,6,0,B|240:100|272:100|256:168,1,120,8|0,0:0|0:0,0:0:0:0:
257,162,173929,1,2,0:0:0:0:
324,76,174086,1,0,0:0:0:0:
324,76,174244,2,0,B|386:90|386:58|442:74,1,120,8|0,0:0|0:0,0:0:0:0:
442,74,174558,1,2,0:0:0:0:
352,4,174715,1,0,0:0:0:0:
420,148,174872,6,0,P|434:184|418:219,1,80,8|0,0:0|0:0,0:0:0:0:
336,336,175186,2,0,P|321:299|337:264,1,80,2|2,0:0|0:0,0:0:0:0:
174,264,175500,2,0,P|190:299|176:336,1,80,8|2,0:0|0:0,0:0:0:0:
54,264,175814,2,0,L|178:264,1,120,2|0,0:0|0:0,0:0:0:0:
256,264,176128,1,12,0:0:0:0:
256,264,176285,1,2,0:0:0:0:
352,168,176442,6,0,B|369:132|369:132|352:96,1,80,12|2,0:0|0:0,0:0:0:0:
208,24,176757,1,2,0:0:0:0:
304,24,176914,1,12,0:0:0:0:
160,96,177071,2,0,B|143:132|143:132|160:168,1,80,0|2,0:0|0:0,0:0:0:0:
292,244,177385,6,0,B|256:261|256:261|220:244,1,80,12|2,0:0|0:0,0:0:0:0:
256,84,177699,1,2,0:0:0:0:
256,180,177856,1,12,0:0:0:0:
351,95,178013,2,0,B|368:59|368:59|351:23,1,80,0|2,0:0|0:0,0:0:0:0:
161,23,178327,6,0,B|144:59|144:59|161:95,1,80,8|8,0:0|0:0,0:0:0:0:
176,120,178563,1,8,0:0:0:0:
192,144,178641,1,8,0:0:0:0:
208,168,178720,1,8,0:0:0:0:
224,192,178798,1,8,0:0:0:0:
240,216,178877,1,8,0:0:0:0:
256,240,178956,6,0,B|168:264|168:212|100:240,1,160,4|8,0:0|0:0,0:0:0:0:
256,320,179427,1,0,0:0:0:0:
256,320,179584,2,0,B|344:344|344:292|412:320,1,160,2|8,0:0|0:0,0:0:0:0:
328,132,180055,1,0,0:0:0:0:
328,132,180212,6,0,B|288:132|256:162|256:162|224:132|184:132,1,160,2|8,0:0|0:0,0:0:0:0:
324,260,180683,1,0,0:0:0:0:
324,260,180840,2,0,P|256:296|188:260,1,160,2|8,0:0|0:0,0:0:0:0:
380,192,181312,1,0,0:0:0:0:
380,192,181469,6,0,P|416:260|380:328,1,160,2|8,0:0|0:0,0:0:0:0:
312,124,181940,1,0,0:0:0:0:
312,124,182097,2,0,P|380:88|448:124,1,160,2|8,0:0|0:0,0:0:0:0:
380,192,182568,1,0,0:0:0:0:
312,124,182725,6,0,P|276:108|240:123,1,80,2|2,0:0|0:0,0:0:0:0:
312,260,183039,2,0,P|276:275|240:260,1,80,12|0,0:0|0:0,0:0:0:0:
160,148,183353,1,8,0:0:0:0:
129,123,183432,1,8,0:0:0:0:
90,124,183511,1,8,0:0:0:0:
60,149,183589,1,8,0:0:0:0:
52,187,183668,1,8,0:0:0:0:
71,222,183746,1,8,0:0:0:0:
107,236,183825,1,8,0:0:0:0:
145,225,183903,1,8,0:0:0:0:
166,192,183982,6,0,L|256:192,1,80,4|2,0:0|0:0,0:0:0:0:
384,123,184296,2,0,B|348:106|348:106|312:123,1,80,8|0,0:0|0:0,0:0:0:0:
312,261,184610,2,0,B|348:278|348:278|384:261,1,80,2|2,0:0|0:0,0:0:0:0:
464,156,184924,2,0,B|481:192|481:192|464:228,1,80,8|0,0:0|0:0,0:0:0:0:
312,261,185238,6,0,L|300:341,1,80,2|2,0:0|0:0,0:0:0:0:
188,360,185552,2,0,L|200:280,1,80,8|0,0:0|0:0,0:0:0:0:
92,200,185867,2,0,P|128:185|163:201,1,80,2|2,0:0|0:0,0:0:0:0:
56,280,186181,2,0,L|44:360,1,80,8|0,0:0|0:0,0:0:0:0:
92,200,186495,6,0,P|76:164|90:128,1,80,2|2,0:0|0:0,0:0:0:0:
186,22,186809,2,0,P|201:57|187:93,1,80,12|0,0:0|0:0,0:0:0:0:
20,198,187123,2,0,P|55:213|91:199,1,80,2|2,0:0|0:0,0:0:0:0:
188,94,187437,2,0,P|152:78|116:92,1,80,12|0,0:0|0:0,0:0:0:0:
168,188,187751,6,0,B|256:212|256:160|324:188,1,160,4|2,0:0|0:0,0:0:0:0:
442,78,188223,1,8,0:0:0:0:
412,237,188380,1,10,0:0:0:0:
343,90,188537,1,10,0:0:0:0:
485,168,188694,1,10,0:0:0:0:
324,188,188851,1,8,0:0:0:0:
442,78,189008,6,0,P|384:16|312:16,1,160,4|2,0:0|0:0,0:0:0:0:
256,92,189479,1,0,0:0:0:0:
198,15,189636,2,0,P|120:19|70:78,1,160,2|2,0:0|0:0,0:0:0:0:
72,176,190107,2,0,P|122:234|200:238,1,160,8|0,0:0|0:0,0:0:0:0:
312,238,190579,1,2,0:0:0:0:
256,316,190736,1,8,0:0:0:0:
256,160,190893,2,0,B|256:104|256:104|284:64|284:64|284:8,1,160,2|2,0:0|0:0,0:0:0:0:
340,136,191364,1,2,0:0:0:0:
340,136,191442,1,2,0:0:0:0:
340,136,191521,6,0,B|340:176|340:176|364:208,1,80,4|0,0:0|0:0,0:0:0:0:
148,208,191835,2,0,B|172:176|172:176|172:136,1,80,2|0,0:0|0:0,0:0:0:0:
256,32,192149,2,0,L|256:192,1,160,2|2,0:0|0:0,0:0:0:0:
184,288,192620,2,0,B|224:288|256:318|256:318|288:288|328:288,1,160,8|0,0:0|0:0,0:0:0:0:
256,192,193092,2,0,L|256:108,1,80,2|8,0:0|0:0,0:0:0:0:
176,60,193406,2,0,P|92:60|40:116,1,160,2|2,0:0|0:0,0:0:0:0:
96,192,193877,1,8,0:0:0:0:
41,272,194034,6,0,P|98:326|176:324,1,160,4|2,0:0|0:0,0:0:0:0:
256,272,194505,1,0,0:0:0:0:
336,324,194662,2,0,P|413:326|470:272,1,160,2|2,0:0|0:0,0:0:0:0:
416,192,195134,1,8,0:0:0:0:
356,116,195291,2,0,B|339:80|339:80|356:44,1,80,2|0,0:0|0:0,0:0:0:0:
156,44,195605,2,0,B|173:80|173:80|156:116,1,80,2|8,0:0|0:0,0:0:0:0:
292,176,195919,2,0,B|256:193|256:193|220:176,1,80,2|0,0:0|0:0,0:0:0:0:
356,43,196233,1,2,0:0:0:0:
256,112,196390,1,2,0:0:0:0:
256,112,196469,1,2,0:0:0:0:
256,112,196547,6,0,L|256:272,1,160,4|2,0:0|0:0,0:0:0:0:
256,368,197018,1,0,0:0:0:0:
176,268,197175,2,0,P|136:268|100:244,1,80,2|8,0:0|0:0,0:0:0:0:
102,136,197490,2,0,P|136:115|176:116,1,80,2|0,0:0|0:0,0:0:0:0:
256,192,197804,2,0,B|328:168|328:220|412:192,1,160,2|4,0:0|0:0,0:0:0:0:
296,260,198275,1,0,0:0:0:0:
364,124,198432,2,0,L|388:72,2,53.3333333333333,2|8|8,0:0|0:0|0:3,0:0:0:0:
292,92,198746,2,0,L|316:40,2,53.3333333333333,8|4|2,0:3|0:3|0:0,0:0:0:0:
220,60,199060,5,4,0:0:0:0:
364,124,199217,1,2,0:0:0:0:
220,60,199374,2,0,P|206:96|222:131,1,80,0|2,0:0|0:0,0:0:0:0:
361,195,199689,2,0,P|376:159|363:123,1,80,8|2,0:0|0:0,0:0:0:0:
340,296,200003,1,0,0:0:0:0:
256,224,200160,1,0,0:0:0:0:
361,195,200317,6,0,L|436:220,1,80,2|2,0:0|0:0,0:0:0:0:
415,321,200631,2,0,L|340:296,1,80,0|2,0:0|0:0,0:0:0:0:
220,208,200945,2,0,B|256:191|256:191|292:208,1,80,8|2,0:0|0:0,0:0:0:0:
172,296,201259,2,0,L|97:321,1,80,0|0,0:0|0:0,0:0:0:0:
176,148,201573,6,0,P|160:112|173:76,1,80,2|2,0:0|0:0,0:0:0:0:
304,4,201887,1,0,0:0:0:0:
208,4,202045,1,2,0:0:0:0:
338,76,202202,2,0,P|351:112|336:148,1,80,8|2,0:0|0:0,0:0:0:0:
220,212,202516,2,0,B|256:229|256:229|292:212,1,80,0|0,0:0|0:0,0:0:0:0:
184,284,202830,6,0,B|256:320|256:320|328:284,1,160,2|0,0:0|0:0,0:0:0:0:
256,196,203301,1,2,0:0:0:0:
184,284,203458,2,0,L|132:256,1,40,8|0,0:0|0:0,0:0:0:0:
56,300,203615,2,0,L|91:318,1,40,8|8,0:0|0:0,0:0:0:0:
64,224,203772,2,0,L|28:205,1,40,8|8,0:0|0:0,0:0:0:0:
124,168,203929,2,0,L|159:186,1,40,8|8,0:0|0:0,0:0:0:0:
184,88,204086,6,0,B|256:112|256:60|340:88,1,160,4|8,0:0|0:0,0:0:0:0:
480,192,204558,1,0,0:0:0:0:
480,192,204715,2,0,B|396:164|396:216|324:192,1,160,2|8,0:0|0:0,0:0:0:0:
184,288,205186,1,0,0:0:0:0:
184,288,205343,6,0,B|224:288|256:318|256:318|288:288|328:288,1,160,2|8,0:0|0:0,0:0:0:0:
256,192,205814,1,0,0:0:0:0:
256,192,205971,2,0,B|284:108|232:108|256:36,1,160,2|8,0:0|0:0,0:0:0:0:
176,148,206442,1,0,0:0:0:0:
176,148,206600,6,0,B|176:204|176:204|148:244|148:244|148:300,1,160,2|8,0:0|0:0,0:0:0:0:
364,300,207071,1,0,0:0:0:0:
364,300,207228,2,0,B|364:244|364:244|336:204|336:204|336:148,1,160,2|8,0:0|0:0,0:0:0:0:
184,56,207699,1,0,0:0:0:0:
184,56,207856,2,0,B|256:20|256:20|328:56,1,160,2|8,0:0|0:0,0:0:0:0:
256,148,208327,1,0,0:0:0:0:
327,55,208484,2,0,P|340:91|324:126,1,80,2|2,0:0|0:0,0:0:0:0:
187,126,208798,2,0,P|171:91|185:55,1,80,8|2,0:0|0:0,0:0:0:0:
256,148,209113,6,0,B|256:176|256:176|252:180|252:180|260:180|260:180|256:184|256:184|256:228,1,80,8|2,0:0|0:0,0:0:0:0:
256,328,209427,1,2,0:0:0:0:
356,192,209584,2,0,B|356:220|356:220|352:224|352:224|360:224|360:224|356:228|356:228|356:272,1,80,8|2,0:0|0:0,0:0:0:0:
356,372,209898,1,2,0:0:0:0:
156,372,210055,2,0,P|116:372|84:348,1,80,8|0,0:0|0:0,0:0:0:0:
28,252,210369,6,0,L|-4:192,2,53.3333333333333,8|8|8,0:0|0:0|0:0,0:0:0:0:
76,184,210683,2,0,L|44:124,2,53.3333333333333,8|8|8,0:0|0:0|0:0,0:0:0:0:
131,120,210997,2,0,L|105:72,2,53.3333333333333,8|0|8,0:0|0:3|0:3,0:0:0:0:
179,52,211312,2,0,L|153:4,2,53.3333333333333,4|4|2,0:3|0:3|0:0,0:0:0:0:
220,120,211626,1,4,0:0:0:0:
256,192,211704,12,0,213511,0:0:0:0:
220,120,214139,6,0,P|304:92|388:120,1,180.000006866455,2|0,0:0|0:0,0:0:0:0:
388,204,214767,2,0,P|304:231|220:203,1,180.000006866455,2|0,0:0|0:0,0:0:0:0:
144,164,215395,1,2,0:0:0:0:
72,316,215709,1,0,0:0:0:0:
228,376,216024,1,2,0:0:0:0:
300,224,216338,1,0,0:0:0:0:
144,164,216652,2,0,B|144:100|144:100|180:56|180:56|180:-8,1,180.000006866455,2|0,0:0|0:0,0:0:0:0:
256,36,217280,1,2,0:0:0:0:
256,348,217751,5,8,0:0:0:0:
256,348,217830,1,8,0:0:0:0:
256,348,217908,1,10,0:0:0:0:
116,192,218065,1,10,0:0:0:0:
396,192,218537,5,10,0:0:0:0:
256,36,218694,1,10,0:0:0:0:
256,348,219165,6,0,P|220:364|184:350,1,80,4|0,0:0|0:0,0:0:0:0:
72,336,219479,2,0,L|132:272,1,80,8|0,0:0|0:0,0:0:0:0:
92,168,219793,2,0,L|37:226,1,80,2|2,0:0|0:0,0:0:0:0:
184,196,220107,2,0,P|220:180|256:194,1,80,8|0,0:0|0:0,0:0:0:0:
344,248,220422,5,0,0:0:0:0:
255,193,220579,1,2,0:0:0:0:
344,136,220736,2,0,B|380:119|380:119|416:136,1,80,8|0,0:0|0:0,0:0:0:0:
416,248,221050,2,0,B|380:265|380:265|344:248,1,80,2|2,0:0|0:0,0:0:0:0:
255,193,221364,1,8,0:0:0:0:
344,248,221521,1,0,0:0:0:0:
344,136,221678,6,0,P|360:100|346:64,1,80,2|0,0:0|0:0,0:0:0:0:
208,0,221992,1,8,0:0:0:0:
304,0,222149,1,0,0:0:0:0:
165,64,222306,2,0,P|152:100|168:136,1,80,2|2,0:0|0:0,0:0:0:0:
256,260,222620,2,0,L|256:176,1,80,8|2,0:0|0:0,0:0:0:0:
220,332,222935,6,0,P|256:345|291:329,1,80,0|2,0:0|0:0,0:0:0:0:
176,256,223249,2,0,P|137:257|110:285,1,80,8|0,0:0|0:0,0:0:0:0:
228,156,223563,1,8,0:0:0:0:
201,126,223641,1,8,0:0:0:0:
198,87,223720,1,8,0:0:0:0:
220,54,223798,1,8,0:0:0:0:
257,42,223877,1,8,0:0:0:0:
294,54,223956,1,8,0:0:0:0:
316,87,224034,1,8,0:0:0:0:
313,126,224113,1,8,0:0:0:0:
287,155,224191,6,0,L|308:232,1,80,4|0,0:0|0:0,0:0:0:0:
201,357,224505,2,0,L|180:280,1,80,8|0,0:0|0:0,0:0:0:0:
300,340,224819,2,0,L|377:319,1,80,2|2,0:0|0:0,0:0:0:0:
220,192,225134,2,0,L|143:213,1,80,8|0,0:0|0:0,0:0:0:0:
328,128,225448,6,0,P|363:112|399:125,1,80,2|2,0:0|0:0,0:0:0:0:
399,258,225762,2,0,P|363:271|328:256,1,80,8|0,0:0|0:0,0:0:0:0:
220,192,226076,2,0,L|280:192,2,53.3333333333333,2|8|8,0:0|0:0|0:0,0:0:0:0:
200,272,226390,2,0,L|146:272,2,53.3333333333333,8|8|4,0:0|0:3|0:3,0:0:0:0:
256,332,226704,5,4,0:0:0:0:
116,192,227018,1,8,0:0:0:0:
256,52,227333,1,8,0:0:0:0:
396,192,227647,1,4,0:0:0:0:
396,192,227961,6,0,P|411:227|398:263,1,80,0|8,0:0|0:0,0:0:0:0:
308,344,228275,2,0,P|294:307|310:272,1,80,2|2,0:0|0:0,0:0:0:0:
396,192,228589,1,8,0:0:0:0:
378,156,228668,1,0,0:0:0:0:
350,128,228746,1,8,0:0:0:0:
314,110,228825,1,8,0:0:0:0:
275,104,228903,1,8,0:0:0:0:
236,109,228982,1,8,0:0:0:0:
200,127,229060,1,8,0:0:0:0:
172,155,229139,1,8,0:0:0:0:
153,190,229217,6,0,L|64:176,1,80,4|2,0:0|0:0,0:0:0:0:
124,280,229531,2,0,L|203:292,1,80,8|0,0:0|0:0,0:0:0:0:
308,292,229846,2,0,L|388:280,1,80,2|2,0:0|0:0,0:0:0:0:
438,177,230160,2,0,L|359:190,1,80,8|0,0:0|0:0,0:0:0:0:
184,96,230474,2,0,B|224:96|256:126|256:126|288:96|328:96,1,160,2|8,0:0|0:0,0:0:0:0:
256,12,230945,1,0,0:0:0:0:
184,96,231102,2,0,P|168:131|181:167,1,80,2|2,0:0|0:0,0:0:0:0:
330,167,231416,2,0,P|343:131|327:95,1,80,8|2,0:0|0:0,0:0:0:0:
192,256,231730,6,0,B|156:273|156:273|120:256,1,80,8|2,0:0|0:0,0:0:0:0:
220,336,232045,2,0,B|256:319|256:319|292:336,1,80,8|2,0:0|0:0,0:0:0:0:
392,256,232359,2,0,B|356:273|356:273|320:256,1,80,8|2,0:0|0:0,0:0:0:0:
220,168,232673,2,0,B|256:185|256:185|292:168,1,80,2|0,0:0|0:0,0:0:0:0:
168,80,232987,6,0,L|136:112,1,40,8|0,0:0|0:0,0:0:0:0:
191,196,233144,2,0,L|219:167,1,40,8|8,0:0|0:0,0:0:0:0:
92,168,233301,2,0,L|60:200,1,40,10|8,0:0|0:0,0:0:0:0:
92,272,233458,5,8,0:0:0:0:
121,299,233537,1,8,0:0:0:0:
159,308,233615,1,10,0:0:0:0:
198,299,233694,1,8,0:0:0:0:
227,273,233772,1,8,0:0:0:0:
256,244,233851,1,8,0:0:0:0:
292,229,233929,1,10,0:0:0:0:
331,231,234008,1,8,0:0:0:0:
365,252,234086,1,8,0:0:0:0:
385,287,234165,1,8,0:0:0:0:
408,320,234244,6,0,P|448:320|476:292,1,80,4|0,0:0|0:0,0:0:0:0:
428,192,234558,1,8,0:0:0:0:
428,192,234715,1,0,0:0:0:0:
475,90,234872,2,0,P|447:63|408:64,1,80,2|0,0:0|0:0,0:0:0:0:
312,120,235186,1,8,0:0:0:0:
200,120,235343,1,0,0:0:0:0:
104,63,235500,6,0,B|78:108|78:108|80:151|80:151|46:210,1,160,2|8,0:0|0:0,0:0:0:0:
144,264,235971,1,0,0:0:0:0:
156,120,236128,2,0,L|192:44,1,80,2|0,0:0|0:0,0:0:0:0:
356,120,236442,2,0,L|320:44,1,80,8|0,0:0|0:0,0:0:0:0:
256,160,236757,2,0,B|232:232|280:232|256:316,1,160,2|8,0:0|0:0,0:0:0:0:
324,200,237228,1,0,0:0:0:0:
188,272,237385,6,0,P|148:272|116:248,1,80,2|0,0:0|0:0,0:0:0:0:
116,134,237699,2,0,P|148:111|188:112,1,80,8|0,0:0|0:0,0:0:0:0:
324,111,238013,2,0,P|363:111|395:134,1,80,2|0,0:0|0:0,0:0:0:0:
395,249,238327,2,0,P|363:272|324:272,1,80,8|0,0:0|0:0,0:0:0:0:
256,192,238641,1,2,0:0:0:0:
187,111,238798,1,0,0:0:0:0:
324,111,238956,1,8,0:0:0:0:
256,280,239113,1,8,0:0:0:0:
256,280,239191,1,8,0:0:0:0:
256,280,239270,6,0,L|256:364,1,80,4|0,0:0|0:0,0:0:0:0:
156,228,239584,2,0,B|139:192|139:192|156:156,1,80,8|0,0:0|0:0,0:0:0:0:
220,64,239898,2,0,B|256:47|256:47|292:64,1,80,2|0,0:0|0:0,0:0:0:0:
356,156,240212,2,0,B|373:192|373:192|356:228,1,80,8|0,0:0|0:0,0:0:0:0:
256,280,240526,2,0,B|200:280|200:280|156:304|156:304|100:304,1,160,2|8,0:0|0:0,0:0:0:0:
220,352,240997,1,0,0:0:0:0:
220,352,241155,2,0,B|260:352|260:352|296:376,1,80,2|0,0:0|0:0,0:0:0:0:
132,232,241469,6,0,B|92:232|92:232|56:208,1,80,8|0,0:0|0:0,0:0:0:0:
100,104,241783,1,2,0:0:0:0:
226,13,241940,1,0,0:0:0:0:
178,161,242097,1,8,0:0:0:0:
130,13,242254,1,0,0:0:0:0:
255,104,242411,2,0,P|295:104|327:132,1,80,2|0,0:0|0:0,0:0:0:0:
324,255,242725,2,0,P|294:280|255:280,1,80,8|0,0:0|0:0,0:0:0:0:
184,192,243039,6,0,B|112:168|112:224|24:192,1,160,4|8,0:0|0:0,0:0:0:0:
144,260,243511,1,0,0:0:0:0:
76,128,243668,1,8,0:0:0:0:
100,112,243746,1,8,0:0:0:0:
124,96,243825,1,8,0:0:0:0:
148,80,243903,1,8,0:0:0:0:
172,64,243982,1,8,0:0:0:0:
196,48,244060,1,8,0:0:0:0:
220,32,244139,1,8,0:0:0:0:
244,16,244217,1,8,0:0:0:0:
268,0,244296,6,0,L|328:64,1,80,4|0,0:0|0:0,0:0:0:0:
308,176,244610,2,0,L|253:117,1,80,8|0,0:0|0:0,0:0:0:0:
396,156,244924,2,0,B|413:192|413:192|396:228,1,80,2|0,0:0|0:0,0:0:0:0:
312,332,245238,2,0,B|295:296|295:296|312:260,1,80,8|0,0:0|0:0,0:0:0:0:
184,136,245552,6,0,P|148:119|111:132,1,80,2|0,0:0|0:0,0:0:0:0:
111,251,245867,2,0,P|148:264|184:248,1,80,8|0,0:0|0:0,0:0:0:0:
304,192,246181,2,0,L|240:192,2,53.3333333333333,2|8|8,0:0|0:0|0:0,0:0:0:0:
304,276,246495,2,0,L|368:276,2,53.3333333333333,8|8|4,0:0|0:3|0:3,0:0:0:0:
256,340,246809,5,4,0:0:0:0:
108,192,247123,1,8,0:0:0:0:
256,44,247437,1,0,0:0:0:0:
404,192,247751,1,12,0:0:0:0:
404,192,248065,6,0,P|364:192|332:220,1,80,2|8,0:0|0:0,0:0:0:0:
288,328,248380,2,0,P|328:328|360:300,1,80,2|2,0:0|0:0,0:0:0:0:
216,248,248694,1,8,0:0:0:0:
182,268,248772,1,0,0:0:0:0:
143,264,248851,1,8,0:0:0:0:
116,235,248929,1,8,0:0:0:0:
113,196,249008,1,8,0:0:0:0:
135,164,249086,1,8,0:0:0:0:
173,153,249165,1,8,0:0:0:0:
209,168,249244,1,8,0:0:0:0:
227,203,249322,6,0,L|308:192,1,80,4|0,0:0|0:0,0:0:0:0:
372,92,249636,2,0,L|292:102,1,80,8|0,0:0|0:0,0:0:0:0:
452,156,249950,2,0,P|464:192|448:228,1,80,2|8,0:0|0:3,0:0:0:0:
376,304,250264,2,0,P|359:268|372:231,1,80,2|0,0:0|0:0,0:0:0:0:
488,332,250579,5,4,0:0:0:0:
376,304,250736,1,2,0:0:0:0:
448,228,250893,2,0,L|528:256,1,80,8|0,0:0|0:0,0:0:0:0:
376,304,251207,2,0,L|300:277,1,80,2|0,0:0|0:0,0:0:0:0:
192,240,251521,1,2,0:0:0:0:
276,164,251678,1,0,0:0:0:0:
300,277,251835,5,4,0:0:0:0:
300,277,252463,1,4,0:0:0:0:
305,285,252935,1,2,0:0:0:0:
305,285,253013,1,2,0:0:0:0:
305,285,253092,6,0,B|322:249|322:249|305:213,1,80,12|2,0:0|0:0,0:0:0:0:
208,81,253406,1,2,0:0:0:0:
362,131,253563,1,8,0:0:0:0:
208,181,253720,1,2,0:0:0:0:
304,50,253877,1,2,0:0:0:0:
304,212,254034,1,8,0:0:0:0:
208,81,254191,1,0,0:0:0:0:
362,131,254348,6,0,B|402:131|402:131|438:151,1,80,4|0,0:0|0:0,0:0:0:0:
508,84,254662,1,2,0:0:0:0:
508,84,254819,2,0,L|448:232,1,160,8|2,0:0|0:0,0:0:0:0:
301,280,255291,1,0,0:0:0:0:
301,280,255448,2,0,L|361:132,1,160,2|2,0:0|0:0,0:0:0:0:
361,131,255840,1,2,0:0:0:0:
361,131,255919,1,2,0:0:0:0:
328,40,256076,2,0,B|288:40|256:10|256:10|224:40|184:40,1,160,2|0,0:0|0:0,0:0:0:0:
151,131,256547,2,0,B|111:131|111:131|75:155,1,80
144,276,256861,5,8,0:0:0:0:
200,356,257018,1,0,0:0:0:0:
284,308,257175,1,2,0:0:0:0:
228,228,257333,2,0,B|272:228|308:192|308:192|384:192,1,160,8|2,0:0|0:0,0:0:0:0:
336,84,257804,5,8,0:0:0:0:
336,84,257961,1,8,0:0:0:0:
176,84,258118,1,8,0:0:0:0:
176,84,258275,1,8,0:0:0:0:
304,168,258432,1,8,0:0:0:0:
208,168,258589,1,8,0:0:0:0:
328,252,258746,5,8,0:0:0:0:
312,280,258825,1,8,0:0:0:0:
296,308,258903,1,8,0:0:0:0:
280,336,258982,1,8,0:0:0:0:
256,360,259060,1,8,0:0:0:0:
232,336,259139,1,8,0:0:0:0:
216,308,259217,1,8,0:0:0:0:
200,280,259296,1,8,0:0:0:0:
184,252,259374,6,0,P|144:252|116:224,1,80,4|0,0:0|0:0,0:0:0:0:
188,120,259689,1,8,0:0:0:0:
188,120,259846,2,0,P|255:83|323:119,1,160,2|2,0:0|0:0,0:0:0:0:
323,264,260317,1,8,0:0:0:0:
323,264,260474,2,0,P|255:300|188:264,1,160,2|2,0:0|0:0,0:0:0:0:
168,192,260867,1,2,0:0:0:0:
168,192,260946,1,8,0:0:0:0:
104,124,261104,2,0,P|67:191|103:259,1,160,2|0,0:0|0:0,0:0:0:0:
184,312,261578,2,0,P|224:312|256:288,1,80,8|0,0:0|0:0,0:0:0:0:
256,192,261894,5,8,0:0:0:0:
104,124,262052,1,2,0:0:0:0:
256,192,262209,1,2,0:0:0:0:
188,40,262367,1,8,0:0:0:0:
256,192,262525,1,8,0:0:0:0:
324,40,262683,1,8,0:0:0:0:
256,192,262841,1,8,0:0:0:0:
408,124,262999,1,8,0:0:0:0:
256,192,263157,6,0,L|256:248,2,53.3333333333333,4|0|8,0:0|0:0|0:0,0:0:0:0:
219,131,263509,2,0,L|168:103,2,53.3333333333333,8|8|8,0:0|0:0|0:0,0:0:0:0:
293,131,263831,2,0,L|346:103,2,53.3333333333333,8|8|8,0:0|0:0|0:3,0:0:0:0:
256,348,264567,5,4,0:0:0:0:
256,192,264698,12,0,272038,0:0:0:0:
