osu file format v14

[General]
AudioFilename: audio.mp3
AudioLeadIn: 0
PreviewTime: 49805
Countdown: 0
SampleSet: Soft
StackLeniency: 0.4
Mode: 0
LetterboxInBreaks: 0
WidescreenStoryboard: 0

[Editor]
Bookmarks: 1139,14250,21361,35583,51583,65805,81805,88916,96027,103139,119139,133361,145805,160027,177805,182916,184916,192472,209805,216916
DistanceSpacing: 0.3
BeatDivisor: 4
GridSize: 4
TimelineZoom: 2

[Metadata]
Title:Koufuku na Wagamama
TitleUnicode:幸福なわがまま
Artist:Sangatsu no Phantasia
ArtistUnicode:三月のパンタシア
Creator:Jiysea
Version:Selfless
Source:
Tags:japanese pop jpop j-pop alt alternate happy selfishness 堀江晶太 Shota Horie みあ Mia
BeatmapID:3033881
BeatmapSetID:1478828

[Difficulty]
HPDrainRate:5
CircleSize:4.2
OverallDifficulty:8.7
ApproachRate:9.2
SliderMultiplier:2.5
SliderTickRate:1

[Events]
//Background and Video events
0,0,"bg.jpg",0,0
//Break Periods
2,178004,182346
//Storyboard Layer 0 (Background)
//Storyboard Layer 1 (Fail)
//Storyboard Layer 2 (Pass)
//Storyboard Layer 3 (Foreground)
//Storyboard Layer 4 (Overlay)
//Storyboard Sound Samples

[TimingPoints]
28,444.444444444444,4,2,1,30,1,0
1139,-181.818181818181,4,2,1,30,0,0
8805,-181.818181818181,4,2,1,5,0,0
8916,-133.333333333333,4,2,1,50,0,0
9250,-133.333333333333,4,2,1,5,0,0
9361,-133.333333333333,4,2,1,50,0,0
12472,-66.6666666666667,4,2,1,50,0,0
12527,-66.6666666666667,4,2,1,5,0,0
14250,-80,4,2,1,75,0,0
21361,-133.333333333333,4,2,1,50,0,0
35583,-66.6666666666667,4,2,1,75,0,0
35639,-66.6666666666667,4,2,1,5,0,0
35916,-66.6666666666667,4,2,1,75,0,0
35972,-66.6666666666667,4,2,1,5,0,0
36250,-66.6666666666667,4,2,1,75,0,0
36305,-66.6666666666667,4,2,1,5,0,0
36694,-66.6666666666667,4,2,1,75,0,0
37416,-66.6666666666667,4,2,1,5,0,0
37694,-66.6666666666667,4,2,1,75,0,0
37750,-66.6666666666667,4,2,1,5,0,0
38027,-66.6666666666667,4,2,1,75,0,0
38083,-66.6666666666667,4,2,1,5,0,0
38472,-66.6666666666667,4,2,1,50,0,0
39139,-66.6666666666667,4,2,1,75,0,0
39194,-66.6666666666667,4,2,1,5,0,0
39472,-66.6666666666667,4,2,1,75,0,0
39527,-66.6666666666667,4,2,1,5,0,0
39805,-66.6666666666667,4,2,1,75,0,0
39861,-66.6666666666667,4,2,1,5,0,0
40250,-66.6666666666667,4,2,1,75,0,0
40916,-100,4,2,1,50,0,0
41805,-133.333333333333,4,2,1,60,0,0
41916,-133.333333333333,4,2,1,5,0,0
42027,-133.333333333333,4,2,1,60,0,0
46250,-133.333333333333,4,2,1,45,0,0
46694,-133.333333333333,4,2,1,60,0,0
48027,-100,4,2,1,60,0,0
48916,-133.333333333333,4,2,1,60,0,0
49805,-66.6666666666667,4,2,1,75,0,0
49861,-66.6666666666667,4,2,1,5,0,0
50139,-66.6666666666667,4,2,1,75,0,0
50194,-66.6666666666667,4,2,1,5,0,0
50472,-66.6666666666667,4,2,1,75,0,0
50527,-66.6666666666667,4,2,1,5,0,0
50916,-66.6666666666667,4,2,1,50,0,0
51583,-80,4,2,1,85,0,1
64916,-80,4,2,1,50,0,0
65361,-80,4,2,1,65,0,0
65805,-80,4,2,1,85,0,1
70916,-66.6666666666667,4,2,1,85,0,1
71361,-80,4,2,1,85,0,1
71805,-66.6666666666667,4,2,1,85,0,1
72027,-80,4,2,1,85,0,1
79250,-80,4,2,1,5,0,1
79361,-80,4,2,1,85,0,1
80027,-200,4,2,1,50,0,0
80583,-200,4,2,1,5,0,0
80694,-80,4,2,1,50,0,0
81805,-80,4,2,1,75,0,0
88916,-133.333333333333,4,2,1,30,0,0
96027,-133.333333333333,4,2,1,50,0,0
96250,-133.333333333333,4,2,1,5,0,0
96361,-133.333333333333,4,2,1,50,0,0
101361,-100,4,2,1,65,0,0
103139,-66.6666666666667,4,2,1,50,0,0
103194,-66.6666666666667,4,2,1,5,0,0
103472,-66.6666666666667,4,2,1,50,0,0
103527,-66.6666666666667,4,2,1,5,0,0
103805,-66.6666666666667,4,2,1,50,0,0
103861,-66.6666666666667,4,2,1,5,0,0
104916,-66.6666666666667,4,2,1,50,0,0
104972,-66.6666666666667,4,2,1,5,0,0
105250,-66.6666666666667,4,2,1,50,0,0
105305,-66.6666666666667,4,2,1,5,0,0
105583,-66.6666666666667,4,2,1,50,0,0
105639,-66.6666666666667,4,2,1,5,0,0
106027,-66.6666666666667,4,2,1,50,0,0
106750,-66.6666666666667,4,2,1,5,0,0
107027,-66.6666666666667,4,2,1,50,0,0
107083,-66.6666666666667,4,2,1,5,0,0
107361,-66.6666666666667,4,2,1,50,0,0
107416,-66.6666666666667,4,2,1,5,0,0
107805,-66.6666666666667,4,2,1,50,0,0
108027,-200,4,2,1,50,0,0
108472,-100,4,2,1,50,0,0
109361,-133.333333333333,4,2,1,50,0,0
115583,-100,4,2,1,50,0,0
116472,-133.333333333333,4,2,1,50,0,0
118694,-200,4,2,1,50,0,0
119027,-200,4,2,1,5,0,0
119139,-80,4,2,1,85,0,1
132472,-80,4,2,1,50,0,0
132916,-80,4,2,1,65,0,0
133361,-80,4,2,1,85,0,1
138472,-66.6666666666667,4,2,1,85,0,1
138916,-80,4,2,1,85,0,1
139361,-66.6666666666667,4,2,1,85,0,1
139583,-80,4,2,1,85,0,1
144027,-80,4,2,1,85,0,0
145027,-80,4,2,1,5,0,0
145139,-80,4,2,1,85,0,0
145805,-100,4,2,1,75,0,0
158250,-100,4,2,1,65,0,0
158694,-100,4,2,1,70,0,0
159139,-100,4,2,1,75,0,0
159583,-100,4,2,1,85,0,0
160027,-80,4,2,1,85,0,1
164694,-74.0740740740741,4,2,1,85,0,1
165139,-66.6666666666667,4,2,1,85,0,1
165250,-66.6666666666667,4,2,1,5,0,1
165361,-66.6666666666667,4,2,1,85,0,1
166250,-80,4,2,1,85,0,1
166361,-80,4,2,1,5,0,1
166472,-80,4,2,1,85,0,1
166694,-80,4,2,1,60,0,1
167250,-80,4,2,1,5,0,1
167361,-80,4,2,1,85,0,1
168916,-71.4285714285714,4,2,1,85,0,1
169361,-80,4,2,1,85,0,1
172139,-80,4,2,1,5,0,1
172250,-71.4285714285714,4,2,1,85,0,1
174472,-133.333333333333,4,2,1,50,0,1
174583,-133.333333333333,4,2,1,5,0,1
174694,-100,4,2,1,60,0,1
174805,-100,4,2,1,5,0,1
174916,-80,4,2,1,70,0,1
175027,-80,4,2,1,5,0,1
175139,-66.6666666666667,4,2,1,80,0,1
175250,-66.6666666666667,4,2,1,5,0,1
175361,-80,4,2,1,70,0,1
175472,-80,4,2,1,5,0,1
175583,-100,4,2,1,60,0,1
175694,-100,4,2,1,5,0,1
175805,-133.333333333333,4,2,1,50,0,1
175916,-133.333333333333,4,2,1,5,0,1
176027,-500,4,2,1,30,0,0
177805,-500,4,2,1,20,0,0
182916,-80,4,2,1,75,0,0
183583,-133.333333333333,4,2,1,75,0,0
183694,-133.333333333333,4,2,1,5,0,0
183805,-100,4,2,1,75,0,0
183916,-100,4,2,1,5,0,0
184027,-100,4,2,1,75,0,0
184916,-80,4,2,1,85,0,1
192027,-200,4,2,1,30,0,0
192361,-200,4,2,1,5,0,0
192472,-80,4,2,1,85,0,1
197139,-66.6666666666667,4,2,1,85,0,1
197583,-80,4,2,1,85,0,1
198027,-66.6666666666667,4,2,1,85,0,1
198250,-80,4,2,1,85,0,1
206250,-200,4,2,1,85,0,0
207805,-80,4,2,1,85,0,0
209805,-80,4,2,1,75,0,0
216916,-71.4285714285714,4,2,1,75,0,0
217250,-133.333333333333,4,2,1,75,0,0
217583,-71.4285714285714,4,2,1,75,0,0
220472,-200,4,2,1,30,0,0
222139,-200,4,2,1,5,0,0
222250,-66.6666666666667,4,2,1,75,0,0
222472,-66.6666666666667,4,2,1,5,0,0
222583,-80,4,2,1,75,0,0
222805,-80,4,2,1,5,0,0
222916,-133.333333333333,4,2,1,75,0,0
223139,-133.333333333333,4,2,1,5,0,0

[Colours]
Combo1 : 206,157,255
Combo2 : 206,81,81
Combo3 : 248,186,216
Combo4 : 72,104,164

[HitObjects]
120,48,1139,5,2,0:0:0:0:
100,76,1361,1,2,0:0:0:0:
82,101,1583,2,0,L|99:167,1,68.7500020980836,2|2,0:0|0:0,0:0:0:0:
100,168,2027,2,0,L|133:162,2,34.3750010490418,2|2|2,0:0|0:0|0:0,0:0:0:0:
36,228,2472,2,0,L|2:222,2,34.3750010490418,2|2|2,0:0|0:0|0:0,0:0:0:0:
108,288,2916,1,2,0:0:0:0:
116,308,3139,1,2,0:0:0:0:
124,328,3361,6,0,B|190:316|190:316|195:319|195:319|258:308,1,137.500004196167,2|2,0:0|0:0,0:0:0:0:
396,344,4027,1,2,0:0:0:0:
320,364,4250,1,2,0:0:0:0:
428,168,4694,5,2,0:0:0:0:
400,160,4916,1,2,0:0:0:0:
374,153,5139,2,0,L|307:135,1,68.7500020980836,2|2,0:0|0:0,0:0:0:0:
308,136,5583,2,0,L|313:102,2,34.3750010490418,2|2|2,0:0|0:0|0:0,0:0:0:0:
244,204,6027,2,0,L|249:237,2,34.3750010490418,2|2|2,0:0|0:0|0:0,0:0:0:0:
172,140,6472,1,2,0:0:0:0:
148,152,6694,1,2,0:0:0:0:
124,164,6916,6,0,P|106:101|158:62,1,137.500004196167,2|2,0:0|0:0,0:0:0:0:
292,40,7583,1,2,0:0:0:0:
240,120,7805,2,0,B|320:156|388:88|386:80|384:72|434:-19|538:39,1,309.375009441376,2|0,0:0|0:0,0:0:0:0:
512,48,8916,6,0,P|444:48|404:103,1,140.625005364418,2|0,0:0|0:0,0:0:0:0:
432,120,9361,1,2,0:0:0:0:
512,224,9583,2,0,B|374:199|374:199|409:205|424:257,1,187.500007152558,2|2,0:0|0:0,0:0:0:0:
484,320,10250,1,2,0:0:0:0:
307,348,10472,6,0,P|267:280|346:274,1,187.500007152558,2|2,0:0|0:0,0:0:0:0:
264,236,11139,1,2,0:0:0:0:
152,344,11361,2,0,P|107:332|82:293,1,93.7500035762788,2|0,0:0|0:0,0:0:0:0:
176,188,11805,1,2,1:2:0:0:
180,232,11916,1,0,1:0:0:0:
156,264,12027,1,10,0:2:0:0:
0,248,12250,1,2,1:2:0:0:
140,72,12472,6,0,L|131:118,1,46.8750017881394,10|0,0:2|0:0,0:0:0:0:
131,118,14250,6,0,B|193:142|238:93|238:93|286:39|359:66,1,234.375,6|2,1:2|0:0,0:0:0:0:
408,16,14694,2,0,P|427:49|419:86,1,78.125,8|0,1:2|0:0,0:0:0:0:
328,208,14916,1,2,0:0:0:0:
396,176,15027,1,8,0:2:0:0:
328,208,15139,2,0,L|251:194,1,78.125,0|0,1:0|0:0,0:0:0:0:
4,176,15361,5,2,0:0:0:0:
76,160,15472,1,2,0:0:0:0:
120,220,15583,1,10,1:2:0:0:
92,284,15694,1,2,0:0:0:0:
24,304,15805,1,2,0:0:0:0:
20,324,15916,1,2,0:0:0:0:
16,344,16027,6,0,B|181:314|181:314|142:321|87:286,1,234.375,2|2,1:2|0:0,0:0:0:0:
168,235,16472,2,0,P|168:274|193:304,1,78.125,8|0,1:2|0:0,0:0:0:0:
344,352,16694,1,2,0:0:0:0:
280,304,16805,1,8,0:2:0:0:
344,352,16916,2,0,L|364:276,1,78.125,0|0,1:0|0:0,0:0:0:0:
512,124,17139,6,0,P|482:99|444:100,1,78.125
384,200,17361,2,0,P|422:200|451:176,1,78.125,8|0,1:2|0:0,0:0:0:0:
384,24,17583,5,2,0:0:0:0:
380,36,17657,5,2,0:0:0:0:
376,48,17731,5,2,0:0:0:0:
372,60,17805,6,0,B|272:68|272:68|264:73|264:73|139:84,1,234.375,2|2,1:2|0:0,0:0:0:0:
96,4,18250,2,0,P|133:-4|176:16,1,78.125,8|0,1:2|0:0,0:0:0:0:
88,152,18472,1,2,0:0:0:0:
23,110,18583,1,8,0:2:0:0:
88,152,18694,2,0,P|123:166|161:158,1,78.125,0|0,1:0|0:0,0:0:0:0:
344,136,18916,5,2,0:0:0:0:
296,192,19027,1,2,0:0:0:0:
316,264,19139,1,10,1:2:0:0:
388,288,19250,1,2,0:0:0:0:
456,256,19361,1,2,0:0:0:0:
464,232,19472,1,2,0:0:0:0:
472,208,19583,6,0,B|412:156|344:184|344:184|324:244|260:244,1,234.375,2|2,1:2|0:0,0:0:0:0:
208,284,20027,2,0,P|200:321|212:358,1,78.125,12|0,1:2|0:0,0:0:0:0:
268,160,20250,1,10,0:2:0:0:
268,160,20472,2,0,P|259:122|228:99,1,78.125,0|8,1:0|0:2,0:0:0:0:
0,24,20694,1,8,0:2:0:0:
45,38,20805,1,8,0:2:0:0:
65,82,20916,1,8,1:2:0:0:
52,124,21027,1,8,0:2:0:0:
24,156,21139,1,8,0:2:0:0:
24,200,21250,1,8,0:2:0:0:
71,263,21361,6,0,B|134:275|134:275|138:271|138:271|208:284,2,140.625005364418,6|2|2,1:2|0:0|0:0,0:0:0:0:
71,263,22472,2,0,P|95:247|102:229,1,46.8750017881394,2|0,0:0|0:0,0:0:0:0:
24,148,22694,1,2,1:2:0:0:
24,148,22916,2,0,L|28:194,1,46.8750017881394,2|0,0:0|0:0,0:0:0:0:
44,360,23139,6,0,P|111:351|144:304,1,93.7500035762788,2|2,1:2|0:0,0:0:0:0:
144,320,23472,2,0,L|190:324,1,46.8750017881394,2|0,0:0|1:0,0:0:0:0:
268,252,23694,1,2,0:0:0:0:
276,264,23805,2,0,L|284:357,1,93.7500035762788,2|0,0:0|1:0,0:0:0:0:
284,357,24250,2,0,P|303:345|326:347,1,46.8750017881394
500,300,24472,1,0,1:2:0:0:
492,260,24583,1,0,0:0:0:0:
456,244,24694,1,2,0:0:0:0:
420,260,24805,1,0,0:0:0:0:
424,272,24916,6,0,B|429:204|429:204|432:198|432:198|438:131,2,140.625005364418,2|2|2,1:2|0:0|0:0,0:0:0:0:
424,272,26027,2,0,L|377:267,1,46.8750017881394,2|0,0:0|0:0,0:0:0:0:
344,188,26250,1,2,1:2:0:0:
344,188,26472,2,0,P|364:177|387:177,1,46.8750017881394,2|0,0:0|0:0,0:0:0:0:
328,344,26694,6,0,P|260:335|228:288,1,93.7500035762788,2|2,1:2|0:0,0:0:0:0:
232,300,27027,2,0,L|227:253,1,46.8750017881394,2|0,0:0|1:0,0:0:0:0:
164,196,27249,1,2,0:0:0:0:
172,184,27360,2,0,L|180:90,1,93.7500035762788,2|0,0:0|1:0,0:0:0:0:
180,90,27805,2,0,P|160:78|137:80,1,46.8750017881394
39,169,28027,1,8,1:2:0:0:
43,189,28139,1,0,0:0:0:0:
46,206,28250,1,0,0:0:0:0:
50,226,28362,1,0,0:0:0:0:
32,300,28472,6,0,P|89:261|157:268,2,140.625005364418,6|2|2,1:2|0:0|0:0,0:0:0:0:
32,300,29583,2,0,L|40:346,1,46.8750017881394,2|0,0:0|0:0,0:0:0:0:
136,384,29805,1,2,1:2:0:0:
136,384,30027,2,0,P|157:374|180:371,1,46.8750017881394,2|0,0:0|0:0,0:0:0:0:
336,320,30250,6,0,L|243:303,1,93.7500035762788,2|2,1:2|0:0,0:0:0:0:
228,280,30583,2,0,L|219:233,1,46.8750017881394,2|0,0:0|1:0,0:0:0:0:
300,136,30805,1,2,0:0:0:0:
307,124,30916,2,0,P|351:136|375:175,1,93.7500035762788,2|0,0:0|1:0,0:0:0:0:
375,175,31361,2,0,L|366:221,1,46.8750017881394
512,384,31583,1,2,1:2:0:0:
512,384,31805,2,0,L|503:337,1,46.8750017881394,2|0,0:0|0:0,0:0:0:0:
352,304,32027,6,0,P|285:301|232:352,1,140.625005364418,0|0,1:0|0:0,0:0:0:0:
228,376,32472,1,2,1:2:0:0:
228,376,32694,2,0,L|181:371,1,46.8750017881394,2|0,0:0|0:0,0:0:0:0:
72,356,32916,1,0,1:0:0:0:
128,196,33139,5,2,0:0:0:0:
124,220,33250,1,2,0:0:0:0:
120,244,33361,1,2,1:2:0:0:
16,112,33583,1,2,0:0:0:0:
48,76,33694,1,2,0:0:0:0:
92,88,33805,6,0,L|184:71,1,93.7500035762788,2|2,1:2|0:0,0:0:0:0:
208,88,34139,2,0,P|223:105|228:128,1,46.8750017881394,2|0,0:0|1:0,0:0:0:0:
308,156,34361,1,2,0:0:0:0:
316,172,34472,2,0,P|310:194|295:212,1,46.8750017881394,2|0,0:0|0:0,0:0:0:0:
116,264,34694,1,12,1:2:0:0:
272,384,34916,5,8,0:2:0:0:
296,332,35027,1,8,0:2:0:0:
352,320,35139,1,8,1:2:0:0:
392,360,35250,1,8,0:2:0:0:
448,344,35361,1,8,0:3:0:0:
452,324,35472,1,4,0:3:0:0:
456,300,35583,6,0,L|460:253,1,46.8750017881394,2|0,1:2|0:0,0:0:0:0:
464,176,35916,6,0,L|468:129,1,46.8750017881394,2|0,1:2|0:0,0:0:0:0:
472,56,36250,6,0,L|476:9,1,46.8750017881394,2|0,1:2|0:0,0:0:0:0:
35,9,37361,6,0,L|40:56,1,46.8750017881394,2|0,1:2|0:0,0:0:0:0:
43,129,37694,6,0,L|48:176,1,46.8750017881394,2|0,1:2|0:0,0:0:0:0:
51,253,38028,6,0,L|56:300,1,46.8750017881394,2|0,1:2|0:0,0:0:0:0:
256,364,38472,5,2,0:0:0:0:
256,312,38583,1,2,0:0:0:0:
256,260,38694,1,2,0:0:0:0:
144,88,39139,6,0,L|148:134,1,46.8750017881394,2|0,1:2|0:0,0:0:0:0:
368,88,39472,6,0,L|363:134,1,46.8750017881394,2|0,1:2|0:0,0:0:0:0:
256,260,39806,6,0,L|256:212,1,46.8750017881394,2|0,1:2|0:0,0:0:0:0:
24,116,40916,6,0,B|73:131|109:93|109:93|144:54|204:76,2,187.5,6|2|2,1:2|1:2|1:2,0:0:0:0:
24,116,41805,2,0,P|31:94|47:77,1,46.8750017881394,10|0,0:2|0:0,0:0:0:0:
252,16,42027,1,8,0:2:0:0:
288,60,42139,1,8,0:2:0:0:
272,116,42250,1,8,0:2:0:0:
232,152,42361,1,8,0:2:0:0:
236,172,42472,1,8,0:3:0:0:
240,192,42583,1,4,0:3:0:0:
300,244,42694,6,0,L|392:227,1,93.7500035762788,4|10,1:2|0:0,0:0:0:0:
468,184,43027,1,0,0:0:0:0:
484,160,43139,2,0,L|487:114,1,46.8750017881394,2|0,1:2|0:0,0:0:0:0:
464,288,43361,2,0,L|509:295,1,46.8750017881394,10|8,0:2|0:2,0:0:0:0:
388,316,43583,2,0,L|341:324,1,46.8750017881394,2|0,1:2|0:0,0:0:0:0:
224,264,43805,1,10,0:2:0:0:
224,264,43916,1,8,0:2:0:0:
224,264,44027,2,0,P|227:287|220:309,1,46.8750017881394,2|0,1:2|0:0,0:0:0:0:
128,296,44250,2,0,P|124:272|132:251,1,46.8750017881394,10|8,0:2|0:2,0:0:0:0:
312,104,44472,6,0,L|320:149,1,46.8750017881394,2|0,1:2|0:0,0:0:0:0:
240,48,44694,2,0,L|248:1,1,46.8750017881394,10|8,0:2|0:2,0:0:0:0:
160,104,44916,2,0,L|168:149,1,46.8750017881394,2|0,1:2|0:0,0:0:0:0:
88,48,45138,2,0,L|96:1,1,46.8750017881394,10|8,0:2|0:2,0:0:0:0:
12,100,45361,2,0,L|20:145,1,46.8750017881394,0|0,1:2|0:0,0:0:0:0:
100,188,45583,1,8,0:2:0:0:
100,188,45694,1,8,0:2:0:0:
100,188,45805,2,0,L|92:233,1,46.8750017881394,0|0,1:2|0:0,0:0:0:0:
72,324,46027,1,10,0:2:0:0:
72,324,46139,1,8,0:2:0:0:
72,324,46250,5,14,1:2:0:0:
112,360,46361,1,8,0:2:0:0:
168,356,46472,1,8,0:2:0:0:
208,316,46583,1,8,0:2:0:0:
208,264,46694,1,8,0:2:0:0:
252,232,46805,1,8,0:2:0:0:
308,240,46916,1,10,0:2:0:0:
316,260,47027,1,10,0:2:0:0:
396,308,47139,5,10,0:3:0:0:
448,280,47250,1,8,0:3:0:0:
444,224,47361,1,8,0:3:0:0:
428,212,47472,1,8,0:3:0:0:
364,152,47583,5,6,0:3:0:0:
372,128,47694,1,4,0:3:0:0:
396,112,47805,1,4,0:3:0:0:
428,116,47916,1,4,0:3:0:0:
508,104,48027,6,0,B|422:81|422:81|418:84|418:84|327:59,2,187.5,6|0|0,1:2|1:0|1:0,0:0:0:0:
508,104,48916,2,0,P|508:80|498:59,1,46.8750017881394,12|0,0:2|0:0,0:0:0:0:
280,0,49139,5,8,0:2:0:0:
240,28,49250,1,8,0:2:0:0:
232,76,49361,1,8,0:2:0:0:
264,112,49472,1,8,0:2:0:0:
328,156,49583,1,8,0:3:0:0:
324,232,49694,1,4,0:3:0:0:
242,284,49805,6,0,L|196:271,1,46.8750017881394,8|0,1:2|0:0,0:0:0:0:
464,228,50139,6,0,L|509:215,1,46.8750017881394,8|0,1:2|0:0,0:0:0:0:
367,384,50472,6,0,L|379:338,1,46.8750017881394,8|0,1:2|0:0,0:0:0:0:
504,1,50916,5,2,0:0:0:0:
508,25,51138,1,2,0:0:0:0:
512,49,51361,1,2,0:0:0:0:
471,116,51583,6,0,B|426:132|420:169|420:169|398:137|318:143,1,156.25,6|2,1:2|0:0,0:0:0:0:
124,36,51916,1,2,0:0:0:0:
196,4,52027,2,0,B|201:71|201:71|206:79|206:79|213:159,1,156.25,10|2,1:2|0:0,0:0:0:0:
16,268,52361,1,2,0:0:0:0:
0,192,52472,6,0,B|40:178|73:211|73:211|101:244|150:232,1,156.25,2|2,1:2|0:0,0:0:0:0:
304,336,52805,1,0,0:0:0:0:
380,316,52916,2,0,P|366:280|333:261,1,78.125,10|0,1:2|0:0,0:0:0:0:
132,308,53139,2,0,L|118:384,1,78.125,2|0,0:0|0:0,0:0:0:0:
196,124,53361,6,0,P|170:52|98:29,2,156.25,0|2|10,1:2|0:0|1:2,0:0:0:0:
196,124,54027,2,0,B|156:128|156:128|200:108,1,78.125,2|0,0:0|0:0,0:0:0:0:
280,16,54250,5,2,1:2:0:0:
388,32,54361,1,2,0:0:0:0:
280,16,54472,2,0,L|293:92,1,78.125,2|0,0:0|0:0,0:0:0:0:
464,228,54694,2,0,P|477:192|510:173,1,78.125,10|0,1:2|0:0,0:0:0:0:
242,178,54916,2,0,P|208:159|195:123,1,78.125,2|2,0:0|0:0,0:0:0:0:
457,310,55139,6,0,B|386:322|386:322|380:321|380:321|303:335,1,156.25,2|2,1:2|0:0,0:0:0:0:
96,256,55472,1,2,0:0:0:0:
172,240,55583,2,0,B|182:280|149:308|149:308|116:341|130:381,1,156.25,10|2,1:2|0:0,0:0:0:0:
384,212,55916,1,2,0:0:0:0:
348,148,56027,6,0,B|277:136|277:136|271:137|271:137|194:123,1,156.25,2|2,1:2|0:0,0:0:0:0:
44,0,56361,1,0,0:0:0:0:
112,32,56472,2,0,P|111:70|88:101,1,78.125,10|0,1:2|0:0,0:0:0:0:
360,64,56694,2,0,L|436:50,1,78.125,2|0,0:0|0:0,0:0:0:0:
128,176,56916,6,0,L|156:329,1,156.25,0|2,1:2|0:0,0:0:0:0:
100,384,57250,1,0,0:0:0:0:
32,352,57361,2,0,B|-8:356|-8:356|36:336,1,78.125,10|0,0:2|0:0,0:0:0:0:
216,244,57583,2,0,B|256:240|256:240|212:260,1,78.125,2|0,0:0|0:2,0:0:0:0:
40,164,57805,5,0,1:0:0:0:
88,101,57916,2,0,P|115:73|153:68,1,78.125,8|0,0:2|0:0,0:0:0:0:
152,67,58139,1,0,1:0:0:0:
200,130,58250,2,0,P|227:158|265:163,1,78.125,8|0,0:2|0:0,0:0:0:0:
412,12,58472,1,8,0:2:0:0:
360,64,58583,1,8,0:2:0:0:
416,124,58694,6,0,B|391:188|446:236|449:235|453:233|510:276|486:341,1,234.375,6|0,1:2|0:0,0:0:0:0:
392,376,59139,2,0,P|388:338|415:312,1,78.125,10|0,1:2|0:0,0:0:0:0:
496,164,59361,2,0,B|430:146|430:146|425:149|425:149|345:127,1,156.25,2|0,0:0|1:0,0:0:0:0:
24,56,59805,5,2,0:0:0:0:
92,28,59916,1,0,0:0:0:0:
140,88,60027,2,0,L|153:164,1,78.125,10|0,1:2|0:0,0:0:0:0:
0,268,60250,2,0,L|13:191,1,78.125,2|0,0:0|0:0,0:0:0:0:
308,236,60472,6,0,B|280:192|223:202|223:202|208:232|176:240,1,156.25,0|2,1:2|0:0,0:0:0:0:
92,28,60805,1,0,0:0:0:0:
140,88,60916,2,0,L|153:164,1,78.125,10|0,1:2|0:0,0:0:0:0:
360,332,61139,2,0,P|393:265|467:264,1,156.25,2|0,0:0|1:2,0:0:0:0:
480,28,61583,5,2,0:0:0:0:
416,64,61694,1,0,0:0:0:0:
436,140,61805,2,0,L|512:153,1,78.125,10|0,1:2|0:0,0:0:0:0:
415,63,62027,2,0,L|339:50,1,78.125,2|0,0:0|0:0,0:0:0:0:
153,164,62250,5,0,1:2:0:0:
153,164,62472,1,2,0:0:0:0:
217,200,62583,1,0,0:0:0:0:
197,276,62694,2,0,L|120:289,1,78.125,10|0,1:2|0:0,0:0:0:0:
217,199,62916,2,0,L|293:185,1,78.125,2|0,0:0|0:0,0:0:0:0:
284,272,63139,6,0,P|303:305|299:343,1,78.125,2|0,1:2|0:0,0:0:0:0:
148,160,63361,2,0,P|143:121|163:88,1,78.125,2|0,0:0|0:0,0:0:0:0:
444,152,63583,6,0,L|367:165,1,78.125,10|0,1:2|0:0,0:0:0:0:
43,303,63805,2,0,L|119:289,1,78.125,2|0,0:0|0:0,0:0:0:0:
244,100,64027,5,2,1:2:0:0:
248,68,64139,1,2,0:0:0:0:
252,36,64250,1,2,0:0:0:0:
256,4,64361,1,2,0:0:0:0:
344,0,64472,5,14,1:2:0:0:
368,8,64583,1,0,0:0:0:0:
432,56,64694,1,2,0:0:0:0:
456,48,64805,1,0,0:0:0:0:
496,124,64916,5,10,1:2:0:0:
444,152,65027,1,8,0:2:0:0:
424,208,65139,1,10,0:2:0:0:
452,260,65250,1,8,0:2:0:0:
512,316,65361,5,10,1:2:0:0:
441,268,65472,1,8,0:2:0:0:
363,302,65583,1,10,0:2:0:0:
339,382,65694,1,8,0:2:0:0:
329,377,65805,6,0,B|322:305|322:305|318:301|318:301|311:223,1,156.25,6|2,1:2|0:0,0:0:0:0:
124,128,66139,1,2,0:0:0:0:
88,196,66250,2,0,P|147:148|223:153,1,156.25,10|2,1:2|0:0,0:0:0:0:
504,200,66584,1,2,0:0:0:0:
452,260,66695,6,0,B|441:219|474:191|474:191|507:158|493:118,1,156.25,2|2,1:2|0:0,0:0:0:0:
280,0,67028,1,0,0:0:0:0:
212,28,67139,2,0,P|231:61|267:75,1,78.125,10|0,1:2|0:0,0:0:0:0:
493,118,67361,2,0,P|473:84|437:70,1,78.125,2|0,0:0|0:0,0:0:0:0:
244,252,67584,6,0,B|205:254|174:217|174:217|166:264|130:282,2,156.25,0|2|10,1:2|0:0|1:2,0:0:0:0:
244,252,68250,2,0,B|167:265,1,78.125,2|0,0:0|0:0,0:0:0:0:
0,112,68473,5,2,1:2:0:0:
96,68,68584,1,2,0:0:0:0:
0,111,68695,2,0,P|-7:148|8:183,1,78.125,2|0,0:0|0:0,0:0:0:0:
332,228,68917,2,0,P|319:192|286:173,1,78.125,10|0,1:2|0:0,0:0:0:0:
56,260,69139,2,0,L|42:336,1,78.125,2|0,0:0|0:0,0:0:0:0:
300,320,69362,6,0,B|341:309|373:343|373:343|403:371|443:361,1,156.25,2|2,1:2|0:0,0:0:0:0:
512,224,69695,1,2,0:0:0:0:
484,148,69806,2,0,B|471:164|447:161|447:161|427:276,1,156.25,10|2,1:2|0:0,0:0:0:0:
232,360,70139,1,2,0:0:0:0:
300,320,70250,5,10,1:2:0:0:
296,248,70361,1,8,0:2:0:0:
248,212,70472,1,10,0:3:0:0:
208,216,70583,1,4,0:3:0:0:
204,236,70694,1,2,1:2:0:0:
204,236,70917,6,0,B|153:255|115:212|115:212|83:174|22:187,1,187.500007152558,14|0,0:2|1:0,0:0:0:0:
34,184,71361,2,0,P|5:159|0:120,1,78.125,2|0,0:0|0:0,0:0:0:0:
0,36,71583,2,0,P|25:7|64:2,1,78.125,10|0,1:2|0:0,0:0:0:0:
272,44,71805,6,0,L|280:137,1,93.7500035762788,14|0,0:2|0:0,0:0:0:0:
444,292,72027,1,0,1:2:0:0:
456,252,72139,1,8,0:2:0:0:
436,216,72250,1,8,0:2:0:0:
392,204,72361,1,8,0:2:0:0:
324,260,72472,5,8,1:2:0:0:
280,296,72583,1,8,0:2:0:0:
228,284,72694,1,8,0:2:0:0:
212,236,72805,1,8,0:2:0:0:
224,236,72917,6,0,B|160:261|112:206|113:203|115:199|72:142|7:166,1,234.375,4|0,1:2|0:0,0:0:0:0:
16,304,73362,2,0,P|12:266|39:240,1,78.125,10|0,1:2|0:0,0:0:0:0:
196,160,73584,2,0,P|273:138|292:60,1,156.25,2|0,0:0|1:0,0:0:0:0:
155,331,74028,5,2,0:0:0:0:
211,383,74139,1,0,0:0:0:0:
283,347,74250,2,0,L|296:269,1,78.125,10|0,1:2|0:0,0:0:0:0:
182,82,74472,2,0,L|195:159,1,78.125,2|0,0:0|0:0,0:0:0:0:
360,184,74695,6,0,B|438:170|438:170|442:165|442:165|516:152,1,156.25,0|2,1:2|0:0,0:0:0:0:
501,34,75028,1,0,0:0:0:0:
433,0,75139,2,0,P|399:22|388:62,1,78.125,10|0,1:2|0:0,0:0:0:0:
295,269,75362,2,0,L|281:192,1,78.125,2|0,0:0|0:2,0:0:0:0:
152,76,75583,5,2,1:2:0:0:
144,100,75694,1,2,0:0:0:0:
204,152,75806,1,2,0:0:0:0:
212,176,75917,1,2,0:0:0:0:
156,232,76027,2,0,L|143:308,1,78.125,8|0,1:2|0:0,0:0:0:0:
10,162,76250,2,0,L|88:176,1,78.125,2|0,0:0|0:0,0:0:0:0:
144,100,76472,6,0,L|66:86,1,78.125,2|0,1:2|0:0,0:0:0:0:
212,176,76694,2,0,L|289:162,1,78.125,2|0,0:0|0:0,0:0:0:0:
312,4,76917,2,0,L|235:17,1,78.125,10|0,1:2|0:0,0:0:0:0:
368,140,77139,2,0,L|444:126,1,78.125,2|0,0:0|0:0,0:0:0:0:
203,349,77362,6,0,P|165:338|141:308,1,78.125,2|0,1:2|0:0,0:0:0:0:
288,162,77584,2,0,P|302:197|293:234,1,78.125,2|0,0:0|0:0,0:0:0:0:
79,218,77805,6,0,L|155:231,1,78.125,10|0,1:2|0:0,0:0:0:0:
279,335,78027,2,0,L|202:348,1,78.125,2|0,0:0|0:0,0:0:0:0:
420,240,78250,5,2,1:2:0:0:
456,232,78362,1,2,0:0:0:0:
484,248,78473,1,2,0:0:0:0:
492,276,78584,1,2,0:0:0:0:
511,359,78694,6,0,B|407:346|407:346|399:349|399:349|278:334,1,234.375,12|8,1:2|0:2,0:0:0:0:
202,348,79139,2,0,L|181:272,1,78.125,8|0,1:3|0:0,0:0:0:0:
224,104,79362,1,10,0:2:0:0:
232,128,79473,1,8,0:2:0:0:
196,196,79584,5,10,1:2:0:0:
120,180,79695,1,8,0:2:0:0:
96,108,79806,1,10,0:2:0:0:
144,44,79917,1,8,0:2:0:0:
216,72,80027,6,0,B|290:58|290:58|298:53|298:53|368:40,1,156.25,4|0,1:2|0:0,0:0:0:0:
424,88,80694,2,0,L|444:163,1,78.125,0|0,1:0|1:0,0:0:0:0:
500,384,80916,1,8,0:2:0:0:
200,176,81805,6,0,B|164:148|104:136|44:176|44:176|96:208|92:280,1,234.375,6|2,1:2|0:0,0:0:0:0:
12,248,82249,2,0,P|-7:281|1:318,1,78.125,8|0,1:2|0:0,0:0:0:0:
172,376,82471,1,2,0:0:0:0:
116,320,82582,1,8,0:2:0:0:
172,376,82694,2,0,L|249:362,1,78.125,0|0,1:0|0:0,0:0:0:0:
472,248,82916,5,2,0:0:0:0:
392,237,83027,1,2,0:0:0:0:
379,312,83138,1,10,1:2:0:0:
457,326,83249,1,2,0:0:0:0:
472,248,83360,1,2,0:0:0:0:
468,228,83471,1,10,0:2:0:0:
464,208,83582,6,0,B|359:180|359:180|354:182|354:182|238:151,1,234.375,2|2,1:2|0:0,0:0:0:0:
164,140,84027,2,0,P|164:179|189:209,1,78.125,8|0,1:2|0:0,0:0:0:0:
316,84,84249,1,2,0:0:0:0:
252,36,84360,1,8,0:2:0:0:
316,84,84471,2,0,L|336:8,1,78.125,0|0,1:0|0:0,0:0:0:0:
112,40,84694,6,0,P|150:39|179:64,1,78.125
187,208,84916,2,0,P|157:232|119:232,1,78.125,8|0,1:2|0:0,0:0:0:0:
0,320,85138,5,2,0:0:0:0:
4,332,85212,5,2,0:0:0:0:
8,344,85286,5,2,0:0:0:0:
12,356,85360,6,0,B|79:301|150:327|150:327|171:386|247:387,1,234.375,2|2,1:2|0:0,0:0:0:0:
292,352,85805,2,0,P|268:321|231:309,1,78.125,8|0,1:2|0:0,0:0:0:0:
68,240,86027,1,2,0:0:0:0:
136,208,86138,1,8,0:2:0:0:
68,240,86249,2,0,L|74:160,1,78.125,0|0,1:0|0:0,0:0:0:0:
176,24,86471,5,2,0:0:0:0:
189,98,86582,1,2,0:0:0:0:
267,84,86694,1,10,1:2:0:0:
254,10,86805,1,2,0:0:0:0:
176,24,86916,1,2,0:0:0:0:
152,28,87027,1,10,0:2:0:0:
132,32,87139,6,0,B|118:106|118:106|121:115|121:115|108:185,1,156.25,6|0,1:2|0:0,0:0:0:0:
140,256,87472,2,0,P|171:235|189:200,1,78.125,10|0,0:2|1:0,0:0:0:0:
4,56,87805,2,0,L|17:132,1,78.125,12|0,0:2|0:0,0:0:0:0:
66,266,88027,6,0,P|104:271|139:255,1,78.125,0|8,1:0|0:2,0:0:0:0:
332,116,88249,1,8,0:2:0:0:
287,130,88360,1,8,0:2:0:0:
267,174,88471,1,8,1:2:0:0:
280,216,88582,1,8,0:2:0:0:
312,244,88694,1,8,0:2:0:0:
356,240,88805,1,8,0:2:0:0:
360,224,88916,5,6,1:2:0:0:
508,124,89250,1,2,0:0:0:0:
492,276,89583,1,2,0:0:0:0:
152,224,90694,5,2,0:0:0:0:
4,124,91028,1,2,0:0:0:0:
20,276,91361,1,2,0:0:0:0:
256,384,92250,5,2,0:0:0:0:
256,364,92361,1,2,0:0:0:0:
256,344,92472,1,2,0:0:0:0:
168,232,92805,1,2,0:0:0:0:
344,232,93139,1,2,0:0:0:0:
256,40,94250,5,2,0:0:0:0:
344,152,94583,1,2,0:0:0:0:
164,152,94917,1,2,0:0:0:0:
256,116,95361,5,2,0:0:0:0:
256,132,95805,1,8,0:2:0:0:
256,152,95916,1,8,0:2:0:0:
212,216,96027,6,0,L|302:191,1,93.7500035762788,6|0,1:2|0:0,0:0:0:0:
324,208,96361,2,0,P|338:225|340:249,1,46.8750017881394,2|0,0:0|1:0,0:0:0:0:
136,336,96694,2,0,L|127:242,1,93.7500035762788,2|0,0:0|1:0,0:0:0:0:
127,242,97138,2,0,P|103:244|83:232,1,46.8750017881394,2|0,0:0|0:0,0:0:0:0:
28,144,97360,1,2,1:2:0:0:
28,144,97582,2,0,P|49:134|72:131,1,46.8750017881394,2|0,0:0|0:0,0:0:0:0:
176,0,97805,6,0,L|184:94,1,93.7500035762788,2|2,1:2|0:0,0:0:0:0:
204,108,98138,2,0,L|250:94,1,46.8750017881394,2|0,0:0|1:0,0:0:0:0:
340,164,98360,1,2,0:0:0:0:
351,144,98471,2,0,P|395:156|419:195,2,93.7500035762788,2|0|0,0:0|1:0|0:0,0:0:0:0:
220,288,99138,1,2,1:2:0:0:
220,288,99360,2,0,L|267:279,1,46.8750017881394,2|0,0:0|0:0,0:0:0:0:
388,280,99582,6,0,P|330:315|327:383,1,140.625005364418,0|0,1:0|0:0,0:0:0:0:
436,384,100027,1,2,1:2:0:0:
436,384,100249,2,0,L|441:337,1,46.8750017881394,2|0,0:0|0:0,0:0:0:0:
512,256,100471,1,0,1:0:0:0:
512,256,100694,2,0,L|506:196,1,46.8750017881394
412,64,100916,1,2,1:2:0:0:
372,100,101027,1,2,0:0:0:0:
324,88,101138,1,2,0:0:0:0:
308,48,101249,1,2,0:0:0:0:
320,44,101361,6,0,L|309:168,1,125,6|2,1:2|0:0,0:0:0:0:
364,224,101694,2,0,P|339:242|308:246,1,62.5,10|0,0:2|1:0,0:0:0:0:
224,168,101916,1,2,0:2:0:0:
228,152,102027,2,0,L|233:89,1,62.5,10|0,0:2|0:0,0:0:0:0:
417,1,102250,2,0,L|411:63,1,62.5,2|8,1:2|0:2,0:0:0:0:
472,168,102471,5,8,0:2:0:0:
496,220,102582,1,8,0:2:0:0:
468,272,102694,1,8,1:2:0:0:
412,288,102805,1,8,0:2:0:0:
368,252,102916,1,8,0:3:0:0:
360,232,103027,1,4,0:3:0:0:
288,180,103139,6,0,L|240:176,1,46.8750017881394,2|0,1:2|0:0,0:0:0:0:
424,112,103472,6,0,L|471:116,1,46.8750017881394,2|0,1:2|0:0,0:0:0:0:
316,8,103806,6,0,L|312:55,1,46.8750017881394,2|0,1:2|0:0,0:0:0:0:
224,204,104916,6,0,L|271:208,1,46.8750017881394,2|0,1:2|0:0,0:0:0:0:
88,272,105249,6,0,L|41:268,1,46.8750017881394,2|0,1:2|0:0,0:0:0:0:
196,376,105583,6,0,L|200:329,1,46.8750017881394,2|0,1:2|0:0,0:0:0:0:
224,88,106028,5,2,0:0:0:0:
256,68,106139,1,2,0:0:0:0:
288,88,106250,1,2,0:0:0:0:
152,140,106695,6,0,L|106:127,1,46.8750017881394,2|0,1:2|0:0,0:0:0:0:
360,140,107027,6,0,L|405:127,1,46.8750017881394,2|0,1:2|0:0,0:0:0:0:
256,276,107362,6,0,L|256:322,1,46.8750017881394,2|0,1:2|0:0,0:0:0:0:
452,232,107805,5,2,0:0:0:0:
452,200,107916,1,2,0:0:0:0:
480,188,108027,2,0,L|510:193,2,31.25,2|2|2,0:0|0:0|0:0,0:0:0:0:
480,188,108472,6,0,B|487:104|487:104|489:97|489:97|498:1,2,187.5,6|2|2,1:2|1:2|1:2,0:0:0:0:
480,188,109361,2,0,P|459:198|436:199,1,46.8750017881394,10|0,0:2|0:0,0:0:0:0:
288,112,109583,1,8,0:2:0:0:
248,148,109695,1,8,0:2:0:0:
252,200,109806,1,10,0:2:0:0:
300,224,109917,1,8,0:2:0:0:
320,276,110028,1,8,0:3:0:0:
312,296,110139,1,4,0:3:0:0:
304,312,110250,6,0,L|197:293,1,93.7500035762788,6|10,1:2|0:0,0:0:0:0:
112,268,110583,1,8,0:2:0:0:
120,244,110695,2,0,L|166:235,1,46.8750017881394,2|0,1:2|0:0,0:0:0:0:
24,328,110917,2,0,L|31:282,1,46.8750017881394,10|8,0:2|0:2,0:0:0:0:
48,184,111139,2,0,L|39:138,1,46.8750017881394,2|0,1:2|0:0,0:0:0:0:
220,80,111361,1,10,0:2:0:0:
220,80,111472,1,8,0:2:0:0:
220,80,111583,2,0,L|211:126,1,46.8750017881394,2|0,1:2|0:0,0:0:0:0:
112,64,111806,2,0,L|103:17,1,46.8750017881394,10|8,0:2|0:2,0:0:0:0:
304,28,112028,6,0,P|324:30|347:45,1,46.8750017881394,2|0,1:2|0:0,0:0:0:0:
448,88,112250,2,0,L|401:96,1,46.8750017881394,10|8,0:2|0:2,0:0:0:0:
292,160,112472,2,0,P|312:162|335:177,1,46.8750017881394,2|0,1:2|0:0,0:0:0:0:
448,292,112694,2,0,L|401:300,1,46.8750017881394,10|8,0:2|0:2,0:0:0:0:
324,288,112917,2,0,L|278:279,1,46.8750017881394,0|0,1:2|0:0,0:0:0:0:
192,264,113139,1,8,0:2:0:0:
192,264,113250,1,8,0:2:0:0:
192,264,113361,2,0,L|183:217,1,46.8750017881394,0|0,1:2|0:0,0:0:0:0:
72,120,113583,1,10,0:2:0:0:
72,120,113695,1,8,0:2:0:0:
72,120,113806,5,14,1:2:0:0:
112,80,113917,1,8,0:2:0:0:
168,100,114028,1,8,0:2:0:0:
192,156,114139,1,8,0:2:0:0:
252,164,114250,1,8,0:2:0:0:
296,132,114361,1,8,0:2:0:0:
296,76,114472,1,10,0:2:0:0:
286,57,114583,1,10,0:2:0:0:
380,51,114695,5,10,0:3:0:0:
418,60,114806,1,8,0:3:0:0:
461,72,114917,1,8,0:3:0:0:
471,87,115028,1,8,0:3:0:0:
452,173,115139,5,6,0:3:0:0:
444,197,115250,1,4,0:3:0:0:
420,213,115361,1,4,0:3:0:0:
393,210,115472,1,4,0:3:0:0:
320,170,115583,6,0,B|270:150|235:192|235:192|196:232|139:218,2,187.5,6|2|2,1:2|1:2|1:2,0:0:0:0:
320,170,116472,2,0,P|303:153|295:131,1,46.8750017881394,12|0,0:2|0:0,0:0:0:0:
168,12,116695,5,8,0:2:0:0:
128,24,116806,1,8,0:2:0:0:
100,68,116917,1,8,0:2:0:0:
116,124,117028,1,8,0:2:0:0:
176,168,117139,1,8,0:3:0:0:
208,248,117250,1,4,0:3:0:0:
136,348,117361,5,2,1:2:0:0:
132,364,117694,1,2,0:0:0:0:
128,384,118027,1,2,0:0:0:0:
380,188,118472,5,0,1:0:0:0:
428,252,118583,1,0,1:0:0:0:
368,196,118694,2,0,B|321:200|321:200|364:185,1,93.75,8|0,0:2|0:0,0:0:0:0:
440,132,119139,6,0,B|447:207|447:207|443:212|443:212|450:286,1,156.25,6|2,1:2|0:0,0:0:0:0:
180,336,119472,1,2,0:0:0:0:
233,275,119583,2,0,P|306:289|331:359,1,156.25,10|2,1:2|0:0,0:0:0:0:
32,316,119917,1,2,0:0:0:0:
16,236,120028,6,0,B|3:159,1,78.125,2|0,1:2|0:0,0:0:0:0:
244,0,120250,2,0,B|231:76,1,78.125,2|0,0:2|0:0,0:0:0:0:
88,164,120472,2,0,L|75:86,1,78.125,10|0,1:2|0:0,0:0:0:0:
312,104,120695,2,0,L|298:180,1,78.125,2|0,0:0|0:0,0:0:0:0:
512,316,120917,6,0,B|473:315|447:279|447:279|438:321|397:335,2,156.25,0|2|10,1:2|0:0|1:2,0:0:0:0:
512,316,121583,2,0,B|436:329,1,78.125,2|0,0:0|0:0,0:0:0:0:
172,384,121806,5,2,1:2:0:0:
107,296,121917,1,2,0:0:0:0:
172,384,122028,2,0,P|207:367|219:331,1,78.125,2|0,0:0|0:0,0:0:0:0:
40,132,122250,2,0,L|47:209,1,78.125,10|0,1:2|0:0,0:0:0:0:
196,16,122472,2,0,L|120:2,1,78.125,2|2,0:0|0:0,0:0:0:0:
312,104,122695,6,0,B|357:91|386:123|386:123|414:156|463:144,1,156.25,2|2,1:2|0:0,0:0:0:0:
432,356,123028,1,2,0:0:0:0:
360,332,123139,2,0,B|347:257|347:257|343:253|343:253|330:180,1,156.25,10|2,1:2|0:0,0:0:0:0:
108,132,123472,1,2,0:0:0:0:
184,148,123583,6,0,P|175:185|144:207,1,78.125,2|2,1:2|0:0,0:0:0:0:
28,116,123805,2,0,L|42:40,1,78.125,2|0,0:0|0:0,0:0:0:0:
236,0,124028,2,0,P|263:27|268:65,1,78.125,10|0,1:2|0:0,0:0:0:0:
468,132,124250,2,0,B|508:128|508:128|471:120,1,78.125,2|0,0:0|0:0,0:0:0:0:
388,56,124472,6,0,B|376:126|376:126|379:131|379:131|366:208,1,156.25,0|2,1:2|0:0,0:0:0:0:
220,260,124805,1,0,0:0:0:0:
276,308,124917,2,0,P|314:314|347:294,1,78.125,10|0,0:2|0:0,0:0:0:0:
152,132,125139,2,0,B|166:208,1,78.125,2|0,0:0|0:2,0:0:0:0:
32,376,125361,6,0,B|64:198|64:198|58:234|21:256,1,234.375,0|0,1:2|0:0,0:0:0:0:
8,84,125806,2,0,P|47:89|73:117,1,78.125,8|0,1:2|0:0,0:0:0:0:
188,328,126028,1,8,0:2:0:0:
256,272,126139,1,8,0:2:0:0:
180,312,126250,6,0,B|245:316|299:240|259:159|153:184|186:259,1,234.375,6|0,1:2|0:0,0:0:0:0:
288,360,126695,2,0,L|365:346,1,78.125,10|0,1:2|0:0,0:0:0:0:
512,244,126917,2,0,B|359:271,1,156.25,2|0,0:0|1:0,0:0:0:0:
140,56,127361,5,2,0:0:0:0:
180,120,127472,1,0,0:0:0:0:
120,172,127583,2,0,L|44:159,1,78.125,10|0,1:2|0:0,0:0:0:0:
244,8,127806,2,0,P|261:42|253:80,1,78.125,2|0,0:0|0:0,0:0:0:0:
68,264,128028,6,0,B|112:248|140:280|140:280|172:312|212:305,1,156.25,0|2,1:2|0:0,0:0:0:0:
268,96,128361,1,0,0:0:0:0:
212,152,128472,2,0,P|196:186|204:224,1,78.125,10|0,0:2|0:0,0:0:0:0:
388,324,128695,2,0,P|355:257|281:256,1,156.25,2|0,0:0|1:2,0:0:0:0:
36,384,129139,5,2,0:0:0:0:
108,348,129250,1,0,0:0:0:0:
80,272,129361,2,0,L|4:259,1,78.125,10|0,1:2|0:0,0:0:0:0:
109,349,129583,2,0,L|185:362,1,78.125,2|0,0:0|0:0,0:0:0:0:
409,183,129806,5,0,1:2:0:0:
409,183,130028,1,2,0:0:0:0:
372,252,130139,1,0,0:0:0:0:
297,227,130250,2,0,L|284:150,1,78.125,10|0,1:2|0:0,0:0:0:0:
373,253,130472,2,0,L|387:329,1,78.125,2|0,0:0|0:0,0:0:0:0:
196,172,130694,6,0,P|191:133|211:101,1,78.125,2|0,1:2|0:0,0:0:0:0:
387,181,130917,2,0,P|391:219|372:252,1,78.125,2|0,0:0|0:0,0:0:0:0:
176,28,131139,6,0,P|205:3|244:0,1,78.125,10|0,1:2|0:0,0:0:0:0:
297,227,131361,2,0,P|267:251|229:258,1,78.125,2|0,0:0|0:0,0:0:0:0:
356,24,131583,5,2,1:2:0:0:
384,28,131695,1,2,0:0:0:0:
408,32,131806,1,2,0:0:0:0:
432,36,131917,1,2,0:0:0:0:
504,92,132028,5,14,1:2:0:0:
512,116,132139,1,0,0:0:0:0:
456,172,132250,1,2,0:0:0:0:
448,196,132361,1,0,0:0:0:0:
480,284,132472,5,10,1:2:0:0:
425,266,132583,1,8,0:2:0:0:
370,292,132695,1,10,0:2:0:0:
353,349,132806,1,8,0:2:0:0:
256,384,132917,5,10,1:2:0:0:
168,356,133028,1,8,0:2:0:0:
144,272,133139,1,10,0:2:0:0:
200,208,133250,1,8,0:2:0:0:
208,220,133361,6,0,B|257:215|278:246|278:246|276:210|327:189,1,156.25,6|2,1:2|0:0,0:0:0:0:
496,48,133695,1,2,0:0:0:0:
420,72,133806,2,0,B|350:59|350:59|346:54|346:54|269:41,1,156.25,10|2,1:2|0:0,0:0:0:0:
8,92,134140,1,2,0:0:0:0:
0,168,134251,6,0,B|40:182|73:149|73:149|101:116|142:127,1,156.25,2|2,1:2|0:0,0:0:0:0:
276,248,134584,1,0,0:0:0:0:
324,190,134695,2,0,P|305:157|269:143,1,78.125,10|0,1:2|0:0,0:0:0:0:
80,240,134917,2,0,L|67:316,1,78.125,2|0,0:0|0:0,0:0:0:0:
304,328,135140,6,0,B|378:315|378:315|384:318|384:318|459:304,2,156.25,0|2|10,1:2|0:0|1:2,0:0:0:0:
304,328,135806,2,0,P|281:298|243:292,1,78.125,2|0,0:0|0:0,0:0:0:0:
32,161,136027,5,2,1:2:0:0:
80,240,136140,1,2,0:0:0:0:
32,161,136251,2,0,P|25:124|40:89,1,78.125,2|0,0:0|0:0,0:0:0:0:
260,0,136473,2,0,L|267:77,1,78.125,10|0,1:2|0:0,0:0:0:0:
124,328,136695,2,0,L|48:314,1,78.125,2|0,0:0|0:0,0:0:0:0:
288,224,136916,6,0,B|304:190|351:177|381:185|381:185|387:217|428:229,1,156.25,2|2,1:2|0:0,0:0:0:0:
504,48,137251,1,2,0:0:0:0:
440,0,137362,2,0,B|454:155,1,156.25,10|2,1:2|0:0,0:0:0:0:
188,120,137695,1,2,0:0:0:0:
267,77,137806,5,10,1:2:0:0:
328,120,137917,1,8,0:2:0:0:
324,168,138028,1,10,0:3:0:0:
308,184,138139,1,4,0:3:0:0:
288,192,138250,1,2,1:2:0:0:
288,192,138473,6,0,B|149:229|149:229|173:223|187:198,1,187.500007152558,14|0,0:2|1:0,0:0:0:0:
120,164,138917,2,0,P|124:202|152:228,1,78.125,2|0,0:0|0:0,0:0:0:0:
344,252,139139,2,0,P|372:225|376:187,1,78.125,10|0,1:2|0:0,0:0:0:0:
84,304,139361,6,0,L|175:328,1,93.7500035762788,14|0,0:2|0:0,0:0:0:0:
396,340,139583,1,0,1:2:0:0:
408,300,139695,1,8,0:2:0:0:
388,264,139806,1,8,0:2:0:0:
344,252,139917,1,8,0:2:0:0:
288,192,140027,5,8,1:2:0:0:
276,152,140139,1,8,0:2:0:0:
296,116,140250,1,8,0:2:0:0:
340,104,140361,1,8,0:2:0:0:
352,112,140473,6,0,B|307:79|247:80|213:99|213:99|205:151|147:170,1,234.375,4|0,1:2|0:0,0:0:0:0:
80,144,140916,2,0,P|96:109|134:91,1,78.125,10|0,1:2|0:0,0:0:0:0:
260,268,141140,2,0,L|107:240,1,156.25,2|0,0:0|1:0,0:0:0:0:
408,0,141584,5,2,0:0:0:0:
372,68,141695,1,0,0:0:0:0:
432,116,141806,2,0,L|510:102,1,78.125,10|0,1:2|0:0,0:0:0:0:
352,252,142028,2,0,P|335:286|338:324,1,78.125,2|0,0:0|0:0,0:0:0:0:
460,228,142251,6,0,B|382:214|382:214|378:209|378:209|304:196,1,156.25,0|2,1:2|0:0,0:0:0:0:
116,312,142584,1,0,0:0:0:0:
192,296,142695,2,0,P|180:259|147:239,1,78.125,10|0,1:2|0:0,0:0:0:0:
16,276,142916,2,0,L|2:353,1,78.125,2|0,0:0|0:2,0:0:0:0:
176,160,143139,5,2,1:2:0:0:
184,136,143250,1,2,0:0:0:0:
128,80,143362,1,2,0:0:0:0:
136,56,143473,1,2,0:0:0:0:
72,0,143583,2,0,L|52:76,1,78.125,8|0,1:2|0:0,0:0:0:0:
244,200,143806,2,0,L|321:186,1,78.125,2|0,0:0|0:0,0:0:0:0:
380,0,144028,6,0,P|365:34|375:71,1,78.125,2|0,1:2|0:0,0:0:0:0:
488,104,144250,2,0,P|504:69|495:31,1,78.125,2|0,0:0|0:0,0:0:0:0:
296,108,144472,1,14,1:2:0:0:
484,248,144694,1,2,0:0:0:0:
416,208,144805,1,8,0:2:0:0:
356,260,144916,6,0,L|343:336,1,78.125,10|0,1:3|0:0,0:0:0:0:
128,384,145139,1,10,0:2:0:0:
112,368,145250,1,8,0:2:0:0:
96,332,145361,1,10,1:2:0:0:
108,280,145472,1,8,0:2:0:0:
180,248,145583,1,10,0:2:0:0:
220,176,145694,1,8,0:2:0:0:
148,96,145805,6,0,L|25:117,2,125,4|0|8,1:2|0:0|1:2,0:0:0:0:
324,68,146472,2,0,P|334:127|293:171,1,125,0|0,0:0|1:2,0:0:0:0:
148,96,146916,2,0,P|182:46|242:44,1,125,0|8,0:0|1:2,0:0:0:0:
184,184,147361,2,0,L|122:194,1,62.5,2|0,0:0|0:0,0:0:0:0:
60,264,147583,6,0,P|35:319|61:374,2,125,2|2|10,1:2|0:0|1:2,0:0:0:0:
204,320,148250,2,0,L|214:382,1,62.5,2|0,0:0|0:0,0:0:0:0:
300,336,148472,1,2,1:2:0:0:
116,320,148694,1,2,0:0:0:0:
308,320,148916,1,10,1:2:0:0:
244,236,149139,2,0,L|254:174,1,62.5,2|0,0:0|0:0,0:0:0:0:
408,232,149361,6,0,P|468:236|509:192,2,125,0|0|8,1:2|0:0|1:2,0:0:0:0:
307,111,150027,2,0,L|430:132,1,125,0|0,0:0|1:0,0:0:0:0:
268,368,150472,2,0,P|259:308|303:268,1,125,0|10,0:0|1:2,0:0:0:0:
456,200,150916,2,0,L|466:261,1,62.5,2|0,0:0|0:0,0:0:0:0:
472,360,151139,6,0,L|349:338,2,125,2|2|10,1:2|0:0|1:2,0:0:0:0:
302,268,151806,2,0,L|241:278,1,62.5,2|0,0:0|0:0,0:0:0:0:
96,224,152027,1,2,1:2:0:0:
192,356,152250,1,2,0:0:0:0:
212,156,152472,1,10,1:2:0:0:
4,276,152694,1,10,0:2:0:0:
12,296,152806,1,8,0:2:0:0:
20,316,152916,6,0,L|144:294,2,125,4|0|8,1:2|0:0|1:2,0:0:0:0:
251,257,153583,2,0,P|255:196|211:155,1,125,0|0,0:0|1:2,0:0:0:0:
68,80,154027,2,0,L|57:204,1,125,0|8,0:0|1:2,0:0:0:0:
264,32,154472,2,0,L|325:21,1,62.5,2|0,0:0|0:0,0:0:0:0:
416,80,154694,6,0,P|413:140|458:179,2,125,2|2|10,1:2|0:0|1:2,0:0:0:0:
458,179,155361,2,0,L|447:240,1,62.5,2|0,0:0|0:0,0:0:0:0:
280,328,155583,1,2,1:2:0:0:
360,212,155805,1,2,0:0:0:0:
424,384,156027,1,10,1:2:0:0:
168,280,156250,1,2,0:0:0:0:
120,344,156361,1,8,0:2:0:0:
64,296,156472,6,0,L|43:172,1,125,4|0,1:2|0:0,0:0:0:0:
168,140,156916,2,0,L|190:16,1,125,8|0,1:2|0:0,0:0:0:0:
323,16,157361,6,0,L|344:140,1,125,0|2,1:0|0:0,0:0:0:0:
440,164,157694,1,0,0:0:0:0:
470,172,157805,2,0,L|448:296,1,125,10|2,1:2|0:0,0:0:0:0:
348,360,158139,1,8,0:2:0:0:
332,368,158250,5,14,1:2:0:0:
260,336,158361,1,8,0:2:0:0:
244,260,158472,1,8,0:2:0:0:
304,208,158583,1,8,0:2:0:0:
368,160,158694,1,8,1:2:0:0:
356,88,158805,1,8,0:2:0:0:
292,48,158916,1,8,0:2:0:0:
220,80,159027,1,8,0:2:0:0:
156,196,159139,5,10,1:3:0:0:
60,168,159250,1,8,0:2:0:0:
36,80,159361,1,8,0:2:0:0:
104,16,159472,1,8,0:2:0:0:
192,36,159583,1,8,1:2:0:0:
224,120,159694,1,8,0:2:0:0:
324,128,159805,1,10,0:2:0:0:
332,108,159916,1,10,0:2:0:0:
436,40,160027,6,0,B|471:107|405:152|405:152|354:188|375:266,1,234.375,6|0,1:2|0:0,0:0:0:0:
436,312,160472,2,0,P|460:282|463:244,1,78.125,10|0,1:2|0:0,0:0:0:0:
288,296,160694,2,0,P|317:320|355:323,1,78.125,2|0,0:0|0:0,0:0:0:0:
248,152,160916,1,0,1:2:0:0:
248,152,161027,1,0,0:0:0:0:
248,152,161139,2,0,P|250:190|275:219,1,78.125,2|0,0:0|0:0,0:0:0:0:
364,76,161361,1,8,1:2:0:0:
364,76,161472,1,0,0:0:0:0:
364,76,161584,2,0,P|334:50|296:47,1,78.125,2|0,0:0|0:0,0:0:0:0:
16,28,161805,5,2,1:2:0:0:
66,35,161916,1,2,0:0:0:0:
97,73,162027,1,2,0:0:0:0:
93,130,162139,1,2,0:0:0:0:
16,164,162250,2,0,L|2:240,1,78.125,10|0,1:2|0:0,0:0:0:0:
180,272,162472,2,0,P|147:251|109:255,1,78.125,2|0,0:0|0:0,0:0:0:0:
0,364,162694,6,0,B|79:357|79:357|83:352|83:352|153:346,1,156.25,2|2,1:2|0:0,0:0:0:0:
240,336,162990,5,2,0:0:0:0:
272,316,163065,5,2,0:0:0:0:
288,276,163139,6,0,P|279:238|249:214,1,78.125,10|0,1:2|0:0,0:0:0:0:
384,360,163361,2,0,P|421:351|445:321,1,78.125,2|0,0:0|0:0,0:0:0:0:
378,148,163583,5,2,1:2:0:0:
416,167,163694,1,2,0:0:0:0:
461,150,163805,1,2,0:0:0:0:
477,101,163916,1,2,0:0:0:0:
462,92,164027,2,0,L|449:15,1,78.125,10|0,1:2|0:0,0:0:0:0:
400,240,164250,2,0,L|372:86,1,156.25,2|0,0:2|1:2,0:0:0:0:
204,40,164583,1,0,0:0:0:0:
284,76,164694,2,0,B|238:59|206:96|206:96|176:137|121:119,1,168.75000064373,2|8,0:0|1:2,0:0:0:0:
56,296,165027,1,0,0:0:0:0:
0,240,165139,6,0,P|14:196|55:176,1,93.7500035762788,2|0,0:0|0:0,0:0:0:0:
252,240,165361,1,2,1:2:0:0:
256,272,165472,1,2,0:0:0:0:
260,304,165583,1,2,0:0:0:0:
208,360,165694,1,2,0:0:0:0:
140,336,165805,1,10,1:2:0:0:
128,264,165916,1,2,0:0:0:0:
184,204,166027,2,0,B|231:195|231:195|182:196,1,93.7500035762788,2|0,0:0|0:0,0:0:0:0:
55,176,166250,6,0,P|22:156|8:120,1,78.125,10|0,1:3|0:0,0:0:0:0:
152,16,166472,1,10,0:2:0:0:
216,16,166583,1,8,0:2:0:0:
252,68,166694,1,10,1:3:0:0:
240,88,166805,1,8,0:3:0:0:
240,112,166916,1,6,0:3:0:0:
252,132,167027,1,4,0:3:0:0:
352,152,167139,6,0,L|428:138,1,78.125,4|0,1:2|0:0,0:0:0:0:
496,288,167361,1,2,0:0:0:0:
404,240,167472,1,2,0:0:0:0:
496,288,167583,2,0,L|482:364,1,78.125,10|0,1:2|0:0,0:0:0:0:
336,384,167805,2,0,L|322:307,1,78.125,2|0,0:0|0:0,0:0:0:0:
128,140,168027,5,2,1:2:0:0:
100,208,168139,1,2,0:2:0:0:
136,256,168250,1,2,0:2:0:0:
176,264,168361,1,2,0:2:0:0:
260,224,168472,1,10,1:2:0:0:
176,264,168583,1,2,0:2:0:0:
260,224,168694,6,0,P|244:196|196:179,1,78.125,2|0,0:0|0:0,0:0:0:0:
128,140,168916,2,0,B|214:124|214:124|221:119|221:119|298:105,2,174.999994659424,0|2|10,1:2|0:0|1:2,0:0:0:0:
52,72,169472,1,0,0:0:0:0:
0,8,169583,2,0,P|74:-2|130:48,1,156.25,2|0,0:0|1:2,0:0:0:0:
24,248,170027,5,10,0:2:0:0:
16,284,170139,1,8,0:2:0:0:
12,324,170250,1,10,1:2:0:0:
12,324,170472,6,0,B|130:303|130:303|110:306|82:331,1,156.25,14|0,0:2|1:0,0:0:0:0:
360,384,170916,6,0,P|378:350|373:312,1,78.125,2|0,0:0|0:0,0:0:0:0:
276,148,171139,1,2,1:2:0:0:
264,224,171250,2,0,L|250:300,1,78.125,2|8,0:0|0:2,0:0:0:0:
456,284,171472,1,8,0:2:0:0:
500,248,171583,1,10,1:2:0:0:
512,224,171694,1,8,0:3:0:0:
508,196,171805,1,8,0:3:0:0:
496,184,171916,1,6,0:3:0:0:
488,188,172027,2,0,L|502:264,1,78.125,0|0,1:2|0:0,0:0:0:0:
220,92,172250,6,0,B|181:65|181:19|181:19|158:58|107:61,1,174.999994659424,14|0,0:2|1:0,0:0:0:0:
8,284,172694,5,10,0:2:0:0:
36,232,172805,1,8,0:2:0:0:
92,236,172916,1,8,1:2:0:0:
148,316,173027,5,10,0:2:0:0:
176,368,173138,1,8,0:2:0:0:
232,364,173249,1,8,0:2:0:0:
292,288,173361,5,10,1:2:0:0:
332,245,173472,1,8,0:2:0:0:
385,263,173583,1,8,0:2:0:0:
432,356,173694,6,0,B|476:356|476:356|433:363,1,87.499997329712,10|0,0:3|1:0,0:0:0:0:
433,363,174027,6,0,B|440:279|440:279|444:275|444:275|452:190,1,174.999994659424,14|0,0:2|1:2,0:0:0:0:
484,0,174472,6,0,P|488:22|504:39,1,46.8750017881394,10|0,0:2|0:0,0:0:0:0:
456,100,174694,2,0,P|482:116|512:117,1,62.5,10|0,0:2|0:0,0:0:0:0:
288,320,174916,6,0,P|291:281|320:254,1,78.125,10|0,0:2|0:0,0:0:0:0:
264,194,175139,2,0,P|303:170|350:178,1,93.7500035762788,10|0,0:2|0:0,0:0:0:0:
24,0,175361,6,0,P|27:38|56:65,1,78.125,10|0,0:3|0:0,0:0:0:0:
8,124,175583,2,0,P|34:140|64:141,1,62.5,10|0,0:3|0:0,0:0:0:0:
92,216,175805,2,0,P|114:211|131:195,1,46.8750017881394,6|0,0:3|0:0,0:0:0:0:
212,216,176027,6,0,B|227:167|184:125|184:125|140:87|160:36,1,200,6|2,1:2|0:0,0:0:0:0:
0,216,182916,6,0,B|20:136|120:112|180:156|180:156|128:172|108:220,1,312.5,14|2,1:2|1:2,0:0:0:0:
112,211,183583,2,0,P|127:228|149:237,1,46.8750017881394,2|0,1:2|0:0,0:0:0:0:
456,64,183805,6,0,L|466:2,1,62.5,14|0,1:2|0:0,0:0:0:0:
296,40,184027,1,8,1:2:0:0:
260,80,184139,1,8,0:2:0:0:
260,132,184250,1,8,0:2:0:0:
296,168,184361,1,8,0:2:0:0:
376,168,184472,1,8,1:2:0:0:
436,220,184583,1,8,0:2:0:0:
440,296,184694,1,8,0:2:0:0:
376,344,184805,1,8,0:2:0:0:
288,308,184916,6,0,B|110:276|110:276|138:281|163:267,1,234.375,6|0,1:2|0:0,0:0:0:0:
88,212,185361,2,0,P|115:238|110:275,1,78.125,10|0,1:2|0:0,0:0:0:0:
0,340,185583,2,0,B|40:326|73:359|73:359|105:393|150:380,1,156.25,2|0,0:0|1:0,0:0:0:0:
364,68,186027,5,2,0:0:0:0:
296,40,186138,1,0,0:0:0:0:
248,100,186249,2,0,L|235:176,1,78.125,10|0,1:2|0:0,0:0:0:0:
492,144,186472,2,0,P|474:110|438:97,1,78.125,2|0,0:0|0:0,0:0:0:0:
384,328,186694,6,0,B|372:261|372:261|367:257|367:257|352:175,1,156.25,0|2,1:2|0:0,0:0:0:0:
296,40,187027,1,0,0:0:0:0:
248,100,187138,2,0,L|235:176,1,78.125,10|0,1:2|0:0,0:0:0:0:
21,224,187361,2,0,B|61:210|94:243|94:243|126:277|171:264,1,156.25,2|0,0:0|1:0,0:0:0:0:
364,68,187805,5,2,0:0:0:0:
412,128,187916,1,0,0:0:0:0:
488,108,188027,2,0,L|501:32,1,78.125,10|0,1:2|0:0,0:0:0:0:
411,129,188249,2,0,L|398:205,1,78.125,2|0,0:0|0:0,0:0:0:0:
144,232,188472,5,0,1:2:0:0:
144,232,188694,1,2,0:0:0:0:
92,296,188805,1,0,0:0:0:0:
16,276,188916,2,0,L|3:199,1,78.125,10|0,1:2|0:0,0:0:0:0:
93,296,189138,2,0,L|107:372,1,78.125,2|0,0:0|0:0,0:0:0:0:
393,268,189361,6,0,P|369:238|332:228,1,78.125,2|0,1:2|0:0,0:0:0:0:
132,72,189583,2,0,P|112:105|117:143,1,78.125,2|0,0:0|0:0,0:0:0:0:
312,384,189805,6,0,L|325:307,1,78.125,10|0,1:2|0:0,0:0:0:0:
220,0,190027,1,10,0:2:0:0:
220,20,190139,1,8,0:2:0:0:
220,44,190250,6,0,L|233:121,1,78.125,14|0,1:2|0:0,0:0:0:0:
331,227,190472,1,10,0:2:0:0:
331,207,190584,1,8,0:2:0:0:
331,183,190694,2,0,L|344:106,1,78.125,14|0,1:2|0:0,0:0:0:0:
440,0,190916,1,8,0:2:0:0:
444,20,191027,1,8,0:2:0:0:
448,40,191138,5,10,1:2:0:0:
492,80,191249,1,8,0:2:0:0:
504,136,191361,1,10,0:2:0:0:
476,184,191472,1,8,0:2:0:0:
404,232,191583,5,10,1:2:0:0:
331,183,191694,1,8,0:2:0:0:
252,224,191805,1,10,0:2:0:0:
244,308,191916,1,8,0:2:0:0:
256,316,192027,6,0,B|303:324|303:324|260:309,1,93.75,2|0,0:0|0:0,0:0:0:0:
156,216,192472,6,0,B|162:287|162:287|166:291|166:291|173:369,1,156.25,12|0,0:2|0:0,0:0:0:0:
0,328,192805,1,0,0:0:0:0:
8,340,192916,5,8,1:2:0:0:
60,332,193027,1,8,0:2:0:0:
88,288,193139,1,8,0:2:0:0:
68,240,193250,1,8,0:2:0:0:
15,224,193361,2,0,P|15:185|40:157,1,78.125,8|0,1:2|0:0,0:0:0:0:
240,36,193583,2,0,B|278:25|278:25|240:27,1,78.125,12|0,0:2|0:0,0:0:0:0:
246,112,193805,6,0,B|207:125|179:92|179:92|143:54|106:69,2,156.25,0|2|10,1:2|0:0|1:2,0:0:0:0:
246,112,194471,2,0,P|265:145|261:183,1,78.125,2|0,0:0|0:0,0:0:0:0:
212,380,194694,5,2,1:2:0:0:
168,284,194805,1,2,0:0:0:0:
211,380,194916,2,0,P|248:387|283:372,1,78.125,2|0,0:0|0:0,0:0:0:0:
484,264,195138,2,0,L|407:250,1,78.125,10|0,1:2|0:0,0:0:0:0:
153,207,195360,2,0,L|167:283,1,78.125,2|0,0:0|0:0,0:0:0:0:
380,152,195583,6,0,B|391:85|391:85|397:77|397:77|411:0,1,156.25,2|2,1:2|0:0,0:0:0:0:
107,68,195916,1,2,0:0:0:0:
88,140,196027,2,0,B|124:104|186:112|186:112|192:144|213:152,1,156.25,10|2,1:2|0:0,0:0:0:0:
472,172,196360,1,2,0:0:0:0:
488,92,196472,6,0,L|501:15,1,78.125,8|0,1:2|0:0,0:0:0:0:
260,92,196694,5,8,0:3:0:0:
276,84,196768,5,8,0:3:0:0:
296,84,196842,5,4,0:3:0:0:
312,100,196916,5,6,1:3:0:0:
312,100,197139,2,0,B|289:234|289:234|312:208|356:212,1,187.500007152558,14|0,1:2|1:0,0:0:0:0:
492,340,197583,2,0,B|510:377|510:377|474:365,1,78.125,2|0,0:0|0:0,0:0:0:0:
308,349,197805,2,0,P|314:311|344:288,1,78.125,2|0,1:2|0:0,0:0:0:0:
488,92,198027,6,0,L|396:75,1,93.7500035762788,14|0,0:2|0:0,0:0:0:0:
195,16,198250,1,0,1:2:0:0:
155,4,198360,1,8,0:2:0:0:
119,24,198471,1,8,0:2:0:0:
107,68,198582,1,8,0:2:0:0:
180,124,198693,5,8,1:2:0:0:
216,168,198804,1,8,0:2:0:0:
204,220,198915,1,8,0:2:0:0:
156,236,199026,1,8,0:2:0:0:
144,227,199138,6,0,P|236:162|344:196,1,234.375,4|0,1:2|0:0,0:0:0:0:
408,236,199583,2,0,P|435:209|430:172,1,78.125,10|0,1:2|0:0,0:0:0:0:
212,296,199805,2,0,P|237:366|310:384,1,156.25,2|0,0:0|1:0,0:0:0:0:
512,56,200249,5,2,0:0:0:0:
456,4,200360,1,0,0:0:0:0:
384,40,200471,2,0,L|371:118,1,78.125,10|0,1:2|0:0,0:0:0:0:
512,344,200693,2,0,L|499:267,1,78.125,2|0,0:0|0:0,0:0:0:0:
296,168,200916,6,0,B|248:136|185:159|185:159|204:180|204:216,1,156.25,0|2,1:2|0:0,0:0:0:0:
56,344,201249,1,0,0:0:0:0:
80,268,201360,2,0,P|92:231|125:211,1,78.125,10|0,1:2|0:0,0:0:0:0:
360,316,201583,2,0,B|400:316|400:316|365:305,1,78.125,2|0,0:0|0:2,0:0:0:0:
260,344,201804,5,2,1:2:0:0:
236,352,201915,1,2,0:0:0:0:
184,292,202027,1,2,0:0:0:0:
160,284,202138,1,2,0:0:0:0:
96,352,202250,2,0,L|20:365,1,78.125,8|0,1:2|0:0,0:0:0:0:
16,184,202471,2,0,P|2:148|19:113,1,78.125,2|0,0:0|0:0,0:0:0:0:
144,4,202693,6,0,P|153:41|136:75,1,78.125,2|0,1:2|0:0,0:0:0:0:
280,192,202916,2,0,L|203:178,1,78.125,2|0,0:0|0:0,0:0:0:0:
360,24,203138,2,0,P|369:61|352:95,1,78.125,10|0,1:2|0:0,0:0:0:0:
488,224,203361,2,0,L|411:210,1,78.125,2|0,0:0|0:0,0:0:0:0:
128,164,203583,6,0,P|98:188|87:225,1,78.125,2|0,1:2|0:0,0:0:0:0:
380,328,203805,2,0,P|369:290|339:266,1,78.125,2|0,0:0|0:0,0:0:0:0:
132,332,204027,6,0,B|136:372|136:372|164:346,1,78.125,10|0,1:2|0:0,0:0:0:0:
280,192,204250,2,0,B|276:152|276:152|247:177,1,78.125,2|0,0:2|0:0,0:0:0:0:
87,225,204471,5,2,1:2:0:0:
51,233,204583,1,2,0:0:0:0:
23,217,204694,1,2,0:0:0:0:
15,189,204805,1,2,0:0:0:0:
88,132,204916,6,0,B|145:153|193:99|193:99|241:45|314:71,1,234.375,12|8,1:2|0:2,0:0:0:0:
356,16,205360,2,0,P|375:49|370:87,1,78.125,8|0,1:3|0:0,0:0:0:0:
192,248,205583,1,10,0:2:0:0:
200,272,205694,1,8,0:2:0:0:
264,320,205805,5,10,1:2:0:0:
340,308,205916,1,8,0:2:0:0:
372,236,206027,1,10,0:2:0:0:
444,200,206138,1,8,0:2:0:0:
504,256,206250,6,0,B|314:222|314:222|350:228|388:195,1,250,4|2,1:2|0:0,0:0:0:0:
368,209,207805,6,0,P|335:223|291:222,1,78.125,0|0,1:0|1:0,0:0:0:0:
48,40,208028,1,8,0:2:0:0:
512,324,209805,6,0,B|459:272|369:285|369:285|340:328|291:327,1,234.375,6|2,1:2|0:0,0:0:0:0:
232,352,210249,2,0,P|223:314|242:281,1,78.125,8|0,1:2|0:0,0:0:0:0:
456,172,210471,1,2,0:0:0:0:
512,228,210582,1,8,0:2:0:0:
456,172,210694,2,0,L|442:95,1,78.125,0|0,1:0|0:0,0:0:0:0:
156,112,210916,5,2,0:0:0:0:
133,26,211027,1,2,0:0:0:0:
222,3,211138,1,10,1:2:0:0:
244,88,211249,1,2,0:0:0:0:
138,124,211360,1,2,0:0:0:0:
122,139,211471,1,2,0:0:0:0:
104,156,211582,6,0,B|159:178|208:128|208:128|256:76|336:108,1,234.375,2|2,1:2|0:0,0:0:0:0:
396,96,212027,2,0,P|396:135|371:165,1,78.125,8|0,1:2|0:0,0:0:0:0:
176,300,212249,1,2,0:0:0:0:
112,252,212360,1,8,0:2:0:0:
176,300,212471,2,0,L|196:224,1,78.125,0|0,1:0|0:0,0:0:0:0:
360,240,212694,6,0,P|398:239|427:264,1,78.125
232,360,212916,2,0,P|202:384|164:384,1,78.125,8|0,1:2|0:0,0:0:0:0:
52,112,213138,5,2,0:0:0:0:
56,100,213212,5,2,0:0:0:0:
60,88,213286,5,2,0:0:0:0:
64,76,213360,6,0,B|93:24|160:-2|240:34|192:141|125:97,1,234.375,2|2,1:2|0:0,0:0:0:0:
136,188,213805,2,0,L|212:174,1,78.125,8|0,1:2|0:0,0:0:0:0:
424,40,214027,1,2,0:0:0:0:
352,0,214138,1,8,0:2:0:0:
424,40,214249,2,0,L|430:120,1,78.125,0|0,1:0|0:0,0:0:0:0:
312,384,214472,5,2,0:0:0:0:
335,298,214583,1,2,0:0:0:0:
246,275,214694,1,10,1:2:0:0:
224,360,214805,1,2,0:0:0:0:
332,380,214916,1,2,0:0:0:0:
352,376,215027,1,2,0:0:0:0:
372,372,215139,6,0,B|392:253|392:253|417:254|446:226,1,156.25,6|0,1:2|0:0,0:0:0:0:
456,168,215472,2,0,P|487:189|505:224,1,78.125,10|0,0:2|1:0,0:0:0:0:
280,80,215805,2,0,L|266:2,1,78.125,12|0,0:2|0:0,0:0:0:0:
196,236,216027,5,0,1:0:0:0:
140,256,216139,1,8,0:2:0:0:
88,232,216249,1,8,0:2:0:0:
72,176,216360,1,8,0:2:0:0:
96,96,216471,1,8,1:2:0:0:
80,60,216582,1,8,0:2:0:0:
44,52,216694,1,8,0:2:0:0:
16,68,216805,1,8,0:2:0:0:
12,84,216916,6,0,B|57:59|57:14|57:14|76:54|132:47,1,174.999994659424,4|0,1:2|0:0,0:0:0:0:
200,88,217250,2,0,L|208:134,1,46.8750017881394,8|0,0:2|1:2,0:0:0:0:
512,240,217583,6,0,B|475:191|418:186|418:186|417:223|379:246,1,174.999994659424,12|0,0:2|1:2,0:0:0:0:
312,288,217916,1,8,0:2:0:0:
260,344,218027,5,8,0:2:0:0:
216,332,218139,1,8,0:2:0:0:
160,276,218250,1,8,1:2:0:0:
116,288,218362,1,8,0:2:0:0:
48,336,218472,1,8,0:2:0:0:
4,324,218583,1,8,0:2:0:0:
0,236,218694,6,0,B|126:258|126:258|98:253|79:221,1,174.999994659424,4|0,1:2|0:0,0:0:0:0:
160,128,219027,1,8,0:2:0:0:
208,136,219139,1,8,1:2:0:0:
240,172,219250,1,8,0:2:0:0:
244,264,219361,6,0,B|226:248|199:253|199:253|325:231,1,174.999994659424,4|0,1:2|0:2,0:0:0:0:
504,200,219694,1,8,0:2:0:0:
512,257,219805,1,8,0:2:0:0:
464,294,219916,1,8,0:2:0:0:
408,300,220028,1,8,0:2:0:0:
356,308,220139,1,8,0:2:0:0:
352,324,220250,1,4,0:3:0:0:
348,340,220361,1,4,0:3:0:0:
264,368,220472,6,0,L|171:351,2,93.75,2|2|2,0:0|0:0|0:0,0:0:0:0:
264,368,221583,1,2,0:0:0:0:
264,368,221805,2,0,P|235:332|247:289,1,93.75,2|0,0:0|0:0,0:0:0:0:
280,216,222250,6,0,B|328:236|330:291|330:291|355:244|410:254,1,187.500007152558,10|0,1:2|0:0,0:0:0:0:
396,328,222583,6,0,P|388:250|369:175,1,156.25,10|0,1:2|0:0,0:0:0:0:
512,109,222916,6,0,P|496:138|503:106,1,93.7500035762788,10|0,1:2|0:0,0:0:0:0:
