osu file format v14

[General]
AudioFilename: audio.mp3
AudioLeadIn: 0
PreviewTime: 49805
Countdown: 0
SampleSet: Soft
StackLeniency: 0.6
Mode: 0
LetterboxInBreaks: 0
WidescreenStoryboard: 1

[Editor]
Bookmarks: 1805,14250,21361,35583,51583,65805,81805,88916,96027,103139,119139,133361,145805,160027,176027,184916,192472,209805,216916
DistanceSpacing: 1.1
BeatDivisor: 4
GridSize: 4
TimelineZoom: 1.7

[Metadata]
Title:Koufuku na Wagamama
TitleUnicode:幸福なわがまま
Artist:Sangatsu no Phantasia
ArtistUnicode:三月のパンタシア
Creator:Jiysea
Version:Normal
Source:
Tags:japanese pop jpop j-pop alt alternate happy selfishness 堀江晶太 Shota Horie みあ Mia
BeatmapID:3042597
BeatmapSetID:1478828

[Difficulty]
HPDrainRate:3
CircleSize:3
OverallDifficulty:4
ApproachRate:5
SliderMultiplier:1.6
SliderTickRate:1

[Events]
//Background and Video events
0,0,"bg.jpg",0,0
//Break Periods
2,89116,94827
2,178005,181716
//Storyboard Layer 0 (Background)
//Storyboard Layer 1 (Fail)
//Storyboard Layer 2 (Pass)
//Storyboard Layer 3 (Foreground)
//Storyboard Layer 4 (Overlay)
//Storyboard Sound Samples

[TimingPoints]
28,444.444444444444,4,2,1,30,1,0
1805,-125,4,2,1,30,0,0
8916,-125,4,2,1,50,0,0
14250,-111.111111111111,4,2,1,75,0,0
21361,-125,4,2,1,60,0,0
40916,-125,4,2,1,65,0,0
46250,-125,4,2,1,75,0,0
51583,-100,4,2,1,85,0,1
64916,-100,4,2,1,85,0,0
65805,-100,4,2,1,85,0,1
80027,-100,4,2,1,50,0,0
81805,-111.111111111111,4,2,1,75,0,0
88916,-111.111111111111,4,2,1,30,0,0
96027,-125,4,2,1,50,0,0
101361,-125,4,2,1,65,0,0
119139,-100,4,2,1,85,0,1
132472,-100,4,2,1,85,0,0
133361,-100,4,2,1,85,0,1
145805,-111.111111111111,4,2,1,65,0,0
160027,-100,4,2,1,85,0,1
176027,-100,4,2,1,50,0,0
177805,-100,4,2,1,20,0,0
182916,-100,4,2,1,75,0,0
184916,-100,4,2,1,85,0,1
191139,-100,4,2,1,85,0,0
192472,-100,4,2,1,85,0,1
206250,-100,4,2,1,75,0,0
209805,-111.111111111111,4,2,1,75,0,0

[Colours]
Combo1 : 206,157,255
Combo2 : 206,81,81
Combo3 : 248,186,216
Combo4 : 72,104,164

[HitObjects]
8,44,1805,6,0,B|52:48|84:16|84:16|56:112|97:183,1,256,2|2,0:0|0:0,0:0:0:0:
212,352,3583,2,0,B|391:323|391:323|411:365|467:374,1,256
512,176,5361,6,0,B|439:178|409:119|409:119|372:47|306:50,1,256,2|2,0:0|0:0,0:0:0:0:
103,79,7139,2,0,P|47:105|32:165,1,128,0|2,0:0|0:0,0:0:0:0:
68,260,8027,1,0,0:0:0:0:
68,260,8916,6,0,L|194:237,1,128,2|2,0:0|0:0,0:0:0:0:
224,280,9583,2,0,P|269:322|332:328,1,128,2|2,0:0|0:0,0:0:0:0:
424,280,10472,2,0,B|437:201|437:201|456:188|456:188|471:100,1,192,2|2,0:0|0:0,0:0:0:0:
444,56,11361,1,2,0:0:0:0:
356,104,11805,1,2,1:2:0:0:
356,104,12027,2,0,P|326:115|294:117,1,64,10|2,0:2|1:2,0:0:0:0:
244,112,12472,5,10,0:2:0:0:
244,112,14250,6,0,L|262:5,2,107.999996704102,6|2|2,1:2|0:0|0:0,0:0:0:0:
172,148,15139,1,0,1:0:0:0:
16,124,15583,2,0,P|19:159|42:186,1,71.9999978027344,10|2,1:2|0:0,0:0:0:0:
76,260,16027,6,0,P|126:240|179:240,2,107.999996704102,2|2|2,1:2|0:0|0:0,0:0:0:0:
96,336,16916,1,0,1:0:0:0:
248,380,17361,1,8,1:2:0:0:
376,288,17805,6,0,L|482:306,2,107.999996704102,2|2|2,1:2|0:0|0:0,0:0:0:0:
332,220,18694,1,0,1:0:0:0:
452,116,19139,2,0,P|452:80|438:47,1,71.9999978027344,10|2,1:2|0:0,0:0:0:0:
368,12,19583,6,0,L|261:30,2,107.999996704102,2|2|10,1:2|0:0|0:2,0:0:0:0:
372,92,20472,2,0,P|326:146|259:171,1,143.999995605469,0|8,1:0|1:2,0:0:0:0:
136,132,21361,6,0,L|105:321,1,192,6|2,1:2|0:0,0:0:0:0:
140,360,22250,1,0,1:0:0:0:
232,311,22694,2,0,P|263:311|291:326,1,64,2|2,1:2|0:0,0:0:0:0:
340,307,23139,2,0,P|400:289|449:249,1,128,2|0,1:2|1:0,0:0:0:0:
447,199,23805,2,0,P|425:177|411:149,1,64,2|0,0:0|1:0,0:0:0:0:
380,52,24472,1,0,1:2:0:0:
284,88,24916,6,0,B|209:74|209:74|178:85|178:85|96:71,1,192,2|2,1:2|0:0,0:0:0:0:
56,104,25805,1,0,1:0:0:0:
124,180,26250,2,0,P|144:204|154:234,1,64,2|2,1:2|0:0,0:0:0:0:
132,280,26694,6,0,L|258:302,1,128,2|0,1:2|1:0,0:0:0:0:
304,276,27361,2,0,L|367:264,1,64,2|0,0:0|1:0,0:0:0:0:
436,188,28027,1,8,1:2:0:0:
360,120,28472,6,0,P|269:91|202:23,1,192,6|2,1:2|0:0,0:0:0:0:
152,20,29361,1,0,1:0:0:0:
56,56,29805,2,0,L|44:119,1,64,2|2,1:2|0:0,0:0:0:0:
72,163,30250,2,0,P|133:179|171:228,1,128,2|0,1:2|1:0,0:0:0:0:
148,272,30916,2,0,L|159:335,1,64,2|0,0:0|1:0,0:0:0:0:
256,368,31583,1,2,1:2:0:0:
256,368,31805,2,0,L|319:379,1,64,2|0,0:0|1:2,0:0:0:0:
380,298,32472,5,2,1:2:0:0:
380,298,32694,2,0,P|410:290|433:268,1,64,2|0,0:0|1:0,0:0:0:0:
472,172,33361,1,2,1:2:0:0:
428,80,33805,2,0,L|301:57,1,128,2|0,1:2|1:0,0:0:0:0:
208,96,34694,1,12,1:2:0:0:
228,196,35139,1,8,1:2:0:0:
148,260,35583,6,0,P|104:240|57:235,2,96,2|2|2,1:2|1:2|1:2,0:0:0:0:
380,372,37361,2,0,P|424:352|471:347,2,96,2|2|2,1:2|1:2|1:2,0:0:0:0:
316,124,39139,2,0,P|333:79|363:42,2,96,2|2|2,1:2|1:2|1:2,0:0:0:0:
316,124,40916,6,0,B|250:121|212:184|212:184|180:249|96:248,1,256,6|10,1:2|0:2,0:0:0:0:
20,196,42250,1,10,0:2:0:0:
68,104,42694,6,0,P|124:75|187:76,1,128,4|2,1:2|1:2,0:0:0:0:
232,100,43361,1,10,0:2:0:0:
272,136,43583,2,0,P|328:165|391:164,1,128,2|2,1:2|1:2,0:0:0:0:
468,232,44472,1,2,1:2:0:0:
416,320,44916,1,2,1:2:0:0:
316,296,45361,1,0,1:2:0:0:
248,372,45805,2,0,L|184:360,1,64,0|10,1:2|0:2,0:0:0:0:
144,328,46250,6,0,P|91:292|60:236,1,128,14|8,1:2|1:2,0:0:0:0:
64,184,46916,1,10,0:2:0:0:
88,140,47139,2,0,L|214:118,1,128,10|6,0:3|0:3,0:0:0:0:
304,164,48027,1,6,1:2:0:0:
256,192,48472,12,8,49805,1:2:0:0:
44,72,51583,6,0,B|83:61|117:91|117:91|150:121|198:113,1,160,6|10,1:2|1:2,0:0:0:0:
272,80,52250,1,2,0:0:0:0:
352,120,52472,2,0,L|365:198,1,80,2|2,1:2|0:0,0:0:0:0:
436,248,52916,1,10,1:2:0:0:
396,328,53139,2,0,P|319:304|240:312,1,160,2|2,0:0|0:0,0:0:0:0:
160,344,53805,1,10,1:2:0:0:
80,308,54027,2,0,P|58:274|57:235,1,80,2|2,0:0|1:2,0:0:0:0:
164,92,54694,2,0,L|242:78,1,80,10|2,1:2|0:0,0:0:0:0:
312,24,55139,6,0,P|354:89|431:101,1,160,2|10,1:2|1:2,0:0:0:0:
484,172,55805,1,2,0:0:0:0:
428,240,56027,2,0,P|389:248|361:276,1,80,2|2,1:2|0:0,0:0:0:0:
308,348,56472,1,10,1:2:0:0:
220,336,56694,2,0,L|192:178,1,160,2|2,0:0|0:0,0:0:0:0:
112,140,57361,1,10,0:2:0:0:
32,104,57583,2,0,B|71:114|105:84|105:84|138:54|184:68,1,160,2|0,0:0|0:0,0:0:0:0:
260,28,58250,1,8,0:2:0:0:
428,80,58694,6,0,B|440:151|440:151|455:164|455:164|466:231,1,160,6|10,1:2|1:2,0:0:0:0:
504,312,59361,2,0,P|432:279|357:300,1,160,2|2,0:0|0:0,0:0:0:0:
288,356,60027,1,10,1:2:0:0:
200,344,60250,2,0,B|73:321|73:321|58:293,1,160,2|2,0:0|0:0,0:0:0:0:
108,220,60916,1,10,1:2:0:0:
148,140,61139,2,0,L|134:61,1,80,2|0,0:0|1:2,0:0:0:0:
300,8,61805,1,10,1:2:0:0:
460,80,62250,6,0,P|491:151|470:227,1,160,0|10,1:2|1:2,0:0:0:0:
408,288,62916,1,2,0:0:0:0:
332,244,63139,2,0,L|318:323,2,80,2|2|10,1:2|0:0|1:2,0:0:0:0:
352,160,63805,1,2,0:0:0:0:
292,96,64027,6,0,P|235:41|157:35,1,160,2|14,1:2|1:2,0:0:0:0:
76,64,64694,1,2,0:0:0:0:
36,144,64916,1,10,1:2:0:0:
92,312,65361,1,10,1:2:0:0:
260,256,65805,6,0,B|323:244|323:244|347:224|347:224|410:213,1,160,6|10,1:2|1:2,0:0:0:0:
456,140,66472,1,2,0:0:0:0:
388,88,66694,2,0,P|352:71|326:41,1,80,2|2,1:2|0:0,0:0:0:0:
240,24,67139,1,10,1:2:0:0:
159,59,67361,2,0,P|85:75|64:149,1,160,2|2,0:0|0:0,0:0:0:0:
20,224,68027,1,10,1:2:0:0:
64,300,68250,2,0,L|142:313,1,80,2|2,0:0|1:2,0:0:0:0:
316,344,68916,2,0,P|354:336|385:311,1,80,10|2,1:2|0:0,0:0:0:0:
440,244,69361,6,0,P|379:195|375:117,1,160,2|10,1:2|1:2,0:0:0:0:
392,32,70027,1,2,0:0:0:0:
304,16,70250,2,0,L|225:2,2,80,10|10|2,1:2|0:3|1:2,0:0:0:0:
288,104,70916,2,0,L|130:76,1,160,14|2,0:2|0:0,0:0:0:0:
72,144,71583,1,10,1:2:0:0:
76,232,71805,2,0,P|137:183|215:188,1,160,14|8,0:2|0:2,0:0:0:0:
244,272,72472,1,8,1:2:0:0:
416,312,72916,6,0,B|445:142,1,160,4|10,1:2|1:2,0:0:0:0:
504,92,73583,2,0,P|442:41|365:42,1,160,2|2,0:0|0:0,0:0:0:0:
288,84,74250,1,10,1:2:0:0:
212,132,74472,2,0,P|138:159|62:139,1,160,2|2,0:0|0:0,0:0:0:0:
12,212,75139,1,10,1:2:0:0:
68,280,75361,2,0,L|82:359,1,80,2|2,0:0|1:2,0:0:0:0:
248,304,76027,1,8,1:2:0:0:
416,352,76472,6,0,B|405:312|434:282|434:282|463:252|457:197,1,160,2|10,1:2|1:2,0:0:0:0:
468,116,77139,1,2,0:0:0:0:
392,72,77361,2,0,P|361:46|346:10,2,80,2|2|10,1:2|0:0|1:2,0:0:0:0:
344,144,78027,1,2,0:0:0:0:
260,168,78250,6,0,L|232:325,1,160,2|12,1:2|1:2,0:0:0:0:
64,376,79139,1,8,1:3:0:0:
20,204,79583,1,10,1:2:0:0:
188,156,80027,1,4,1:2:0:0:
188,156,80916,5,8,0:2:0:0:
188,156,81805,6,0,P|214:203|262:225,2,107.999996704102,6|2|2,1:2|0:0|0:0,0:0:0:0:
224,84,82694,1,0,1:0:0:0:
372,32,83139,2,0,L|385:103,1,71.9999978027344,10|2,1:2|0:0,0:0:0:0:
404,180,83583,6,0,P|455:163|510:161,2,107.999996704102,2|2|2,1:2|0:0|0:0,0:0:0:0:
384,256,84472,1,0,1:0:0:0:
260,356,84916,1,8,1:2:0:0:
124,276,85361,6,0,L|106:382,2,107.999996704102,2|2|2,1:2|0:0|0:0,0:0:0:0:
64,224,86250,1,0,1:0:0:0:
160,96,86694,2,0,P|185:71|219:57,1,71.9999978027344,10|2,1:2|0:0,0:0:0:0:
296,76,87139,6,0,L|314:183,2,107.999996704102,6|10|12,1:2|0:2|0:2,0:0:0:0:
360,28,88027,2,0,P|429:22|473:76,1,143.999995605469,0|8,1:0|1:2,0:0:0:0:
508,232,88916,5,6,1:2:0:0:
32,232,96027,6,0,P|82:270|145:278,1,128,6|0,1:2|1:0,0:0:0:0:
192,264,96694,1,2,0:0:0:0:
292,148,97361,2,0,P|324:147|353:159,1,64,2|2,1:2|0:0,0:0:0:0:
396,184,97805,2,0,L|418:58,1,128,2|0,1:2|1:0,0:0:0:0:
384,20,98472,2,0,L|321:31,1,64,2|0,0:0|1:0,0:0:0:0:
224,12,99139,1,2,1:2:0:0:
224,12,99361,2,0,L|161:1,1,64,2|0,0:0|1:0,0:0:0:0:
102,86,100027,5,2,1:2:0:0:
102,86,100250,2,0,P|86:113|86:145,1,64,2|0,0:0|1:0,0:0:0:0:
125,239,100916,1,2,1:2:0:0:
80,332,101361,2,0,P|127:343|168:366,2,96,6|10|10,1:2|0:2|0:2,0:0:0:0:
28,328,102250,1,2,1:2:0:0:
4,228,102694,1,8,1:2:0:0:
64,144,103139,6,0,L|81:49,2,96,2|2|2,1:2|1:2|1:2,0:0:0:0:
276,288,104916,2,0,L|293:383,2,96,2|2|2,1:2|1:2|1:2,0:0:0:0:
416,72,106694,2,0,L|511:89,2,96,2|2|2,1:2|1:2|1:2,0:0:0:0:
416,72,108472,6,0,B|316:76|268:184|268:184|248:148|208:144,1,256,6|10,1:2|0:2,0:0:0:0:
124,124,109805,1,10,0:2:0:0:
40,180,110250,6,0,L|62:306,1,128,6|2,1:2|1:2,0:0:0:0:
107,330,110916,1,10,0:2:0:0:
152,353,111139,2,0,P|200:317|271:325,1,128,2|2,1:2|1:2,0:0:0:0:
360,368,112027,1,2,1:2:0:0:
440,304,112472,1,2,1:2:0:0:
384,216,112916,1,0,1:2:0:0:
452,139,113361,2,0,P|448:108|431:81,1,64,0|10,1:0|0:2,0:0:0:0:
403,47,113805,6,0,L|277:70,1,128,14|8,1:2|1:2,0:0:0:0:
228,85,114472,1,10,0:2:0:0:
190,119,114694,2,0,P|231:166|225:228,1,128,10|6,0:3|0:3,0:0:0:0:
124,264,115583,1,6,1:2:0:0:
256,192,116027,12,2,117361,1:2:0:0:
452,48,119139,6,0,P|377:38|342:105,1,160,6|10,1:2|1:2,0:0:0:0:
404,168,119805,1,2,0:0:0:0:
368,248,120027,2,0,P|408:252|446:261,1,80,2|2,1:2|0:2,0:0:0:0:
480,344,120472,1,10,1:2:0:0:
396,368,120694,2,0,P|334:357|236:354,1,160,2|2,0:0|0:0,0:0:0:0:
172,296,121361,1,10,1:2:0:0:
92,336,121583,2,0,L|78:257,1,80,2|2,0:0|1:2,0:0:0:0:
4,96,122250,2,0,P|39:78|63:47,1,80,10|2,1:2|0:0,0:0:0:0:
140,4,122694,6,0,P|167:75|242:88,1,160,2|10,1:2|1:2,0:0:0:0:
320,44,123361,1,2,0:0:0:0:
404,72,123583,2,0,P|425:105|425:144,1,80,2|2,1:2|0:0,0:0:0:0:
388,224,124027,1,10,1:2:0:0:
456,280,124250,2,0,B|381:293|381:293|377:297|377:297|300:311,1,160,2|2,0:0|0:0,0:0:0:0:
232,368,124916,1,10,0:2:0:0:
148,336,125139,2,0,P|143:258|200:206,1,160,2|0,0:0|0:0,0:0:0:0:
252,136,125805,1,8,1:2:0:0:
119,20,126250,6,0,P|90:93|24:148,1,160,6|10,1:2|1:2,0:0:0:0:
42,234,126916,2,0,L|199:206,1,160,2|2,0:0|0:0,0:0:0:0:
260,272,127583,1,10,1:2:0:0:
324,332,127805,2,0,B|363:342|397:312|397:312|430:282|478:290,1,160,2|2,0:0|0:0,0:0:0:0:
504,208,128472,1,10,0:2:0:0:
440,148,128694,2,0,L|426:69,1,80,2|0,0:0|1:2,0:0:0:0:
256,24,129361,1,10,1:2:0:0:
160,172,129805,6,0,L|2:144,1,160,0|10,1:2|1:2,0:0:0:0:
12,232,130472,1,2,0:0:0:0:
72,296,130694,2,0,P|94:328|99:367,2,80,2|2|10,1:2|0:0|1:2,0:0:0:0:
156,272,131361,1,2,0:0:0:0:
232,316,131583,6,0,P|308:298|360:238,1,160,2|14,1:2|1:2,0:0:0:0:
404,164,132250,1,2,0:0:0:0:
488,144,132472,1,10,1:2:0:0:
376,8,132916,1,10,1:2:0:0:
208,64,133361,6,0,B|104:40|104:40|55:60,1,160,6|10,1:2|1:2,0:0:0:0:
8,136,134027,1,2,0:0:0:0:
92,160,134250,2,0,L|78:238,1,80,2|2,1:2|0:0,0:0:0:0:
8,296,134694,1,10,1:2:0:0:
72,356,134916,2,0,B|111:366|141:337|141:337|177:302|226:314,1,160,2|2,0:0|0:0,0:0:0:0:
296,268,135583,1,10,1:2:0:0:
352,336,135805,2,0,P|391:339|428:324,1,80,2|2,0:0|1:2,0:0:0:0:
508,168,136472,2,0,P|473:150|449:118,1,80,10|2,1:2|0:0,0:0:0:0:
400,44,136916,6,0,L|242:71,1,160,2|10,1:2|1:2,0:0:0:0:
156,92,137583,1,2,0:0:0:0:
100,160,137805,2,0,P|63:144|23:145,2,80,10|10|2,1:2|0:3|1:2,0:0:0:0:
124,244,138472,2,0,P|194:208|273:212,1,160,14|2,0:2|0:0,0:0:0:0:
336,272,139139,1,10,1:2:0:0:
416,232,139361,2,0,L|443:74,1,160,14|8,0:2|0:2,0:0:0:0:
372,24,140027,1,8,1:2:0:0:
212,100,140472,6,0,B|42:71,1,160,4|10,1:2|1:2,0:0:0:0:
12,152,141139,2,0,P|81:184|90:260,1,160,2|2,0:0|0:0,0:0:0:0:
40,332,141805,1,10,1:2:0:0:
112,380,142027,2,0,P|188:359|238:298,1,160,2|2,0:0|0:0,0:0:0:0:
276,220,142694,1,10,1:2:0:0:
348,272,142916,2,0,P|387:272|419:294,1,80,2|2,0:0|1:2,0:0:0:0:
512,144,143583,1,8,1:2:0:0:
376,32,144027,6,0,B|305:19|305:19|296:22|296:22|217:8,1,160,2|14,1:2|1:2,0:0:0:0:
140,44,144694,1,2,0:0:0:0:
120,128,144916,2,0,P|83:112|58:82,2,80,10|10|10,1:3|0:2|1:2,0:0:0:0:
208,156,145583,1,10,0:2:0:0:
208,156,145805,6,0,L|195:227,2,71.9999978027344,4|0|8,1:2|0:0|1:2,0:0:0:0:
280,120,146472,1,0,0:0:0:0:
352,84,146694,2,0,P|422:86|471:137,1,143.999995605469,0|8,1:2|1:2,0:0:0:0:
472,296,147583,2,0,L|330:321,1,143.999995605469,2|10,1:2|1:2,0:0:0:0:
260,284,148250,1,2,0:0:0:0:
184,308,148472,2,0,L|197:379,2,71.9999978027344,2|2|10,1:2|0:0|1:2,0:0:0:0:
64,204,149361,6,0,P|30:195|3:171,2,71.9999978027344,0|0|8,1:2|0:0|1:2,0:0:0:0:
128,156,150027,1,0,0:0:0:0:
208,168,150250,2,0,L|233:26,1,143.999995605469,0|10,1:0|1:2,0:0:0:0:
376,92,151139,6,0,P|433:50|504:52,1,143.999995605469,2|10,1:2|1:2,0:0:0:0:
496,132,151805,1,2,0:0:0:0:
484,212,152027,2,0,P|505:241|511:276,2,71.9999978027344,2|2|10,1:2|0:0|1:2,0:0:0:0:
412,244,152694,1,10,0:2:0:0:
340,208,152916,6,0,L|269:221,2,71.9999978027344,4|0|8,1:2|0:0|1:2,0:0:0:0:
348,128,153583,1,0,0:0:0:0:
300,64,153805,2,0,P|235:42|181:85,1,143.999995605469,0|8,1:2|1:2,0:0:0:0:
40,160,154694,6,0,P|108:174|132:238,1,143.999995605469,2|10,1:2|1:2,0:0:0:0:
92,308,155361,1,2,0:0:0:0:
144,368,155583,2,0,L|73:381,2,71.9999978027344,2|2|10,1:2|0:0|1:2,0:0:0:0:
224,352,156250,1,2,0:0:0:0:
268,284,156472,6,0,P|327:245|398:246,1,143.999995605469,4|8,1:2|1:2,0:0:0:0:
504,128,157361,2,0,P|433:129|374:90,1,143.999995605469,0|10,1:0|1:2,0:0:0:0:
297,68,158027,1,2,0:0:0:0:
225,102,158250,1,14,1:2:0:0:
256,192,158694,12,6,160027,1:2:0:0:
172,116,160916,6,0,P|104:154|80:229,1,160,0|8,1:2|1:2,0:0:0:0:
36,308,161583,1,2,0:0:0:0:
108,360,161805,6,0,L|266:332,1,160,2|10,1:2|1:2,0:0:0:0:
324,264,162472,1,2,0:0:0:0:
408,284,162694,2,0,P|435:255|445:216,1,80,2|2,1:2|0:0,0:0:0:0:
396,144,163139,2,0,P|369:115|359:76,1,80,10|2,1:2|0:0,0:0:0:0:
280,40,163583,6,0,L|122:12,1,160,2|10,1:2|1:2,0:0:0:0:
44,52,164250,1,2,0:2:0:0:
68,227,164694,1,2,0:0:0:0:
68,227,164916,2,0,P|104:211|143:218,1,80,8|2,1:2|0:0,0:0:0:0:
232,208,165361,6,0,L|204:366,1,160,2|10,1:2|1:2,0:0:0:0:
292,380,166027,2,0,P|331:378|364:355,1,80,2|10,0:0|1:3,0:0:0:0:
484,224,166694,1,10,1:3:0:0:
404,68,167139,6,0,B|360:57|330:86|330:86|298:119|252:108,1,160,4|10,1:2|1:2,0:0:0:0:
176,80,167805,2,0,P|100:67|44:120,1,160,2|2,0:0|0:2,0:0:0:0:
24,208,168472,1,10,1:2:0:0:
84,272,168694,2,0,L|98:351,1,80,2|0,0:0|1:2,0:0:0:0:
272,380,169361,1,10,1:2:0:0:
272,380,169583,2,0,P|325:322|401:302,1,160,2|10,0:0|0:2,0:0:0:0:
468,244,170250,1,10,1:2:0:0:
420,172,170472,2,0,P|398:139|395:100,1,80,14|0,0:2|1:0,0:0:0:0:
244,4,171139,5,2,1:2:0:0:
120,128,171583,2,0,L|2:107,2,120,10|6|14,1:2|0:3|0:2,0:0:0:0:
232,264,172694,6,0,P|276:304|289:361,2,120,10|10|10,0:2|0:2|1:2,0:0:0:0:
112,324,173694,1,10,0:3:0:0:
32,220,174027,2,0,L|18:141,1,80,14|0,0:2|1:2,0:0:0:0:
72,72,174472,6,0,P|100:44|216:48,1,160,10|10,0:2|0:2,0:0:0:0:
284,100,175139,1,10,0:2:0:0:
356,52,175361,2,0,L|435:38,2,80,10|10|6,0:3|0:3|0:3,0:0:0:0:
400,128,176027,1,6,1:2:0:0:
256,192,176472,12,2,177805,0:0:0:0:
400,128,182916,6,0,P|468:163|479:239,1,160,14|2,1:2|1:2,0:0:0:0:
424,308,183583,1,2,1:2:0:0:
339,285,183805,2,0,B|296:273|263:303|263:303|229:333|190:323,1,160,14|8,1:2|0:2,0:0:0:0:
104,310,184471,1,10,1:2:0:0:
4,164,184916,6,0,P|46:99|123:100,1,160,6|10,1:2|1:2,0:0:0:0:
196,152,185583,2,0,B|269:139|269:139|273:142|273:142|352:128,1,160,2|2,0:0|0:0,0:0:0:0:
412,64,186249,1,10,1:2:0:0:
484,116,186472,2,0,B|497:156|464:189|464:189|430:221|442:270,1,160,2|2,0:0|0:0,0:0:0:0:
488,336,187138,1,10,1:2:0:0:
412,380,187361,2,0,P|372:373|341:349,1,80,2|0,0:0|1:0,0:0:0:0:
248,200,188027,1,10,1:2:0:0:
88,276,188472,6,0,L|60:118,1,160,0|10,1:2|1:2,0:0:0:0:
132,68,189138,1,2,0:0:0:0:
220,52,189361,2,0,P|250:27|289:18,2,80,2|2|10,1:2|0:0|1:2,0:0:0:0:
256,132,190027,1,10,0:2:0:0:
344,120,190250,6,0,P|423:121|482:172,2,160,14|14|10,1:2|1:2|1:2,0:0:0:0:
204,228,191583,1,10,1:2:0:0:
64,336,192027,1,2,0:0:0:0:
64,336,192472,6,0,B|40:285|40:285|68:185,1,160,12|8,0:2|1:2,0:0:0:0:
104,104,193139,1,8,0:2:0:0:
184,140,193361,1,8,1:2:0:0:
260,100,193583,6,0,B|299:89|333:119|333:119|366:149|414:141,1,160,12|2,0:2|0:0,0:0:0:0:
480,192,194249,1,10,1:2:0:0:
424,260,194472,2,0,L|411:338,1,80,2|2,0:0|1:2,0:0:0:0:
240,372,195138,2,0,P|202:364|171:339,1,80,10|2,1:2|0:0,0:0:0:0:
84,344,195583,6,0,L|56:186,1,160,2|10,1:2|1:2,0:0:0:0:
4,116,196249,1,2,0:0:0:0:
84,80,196472,2,0,L|98:1,2,80,8|8|6,1:2|0:3|1:3,0:0:0:0:
160,128,197138,2,0,P|237:112|308:146,1,160,14|2,1:2|0:0,0:0:0:0:
368,212,197805,1,2,1:2:0:0:
452,184,198027,2,0,B|464:113|464:113|469:109|469:109|483:28,1,160,14|8,0:2|0:2,0:0:0:0:
400,4,198694,1,8,1:2:0:0:
244,84,199138,6,0,B|252:127|224:157|224:157|192:188|202:238,1,160,4|10,1:2|1:2,0:0:0:0:
140,296,199805,2,0,P|61:296|1:245,1,160,2|2,0:0|0:0,0:0:0:0:
44,168,200472,1,10,1:2:0:0:
4,88,200694,2,0,L|161:60,1,160,2|2,0:0|0:0,0:0:0:0:
236,12,201361,1,10,1:2:0:0:
324,24,201583,2,0,P|358:42|375:78,1,80,2|2,0:0|1:2,0:0:0:0:
260,212,202249,1,8,1:2:0:0:
360,356,202694,6,0,P|438:351|503:306,1,160,2|10,1:2|1:2,0:0:0:0:
492,220,203361,1,2,0:0:0:0:
448,144,203583,2,0,L|369:130,2,80,2|2|10,1:2|0:0|1:2,0:0:0:0:
492,68,204249,1,2,0:2:0:0:
420,16,204472,6,0,B|313:-2|313:-2|272:29,1,160,2|12,1:2|1:2,0:0:0:0:
140,144,205361,1,8,1:3:0:0:
240,288,205805,1,10,1:2:0:0:
368,168,206249,1,4,1:2:0:0:
368,168,208027,5,8,0:2:0:0:
368,168,209805,6,0,L|474:149,2,107.999996704102,6|2|2,1:2|0:0|0:0,0:0:0:0:
304,120,210694,1,0,1:0:0:0:
172,212,211139,2,0,P|138:201|114:174,1,71.9999978027344,10|2,1:2|0:0,0:0:0:0:
44,136,211583,6,0,L|62:29,2,107.999996704102,2|2|2,1:2|0:0|0:0,0:0:0:0:
8,208,212472,1,0,1:0:0:0:
76,352,212916,1,8,1:2:0:0:
232,320,213361,6,0,P|281:337|308:383,2,107.999996704102,2|2|2,1:2|0:0|0:0,0:0:0:0:
224,240,214250,1,0,1:0:0:0:
376,192,214694,2,0,P|409:178|434:153,1,71.9999978027344,10|2,1:2|0:0,0:0:0:0:
428,72,215139,6,0,P|398:27|350:3,2,107.999996704102,6|10|12,1:2|0:2|0:2,0:0:0:0:
356,108,216027,2,0,L|214:82,1,143.999995605469,0|8,1:0|1:2,0:0:0:0:
84,176,216916,6,0,B|74:229|74:229|77:233|77:233|69:281,2,107.999996704102,4|8|12,1:2|0:2|0:2,0:0:0:0:
164,168,217805,2,0,P|192:189|209:221,1,71.9999978027344,0|8,1:2|0:2,0:0:0:0:
236,296,218250,1,8,1:2:0:0:
392,276,218694,6,0,B|445:266|445:266|449:269|449:269|497:261,2,107.999996704102,4|8|4,1:2|0:2|1:2,0:0:0:0:
360,204,219583,2,0,P|376:172|405:150,1,71.9999978027344,0|8,0:2|0:2,0:0:0:0:
448,84,220027,2,0,P|431:52|402:30,1,71.9999978027344,8|4,0:2|0:3,0:0:0:0:
324,28,220472,1,2,0:0:0:0:
152,304,222250,6,0,B|120:309|103:328|103:328|81:316|45:322,2,107.999996704102,10|10|10,1:2|1:2|1:2,0:0:0:0:
