osu file format v14

[General]
AudioFilename: audio.mp3
AudioLeadIn: 0
PreviewTime: 49805
Countdown: 0
SampleSet: Soft
StackLeniency: 0.4
Mode: 0
LetterboxInBreaks: 0
WidescreenStoryboard: 1

[Editor]
Bookmarks: 1139,14250,21361,35583,51583,65805,81805,88916,96027,103139,119139,133361,145805,160027,177805,182916,184916,192472,209805,216916
DistanceSpacing: 0.3
BeatDivisor: 4
GridSize: 4
TimelineZoom: 1.7

[Metadata]
Title:Koufuku na Wagamama
TitleUnicode:幸福なわがまま
Artist:Sangatsu no Phantasia
ArtistUnicode:三月のパンタシア
Creator:Jiysea
Version:Insane
Source:
Tags:japanese pop jpop j-pop alt alternate happy selfishness 堀江晶太 Shota Horie みあ Mia
BeatmapID:3035501
BeatmapSetID:1478828

[Difficulty]
HPDrainRate:5
CircleSize:4
OverallDifficulty:8
ApproachRate:9
SliderMultiplier:2.2
SliderTickRate:1

[Events]
//Background and Video events
0,0,"bg.jpg",0,0
//Break Periods
2,89116,95205
2,178004,182316
2,220672,221650
//Storyboard Layer 0 (Background)
//Storyboard Layer 1 (Fail)
//Storyboard Layer 2 (Pass)
//Storyboard Layer 3 (Foreground)
//Storyboard Layer 4 (Overlay)
//Storyboard Sound Samples

[TimingPoints]
28,444.444444444444,4,2,1,30,1,0
1139,-181.818181818181,4,2,1,30,0,0
8916,-133.333333333333,4,2,1,50,0,0
9250,-133.333333333333,4,2,1,5,0,0
9361,-133.333333333333,4,2,1,50,0,0
12472,-133.333333333333,4,2,1,50,0,0
14250,-80,4,2,1,75,0,0
14916,-133.333333333333,4,2,1,75,0,0
15139,-80,4,2,1,75,0,0
16694,-133.333333333333,4,2,1,75,0,0
16916,-80,4,2,1,75,0,0
17583,-133.333333333333,4,2,1,75,0,0
17805,-80,4,2,1,75,0,0
18472,-133.333333333333,4,2,1,75,0,0
18694,-80,4,2,1,75,0,0
21361,-133.333333333333,4,2,1,60,0,0
34583,-133.333333333333,4,2,1,5,0,0
34694,-100,4,2,1,50,0,0
35583,-133.333333333333,4,2,1,75,0,0
40916,-100,4,2,1,50,0,0
41805,-133.333333333333,4,2,1,60,0,0
41916,-133.333333333333,4,2,1,5,0,0
42027,-133.333333333333,4,2,1,60,0,0
42694,-100,4,2,1,60,0,0
46250,-100,4,2,1,45,0,0
46694,-100,4,2,1,60,0,0
48027,-100,4,2,1,60,0,0
48916,-133.333333333333,4,2,1,60,0,0
49805,-100,4,2,1,75,0,0
50916,-66.6666666666667,4,2,1,50,0,0
51583,-80,4,2,1,85,0,1
59027,-80,4,2,1,5,0,1
59139,-80,4,2,1,85,0,1
64916,-80,4,2,1,50,0,0
65361,-80,4,2,1,65,0,0
65805,-80,4,2,1,85,0,1
70916,-66.6666666666667,4,2,1,85,0,1
71250,-66.6666666666667,4,2,1,5,0,1
71361,-80,4,2,1,85,0,1
71805,-66.6666666666667,4,2,1,85,0,1
72027,-80,4,2,1,85,0,1
78583,-80,4,2,1,5,0,1
78694,-80,4,2,1,85,0,1
79250,-80,4,2,1,5,0,1
79361,-133.333333333333,4,2,1,85,0,1
80027,-200,4,2,1,50,0,0
80694,-80,4,2,1,50,0,0
81805,-80,4,2,1,75,0,0
82472,-133.333333333333,4,2,1,75,0,0
82694,-80,4,2,1,75,0,0
84250,-133.333333333333,4,2,1,75,0,0
84472,-80,4,2,1,75,0,0
85139,-133.333333333333,4,2,1,75,0,0
85361,-80,4,2,1,75,0,0
86027,-133.333333333333,4,2,1,75,0,0
86250,-80,4,2,1,75,0,0
88916,-133.333333333333,4,2,1,30,0,0
95805,-133.333333333333,4,2,1,50,0,0
96027,-133.333333333333,4,2,1,50,0,0
96250,-133.333333333333,4,2,1,5,0,0
96361,-133.333333333333,4,2,1,50,0,0
101361,-100,4,2,1,65,0,0
103139,-133.333333333333,4,2,1,50,0,0
108472,-100,4,2,1,50,0,0
109361,-133.333333333333,4,2,1,50,0,0
110250,-100,4,2,1,50,0,0
115583,-100,4,2,1,50,0,0
116472,-133.333333333333,4,2,1,50,0,0
118694,-200,4,2,1,50,0,0
119027,-200,4,2,1,5,0,0
119139,-80,4,2,1,85,0,1
132472,-80,4,2,1,50,0,0
132916,-80,4,2,1,65,0,0
133361,-80,4,2,1,85,0,1
138472,-66.6666666666667,4,2,1,85,0,1
138916,-80,4,2,1,85,0,1
139361,-66.6666666666667,4,2,1,85,0,1
139583,-80,4,2,1,85,0,1
144027,-80,4,2,1,85,0,0
145027,-80,4,2,1,5,0,0
145139,-80,4,2,1,85,0,0
145805,-100,4,2,1,75,0,0
158250,-100,4,2,1,65,0,0
158694,-100,4,2,1,70,0,0
159139,-100,4,2,1,75,0,0
159583,-100,4,2,1,85,0,0
160027,-80,4,2,1,85,0,1
160361,-80,4,2,1,5,0,1
160472,-80,4,2,1,85,0,1
164694,-74.0740740740741,4,2,1,85,0,1
165139,-66.6666666666667,4,2,1,85,0,1
165250,-66.6666666666667,4,2,1,5,0,1
165361,-66.6666666666667,4,2,1,85,0,1
166250,-80,4,2,1,85,0,1
166361,-80,4,2,1,5,0,1
166472,-80,4,2,1,85,0,1
166694,-80,4,2,1,60,0,1
167250,-80,4,2,1,5,0,1
167361,-80,4,2,1,85,0,1
174472,-133.333333333333,4,2,1,50,0,1
174583,-133.333333333333,4,2,1,5,0,1
174694,-100,4,2,1,60,0,1
174805,-100,4,2,1,5,0,1
174916,-80,4,2,1,70,0,1
175027,-80,4,2,1,5,0,1
175139,-66.6666666666667,4,2,1,80,0,1
175250,-66.6666666666667,4,2,1,5,0,1
175361,-80,4,2,1,70,0,1
175472,-80,4,2,1,5,0,1
175583,-100,4,2,1,60,0,1
175694,-100,4,2,1,5,0,1
175805,-133.333333333333,4,2,1,50,0,1
175916,-133.333333333333,4,2,1,5,0,1
176027,-500,4,2,1,30,0,0
177805,-500,4,2,1,20,0,0
182916,-80,4,2,1,75,0,0
183583,-133.333333333333,4,2,1,75,0,0
183694,-133.333333333333,4,2,1,5,0,0
183805,-100,4,2,1,75,0,0
183916,-100,4,2,1,5,0,0
184027,-100,4,2,1,75,0,0
184916,-80,4,2,1,85,0,1
192027,-200,4,2,1,30,0,0
192361,-200,4,2,1,5,0,0
192472,-80,4,2,1,85,0,1
197139,-66.6666666666667,4,2,1,85,0,1
197583,-80,4,2,1,85,0,1
198027,-66.6666666666667,4,2,1,85,0,1
198250,-80,4,2,1,85,0,1
206250,-200,4,2,1,85,0,0
207805,-80,4,2,1,85,0,0
209805,-80,4,2,1,75,0,0
210472,-133.333333333333,4,2,1,75,0,0
210694,-80,4,2,1,75,0,0
212250,-133.333333333333,4,2,1,75,0,0
212472,-80,4,2,1,75,0,0
213139,-133.333333333333,4,2,1,75,0,0
213361,-80,4,2,1,75,0,0
214027,-133.333333333333,4,2,1,75,0,0
214250,-80,4,2,1,75,0,0
216916,-71.4285714285714,4,2,1,75,0,0
217250,-133.333333333333,4,2,1,75,0,0
217583,-71.4285714285714,4,2,1,75,0,0
220472,-71.4285714285714,4,2,1,30,0,0
222250,-66.6666666666667,4,2,1,75,0,0
222472,-66.6666666666667,4,2,1,5,0,0
222583,-80,4,2,1,75,0,0
222805,-80,4,2,1,5,0,0
222916,-133.333333333333,4,2,1,75,0,0

[Colours]
Combo1 : 206,157,255
Combo2 : 206,81,81
Combo3 : 248,186,216
Combo4 : 72,104,164

[HitObjects]
460,60,1139,5,2,0:0:0:0:
460,60,1361,1,2,0:0:0:0:
460,60,1583,2,0,L|449:119,1,60.5000018463135,2|2,0:0|0:0,0:0:0:0:
380,160,2027,6,0,L|350:154,2,30.2500009231568,2|2|2,0:0|0:0|0:0,0:0:0:0:
336,228,2472,2,0,L|306:222,2,30.2500009231568,2|2|2,0:0|0:0|0:0,0:0:0:0:
400,280,2916,2,0,P|428:276|454:254,2,60.5000018463135,2|2|2,0:0|0:0|0:0,0:0:0:0:
336,364,3805,1,2,0:0:0:0:
336,364,4027,2,0,L|276:353,1,60.5000018463135,2|2,0:0|0:0,0:0:0:0:
52,324,4694,5,2,0:0:0:0:
52,324,4916,1,2,0:0:0:0:
52,324,5138,2,0,L|62:264,1,60.5000018463135,2|2,0:0|0:0,0:0:0:0:
132,224,5582,6,0,L|161:229,2,30.2500009231568,2|2|2,0:0|0:0|0:0,0:0:0:0:
176,156,6027,2,0,L|205:161,2,30.2500009231568,2|2|2,0:0|0:0|0:0,0:0:0:0:
88,80,6471,2,0,P|60:76|33:54,2,60.5000018463135,2|2|2,0:0|0:0|0:0,0:0:0:0:
192,52,7360,1,2,0:0:0:0:
260,88,7583,1,2,0:0:0:0:
316,36,7805,2,0,P|339:17|369:12,1,60.5000018463135,2|0,0:0|0:0,0:0:0:0:
512,192,8916,6,0,L|390:170,1,123.750004720688,2|0,0:0|0:0,0:0:0:0:
368,188,9361,1,2,0:0:0:0:
424,264,9583,2,0,P|342:267|273:310,1,165.000006294251,2|2,0:0|0:0,0:0:0:0:
200,376,10250,1,2,0:0:0:0:
116,308,10472,2,0,B|93:181|93:181|120:207,1,165.000006294251,2|2,0:0|0:0,0:0:0:0:
240,168,11139,1,2,0:0:0:0:
176,32,11361,2,0,L|161:113,1,82.5000031471254,2|0,0:0|0:0,0:0:0:0:
12,40,11805,6,0,L|4:0,2,41.2500015735627,2|0|10,1:2|1:0|0:2,0:0:0:0:
84,76,12250,1,2,1:2:0:0:
0,264,12472,5,10,0:2:0:0:
0,264,14250,6,0,B|50:283|92:239|92:239|137:189|199:210,1,206.25,6|2,1:2|0:0,0:0:0:0:
192,236,14694,1,8,1:2:0:0:
376,356,14916,2,0,L|379:314,1,41.2500015735627,2|8,0:0|0:2,0:0:0:0:
364,292,15139,2,0,P|336:272|302:267,1,68.75,0|0,1:0|0:0,0:0:0:0:
106,375,15361,1,2,0:0:0:0:
129,372,15472,1,2,0:0:0:0:
153,370,15583,2,0,L|221:364,1,68.75,10|2,1:2|0:0,0:0:0:0:
302,267,15805,2,0,L|296:198,1,68.75,2|2,0:0|0:0,0:0:0:0:
404,200,16027,6,0,B|311:175|311:175|304:169|304:169|206:142,1,206.25,2|2,1:2|0:0,0:0:0:0:
200,120,16472,1,8,1:2:0:0:
384,0,16694,2,0,L|391:40,1,41.2500015735627,2|8,0:0|0:2,0:0:0:0:
408,56,16916,2,0,P|435:36|469:31,1,68.75,0|0,1:0|0:0,0:0:0:0:
465,224,17139,2,0,P|431:219|403:199,1,68.75
304,28,17361,2,0,L|315:95,1,68.75,8|0,1:2|0:0,0:0:0:0:
212,220,17583,6,0,L|184:215,2,27.5000010490418,2|2|2,0:0|0:0|0:0,0:0:0:0:
272,272,17805,6,0,B|295:253|296:224|296:224|355:290|337:378,1,206.25,2|2,1:2|0:0,0:0:0:0:
320,384,18250,1,8,1:2:0:0:
160,312,18472,2,0,L|119:304,1,41.2500015735627,2|8,0:0|0:2,0:0:0:0:
96,284,18694,2,0,P|75:256|70:222,1,68.75,0|0,1:0|0:0,0:0:0:0:
232,68,18916,1,2,0:0:0:0:
220,88,19027,1,2,0:0:0:0:
208,108,19139,2,0,P|180:127|146:133,1,68.75,10|2,1:2|0:0,0:0:0:0:
68,16,19361,2,0,L|136:21,1,68.75,2|2,0:0|0:0,0:0:0:0:
336,44,19583,6,0,B|388:38|428:64|444:102|444:102|416:136|360:120,1,206.25,2|2,1:2|0:0,0:0:0:0:
360,144,20027,1,12,1:2:0:0:
232,232,20250,2,0,P|235:198|259:174,1,68.75,10|0,0:2|0:0,0:0:0:0:
512,159,20472,5,0,1:0:0:0:
507,182,20583,1,8,0:2:0:0:
503,206,20694,1,8,0:2:0:0:
499,229,20805,1,8,0:2:0:0:
469,260,20916,5,8,1:2:0:0:
473,283,21027,1,8,0:2:0:0:
477,307,21138,1,8,0:2:0:0:
481,330,21249,1,8,0:2:0:0:
503,352,21361,6,0,P|450:324|392:340,2,123.750004720688,6|2|2,1:2|0:0|0:0,0:0:0:0:
312,384,22472,1,2,0:0:0:0:
236,356,22694,1,2,1:2:0:0:
296,304,22916,1,2,0:0:0:0:
160,324,23139,6,0,P|144:286|154:247,1,82.5000031471254,2|2,1:2|0:0,0:0:0:0:
168,228,23472,2,0,P|183:190|173:151,1,82.5000031471254,2|2,0:0|0:0,0:0:0:0:
156,124,23805,1,2,0:0:0:0:
156,124,24250,1,0,0:0:0:0:
328,8,24472,1,0,1:0:0:0:
348,20,24583,1,0,0:0:0:0:
360,36,24694,2,0,L|367:76,1,41.2500015735627,2|0,0:0|0:0,0:0:0:0:
372,104,24916,6,0,B|310:98|310:98|306:94|306:94|250:89,2,123.750004720688,2|2|2,1:2|0:0|0:0,0:0:0:0:
224,168,26027,2,0,L|183:175,1,41.2500015735627,2|0,0:0|0:0,0:0:0:0:
108,187,26250,1,2,1:2:0:0:
156,251,26472,1,2,0:0:0:0:
32,148,26694,6,0,P|16:185|26:224,1,82.5000031471254,2|2,1:2|0:0,0:0:0:0:
40,244,27027,1,2,0:0:0:0:
88,352,27250,1,2,0:0:0:0:
105,326,27361,2,0,P|145:325|177:350,1,82.5000031471254,2|0,0:0|1:0,0:0:0:0:
177,350,27805,1,0,0:0:0:0:
256,256,28027,2,0,L|296:248,3,41.2500015735627,8|0|0|0,1:2|0:0|0:0|0:0,0:0:0:0:
324,272,28472,6,0,P|381:286|396:344,2,123.750004720688,6|2|2,1:2|0:0|0:0,0:0:0:0:
500,160,29583,1,2,0:0:0:0:
512,236,29805,1,2,1:2:0:0:
436,208,30027,1,2,0:0:0:0:
512,76,30250,6,0,P|474:60|435:70,1,82.5000031471254,2|2,1:2|0:0,0:0:0:0:
416,84,30583,2,0,P|378:99|339:89,1,82.5000031471254,2|2,0:0|0:0,0:0:0:0:
312,72,30916,1,2,0:0:0:0:
312,72,31361,1,0,0:0:0:0:
108,156,31583,1,2,1:2:0:0:
144,88,31805,2,0,P|175:114|188:152,1,82.5000031471254,2|0,0:0|1:0,0:0:0:0:
188,152,32472,5,2,1:2:0:0:
93,237,32694,2,0,L|107:155,1,82.5000031471254,2|0,0:0|1:0,0:0:0:0:
252,228,33139,1,2,0:0:0:0:
252,228,33250,1,2,0:0:0:0:
252,228,33361,1,2,1:2:0:0:
328,180,33583,1,2,0:0:0:0:
328,180,33694,1,2,0:0:0:0:
328,180,33805,6,0,L|409:194,1,82.5000031471254,2|2,1:2|0:0,0:0:0:0:
424,216,34139,1,2,0:0:0:0:
504,332,34361,1,2,0:0:0:0:
488,312,34472,2,0,L|447:304,1,41.2500015735627,2|0,0:0|0:0,0:0:0:0:
276,336,34694,6,0,L|221:345,1,55,12|0,1:2|0:0,0:0:0:0:
56,312,34916,1,8,0:2:0:0:
80,296,35027,1,8,0:2:0:0:
88,264,35139,1,8,1:2:0:0:
80,232,35250,1,8,0:2:0:0:
56,212,35361,2,0,L|1:202,1,55,8|4,0:3|0:3,0:0:0:0:
40,120,35583,5,2,1:2:0:0:
256,248,35916,1,2,1:2:0:0:
40,120,36250,1,2,1:2:0:0:
456,48,37361,5,2,1:2:0:0:
248,120,37694,1,2,1:2:0:0:
400,216,38027,1,2,1:2:0:0:
400,216,38472,6,0,L|389:176,2,41.2500015735627,2|2|2,0:0|0:0|0:0,0:0:0:0:
256,384,39139,5,2,1:2:0:0:
256,152,39472,1,2,1:2:0:0:
256,384,39806,1,2,1:2:0:0:
412,108,40916,6,0,B|338:88|338:88|331:82|331:82|254:61,2,165,6|2|2,1:2|1:2|1:2,0:0:0:0:
496,132,41805,2,0,L|503:172,1,41.2500015735627,10|0,0:2|0:0,0:0:0:0:
448,300,42027,1,8,0:2:0:0:
428,268,42139,1,8,0:2:0:0:
392,260,42250,1,10,0:2:0:0:
360,280,42361,1,8,0:2:0:0:
352,312,42472,1,8,0:3:0:0:
364,344,42583,1,4,0:3:0:0:
392,352,42694,6,0,L|283:371,1,110,4|10,1:2|0:0,0:0:0:0:
252,348,43027,1,0,0:0:0:0:
224,320,43139,2,0,L|115:339,1,110,2|10,1:2|0:2,0:0:0:0:
80,320,43472,1,8,0:2:0:0:
47,296,43583,2,0,P|93:268|101:215,1,110,2|10,1:2|0:2,0:0:0:0:
84,180,43916,1,8,0:2:0:0:
56,156,44027,2,0,P|10:128|2:75,1,110,2|10,1:2|0:2,0:0:0:0:
188,0,44472,6,0,L|202:53,1,55,2|0,1:2|0:0,0:0:0:0:
264,128,44694,2,0,L|278:74,1,55,10|8,0:2|0:2,0:0:0:0:
360,44,44916,2,0,L|374:97,1,55,2|0,1:2|0:0,0:0:0:0:
436,172,45138,2,0,L|450:118,1,55,10|8,0:2|0:2,0:0:0:0:
512,268,45361,6,0,P|460:255|417:288,1,110,0|8,1:2|0:2,0:0:0:0:
408,316,45694,1,8,0:2:0:0:
380,348,45805,2,0,L|326:333,1,55,0|0,1:2|0:0,0:0:0:0:
248,308,46027,2,0,L|194:293,1,55,10|8,0:2|0:2,0:0:0:0:
8,252,46250,5,14,1:2:0:0:
48,240,46361,1,8,0:2:0:0:
80,208,46472,1,8,0:2:0:0:
72,164,46583,1,8,0:2:0:0:
40,132,46694,1,8,0:2:0:0:
56,88,46805,1,8,0:2:0:0:
104,80,46916,2,0,L|158:89,1,55,10|10,0:2|0:2,0:0:0:0:
268,0,47139,5,10,0:3:0:0:
324,8,47250,1,8,0:3:0:0:
356,56,47361,1,8,0:3:0:0:
340,108,47472,1,8,0:3:0:0:
292,124,47583,2,0,L|301:178,1,55,6|4,0:3|0:3,0:0:0:0:
396,240,47805,5,4,0:3:0:0:
416,232,47916,1,4,0:3:0:0:
436,224,48027,2,0,B|450:141|450:141|455:134|455:134|468:63,2,165,6|0|0,1:2|1:0|1:0,0:0:0:0:
512,288,48916,2,0,L|472:304,1,41.2500015735627,12|0,0:2|0:0,0:0:0:0:
331,361,49139,5,8,0:2:0:0:
287,353,49250,1,8,0:2:0:0:
244,346,49361,1,8,0:2:0:0:
204,338,49472,1,8,0:2:0:0:
156,300,49583,1,8,0:3:0:0:
114,310,49694,1,4,0:3:0:0:
81,355,49805,5,8,1:2:0:0:
0,192,50139,1,8,1:2:0:0:
81,29,50472,1,8,1:2:0:0:
81,29,51583,6,0,P|147:17|205:52,1,137.5,6|2,1:2|0:0,0:0:0:0:
324,184,51916,1,2,0:0:0:0:
280,224,52027,2,0,B|291:157|291:157|296:153|296:153|307:90,1,137.5,10|2,1:2|0:0,0:0:0:0:
464,104,52361,1,2,0:0:0:0:
448,52,52472,2,0,P|428:23|397:11,1,68.75,2|0,1:2|0:0,0:0:0:0:
448,216,52694,2,0,P|479:203|498:175,1,68.75,2|0,0:0|0:0,0:0:0:0:
280,224,52916,2,0,L|268:291,1,68.75,10|0,1:2|0:0,0:0:0:0:
392,128,53139,1,2,0:0:0:0:
392,128,53250,1,0,0:0:0:0:
392,128,53361,6,0,L|415:263,1,137.5,0|2,1:2|0:0,0:0:0:0:
184,384,53805,2,0,L|172:317,1,68.75,10|0,1:2|0:0,0:0:0:0:
52,280,54027,2,0,B|88:291|117:262|117:262|143:234|184:244,1,137.5,2|2,0:0|1:2,0:0:0:0:
177,242,54472,6,0,P|203:221|210:188,1,68.75,2|0,0:0|0:0,0:0:0:0:
0,112,54694,2,0,L|11:179,1,68.75,10|0,1:2|0:0,0:0:0:0:
184,112,54916,1,2,0:0:0:0:
184,112,55027,1,2,0:0:0:0:
184,112,55139,6,0,P|154:52|92:25,1,137.5,2|2,1:2|0:0,0:0:0:0:
133,202,55472,1,2,0:0:0:0:
177,242,55583,2,0,B|275:224|275:224|288:250|309:255,1,137.5,10|2,1:2|0:0,0:0:0:0:
464,292,55916,1,2,0:0:0:0:
412,328,56027,2,0,L|423:260,1,68.75,2|0,1:2|0:0,0:0:0:0:
336,104,56250,2,0,P|305:117|286:145,1,68.75,2|0,0:0|0:0,0:0:0:0:
440,184,56472,2,0,L|507:172,1,68.75,10|0,1:2|0:0,0:0:0:0:
300,252,56694,6,0,B|240:241|240:241|237:236|237:236|166:224,2,137.5,2|0|2,0:0|1:2|0:0,0:0:0:0:
300,252,57361,2,0,P|311:283|302:316,1,68.75,10|0,0:2|0:0,0:0:0:0:
128,348,57583,2,0,L|60:359,1,68.75,2|0,0:0|0:2,0:0:0:0:
0,208,57805,5,0,1:0:0:0:
32,256,57916,2,0,L|99:244,1,68.75,8|0,0:2|0:0,0:0:0:0:
152,140,58139,5,0,1:0:0:0:
184,92,58250,2,0,L|251:103,1,68.75,8|0,0:2|0:0,0:0:0:0:
448,80,58472,1,8,0:2:0:0:
456,36,58583,1,8,0:2:0:0:
412,8,58694,6,0,B|440:169|440:169|443:140|468:119,1,206.25,6|0,1:2|0:0,0:0:0:0:
508,216,59139,2,0,P|483:239|450:250,1,68.75,10|0,1:2|0:0,0:0:0:0:
351,155,59361,2,0,P|285:150|232:191,1,137.5,2|0,0:0|1:0,0:0:0:0:
0,384,59805,2,0,P|28:365|46:336,1,68.75,2|0,0:0|0:0,0:0:0:0:
0,204,60027,2,0,P|18:232|47:250,1,68.75,10|0,1:2|0:0,0:0:0:0:
168,136,60250,2,0,L|179:68,1,68.75,2|0,0:0|0:0,0:0:0:0:
84,172,60472,6,0,L|60:36,1,137.5,0|2,1:2|0:0,0:0:0:0:
368,8,60916,1,10,1:2:0:0:
412,44,61027,1,0,0:0:0:0:
400,104,61139,2,0,L|264:80,1,137.5,2|0,0:0|1:2,0:0:0:0:
264,80,61583,2,0,P|258:113|268:146,1,68.75,2|0,0:0|0:0,0:0:0:0:
496,188,61805,2,0,L|484:120,1,68.75,10|0,1:2|0:0,0:0:0:0:
268,228,62027,6,0,B|303:235|329:211|329:211|359:182|400:192,1,137.5,2|0,0:0|1:2,0:0:0:0:
394,190,62472,2,0,L|383:262,1,68.75,2|0,0:0|0:0,0:0:0:0:
512,384,62694,2,0,L|500:312,1,68.75,10|0,1:2|0:0,0:0:0:0:
312,308,62916,1,2,0:0:0:0:
296,328,63027,1,0,0:0:0:0:
280,348,63139,6,0,B|218:337|218:337|209:331|209:331|146:320,2,137.5,2|2|10,1:2|0:0|1:2,0:0:0:0:
156,236,63805,2,0,P|122:237|93:255,1,68.75,2|0,0:0|0:0,0:0:0:0:
0,340,64027,5,2,1:2:0:0:
48,124,64250,1,2,0:0:0:0:
146,320,64472,1,14,1:2:0:0:
52,244,64694,2,0,P|80:225|114:224,1,68.75,2|0,0:0|0:0,0:0:0:0:
292,256,64916,5,10,1:2:0:0:
312,253,65027,1,8,0:2:0:0:
332,250,65139,1,10,0:2:0:0:
352,246,65250,1,8,0:2:0:0:
381,193,65361,1,10,1:2:0:0:
436,168,65472,1,8,0:2:0:0:
492,188,65583,1,10,0:2:0:0:
512,244,65694,1,8,0:2:0:0:
468,288,65805,6,0,B|473:228|473:228|477:224|477:224|483:152,1,137.5,6|2,1:2|0:0,0:0:0:0:
380,16,66139,1,2,0:0:0:0:
411,68,66250,2,0,P|354:102|287:95,1,137.5,10|2,1:2|0:0,0:0:0:0:
108,4,66583,1,2,0:0:0:0:
172,16,66694,2,0,B|208:24|208:24|177:31,1,68.75,2|0,1:2|0:0,0:0:0:0:
40,116,66916,2,0,B|4:124|4:124|34:131,1,68.75,2|0,0:0|0:0,0:0:0:0:
176,208,67139,2,0,L|187:140,1,68.75,10|0,1:2|0:0,0:0:0:0:
40,280,67361,1,2,0:0:0:0:
40,280,67472,1,0,0:0:0:0:
40,280,67583,6,0,B|76:268|101:296|101:296|128:324|165:316,1,137.5,0|2,1:2|0:0,0:0:0:0:
456,384,68027,2,0,P|441:353|414:332,1,68.75,10|0,1:2|0:0,0:0:0:0:
292,292,68249,2,0,B|328:303|357:274|357:274|383:246|424:256,1,137.5,2|2,0:0|1:2,0:0:0:0:
417,254,68694,6,0,L|429:187,1,68.75,2|0,0:0|0:0,0:0:0:0:
272,48,68916,2,0,L|283:115,1,68.75,10|0,1:2|0:0,0:0:0:0:
496,24,69138,1,2,0:0:0:0:
496,24,69249,1,0,0:0:0:0:
496,24,69361,6,0,L|360:0,1,137.5,2|2,1:2|0:0,0:0:0:0:
136,96,69694,1,2,0:0:0:0:
192,124,69805,2,0,B|210:226|210:226|206:209|192:196,1,137.5,10|2,1:2|0:0,0:0:0:0:
28,324,70138,1,2,0:0:0:0:
88,308,70249,2,0,P|116:289|131:258,1,68.75,10|8,1:2|0:2,0:0:0:0:
24,128,70472,1,10,0:3:0:0:
20,152,70583,1,4,0:3:0:0:
20,176,70694,1,2,1:2:0:0:
20,176,70916,6,0,B|60:128|132:120|188:152|188:152|152:148|120:172,1,247.500009441376,14|0,0:2|0:0,0:0:0:0:
192,232,71361,2,0,P|224:222|250:199,1,68.75,2|0,0:0|0:0,0:0:0:0:
256,112,71583,2,0,P|239:82|209:67,1,68.75,10|0,1:2|0:0,0:0:0:0:
100,312,71805,6,0,L|182:319,1,82.5000031471254,14|0,0:2|0:0,0:0:0:0:
400,336,72027,1,0,1:2:0:0:
432,300,72139,1,8,0:2:0:0:
436,256,72250,1,8,0:2:0:0:
408,220,72361,1,8,0:2:0:0:
364,188,72472,1,8,1:2:0:0:
364,140,72583,1,8,0:2:0:0:
404,108,72694,1,8,0:2:0:0:
460,120,72805,1,8,0:2:0:0:
472,176,72916,6,0,B|421:195|379:151|379:151|340:104|272:128,1,206.25,4|0,1:2|0:0,0:0:0:0:
236,188,73361,2,0,P|213:162|207:125,1,68.75,10|0,1:2|0:0,0:0:0:0:
116,52,73583,2,0,P|168:10|235:14,1,137.5,2|0,0:0|1:0,0:0:0:0:
320,216,74027,6,0,P|302:245|273:264,1,68.75,2|0,0:0|0:0,0:0:0:0:
240,348,74249,2,0,P|210:330|192:301,1,68.75,10|0,1:2|0:0,0:0:0:0:
24,232,74472,2,0,L|160:220,1,137.5,2|0,0:0|1:2,0:0:0:0:
428,304,74916,5,2,0:0:0:0:
440,272,75027,1,0,0:0:0:0:
448,240,75139,2,0,L|436:172,1,68.75,10|0,1:2|0:0,0:0:0:0:
347,68,75361,2,0,P|297:111|304:176,2,137.5,2|2|2,0:0|1:2|0:0,0:0:0:0:
348,68,76027,2,0,L|280:56,1,68.75,8|0,1:2|0:0,0:0:0:0:
164,132,76250,2,0,L|96:144,1,68.75,2|0,0:0|0:0,0:0:0:0:
0,0,76472,6,0,P|26:21|35:53,1,68.75,2|0,1:2|0:0,0:0:0:0:
36,204,76694,2,0,P|9:225|0:257,1,68.75,2|0,0:0|0:0,0:0:0:0:
188,316,76916,2,0,P|166:289|134:280,1,68.75,10|0,1:2|0:0,0:0:0:0:
8,360,77139,2,0,L|76:372,1,68.75,2|0,0:0|0:0,0:0:0:0:
276,292,77361,6,0,B|287:230|287:230|293:221|293:221|304:158,2,137.5,2|2|10,1:2|0:0|1:2,0:0:0:0:
276,292,78027,2,0,P|310:291|339:273,1,68.75,2|0,0:0|0:0,0:0:0:0:
448,64,78250,6,0,B|388:84|383:139|383:139|364:88|304:80,1,206.25,2|2,1:2|0:0,0:0:0:0:
224,64,78694,2,0,P|232:31|258:8,1,68.75,12|0,1:2|0:0,0:0:0:0:
303,158,78916,1,0,0:0:0:0:
280,176,79027,1,8,0:2:0:0:
259,192,79139,2,0,P|226:183|203:157,1,68.75,8|0,1:3|0:0,0:0:0:0:
38,0,79361,5,10,0:2:0:0:
34,40,79472,1,8,0:2:0:0:
48,78,79583,1,8,1:2:0:0:
76,109,79694,1,8,0:2:0:0:
93,146,79805,1,10,0:2:0:0:
94,187,79916,1,8,0:2:0:0:
89,200,80027,5,4,1:2:0:0:
492,372,80694,5,0,1:0:0:0:
488,344,80805,1,0,1:0:0:0:
436,312,80916,1,8,0:2:0:0:
436,312,81805,6,0,B|274:284|274:284|298:288|342:267,1,206.25,6|2,1:2|0:0,0:0:0:0:
292,256,82249,1,8,1:2:0:0:
196,100,82472,2,0,L|193:142,1,41.2500015735627,2|8,0:0|0:2,0:0:0:0:
208,160,82694,2,0,P|236:140|270:135,1,68.75,0|0,1:0|0:0,0:0:0:0:
464,208,82916,1,2,0:0:0:0:
441,203,83027,1,2,0:0:0:0:
417,198,83138,2,0,L|350:186,1,68.75,10|2,1:2|0:0,0:0:0:0:
312,68,83360,2,0,P|300:36|305:2,1,68.75,2|10,0:0|0:2,0:0:0:0:
448,292,83582,6,0,B|245:256,1,206.25,2|2,1:2|0:0,0:0:0:0:
232,280,84027,1,8,1:2:0:0:
92,216,84250,2,0,L|85:176,1,41.2500015735627,2|8,0:0|0:2,0:0:0:0:
64,160,84472,2,0,P|30:165|3:185,1,68.75,0|0,1:0|0:0,0:0:0:0:
104,384,84694,2,0,P|124:356|129:322,1,68.75
184,184,84916,2,0,L|173:117,1,68.75,8|0,1:2|0:0,0:0:0:0:
156,4,85139,6,0,L|128:-1,2,27.5000010490418,2|2|2,0:0|0:0|0:0,0:0:0:0:
228,48,85361,6,0,B|275:6|352:15|352:15|370:51|419:67,1,206.25,2|2,1:2|0:0,0:0:0:0:
424,56,85805,1,8,1:2:0:0:
512,192,86027,2,0,L|504:233,1,41.2500015735627,2|8,0:0|0:2,0:0:0:0:
484,252,86250,2,0,P|456:231|422:226,1,68.75,0|0,1:0|0:0,0:0:0:0:
296,372,86471,1,2,0:0:0:0:
318,377,86582,1,2,0:0:0:0:
341,383,86694,2,0,P|374:377|403:357,1,68.75,10|2,1:2|0:0,0:0:0:0:
312,264,86916,2,0,L|244:259,1,68.75,2|10,0:0|0:2,0:0:0:0:
61,144,87138,6,0,B|10:126|10:126|160:100,1,206.25,6|10,1:2|0:2,0:0:0:0:
164,80,87582,1,0,1:0:0:0:
304,0,87805,2,0,P|328:24|330:58,1,68.75,12|0,0:2|0:0,0:0:0:0:
184,176,88027,5,0,1:0:0:0:
211,171,88139,1,8,0:2:0:0:
239,166,88249,1,8,0:2:0:0:
266,161,88360,1,8,0:2:0:0:
300,128,88472,5,8,1:2:0:0:
327,133,88584,1,8,0:2:0:0:
355,138,88694,1,8,0:2:0:0:
382,143,88805,1,8,0:2:0:0:
408,180,88916,5,6,1:2:0:0:
64,192,95805,5,8,0:2:0:0:
56,212,95916,1,8,0:2:0:0:
48,232,96027,6,0,L|169:210,2,123.750004720688,6|2|2,1:2|0:0|0:0,0:0:0:0:
296,316,97138,1,2,0:0:0:0:
366,282,97360,1,2,1:2:0:0:
361,362,97582,1,2,0:0:0:0:
256,232,97805,6,0,P|240:194|250:155,1,82.5000031471254,2|2,1:2|0:0,0:0:0:0:
260,136,98138,2,0,P|298:121|337:131,1,82.5000031471254,2|2,0:0|0:0,0:0:0:0:
368,152,98471,1,2,0:0:0:0:
368,152,98916,1,0,0:0:0:0:
432,4,99138,1,2,1:2:0:0:
468,72,99360,2,0,P|499:46|512:8,1,82.5000031471254,2|0,0:0|1:0,0:0:0:0:
232,56,100027,5,2,1:2:0:0:
152,64,100250,2,0,P|164:102|196:128,1,82.5000031471254,2|0,0:0|1:0,0:0:0:0:
272,164,100694,1,0,0:0:0:0:
392,108,100916,1,2,1:2:0:0:
396,128,101027,1,2,0:0:0:0:
400,148,101138,1,2,0:0:0:0:
404,172,101249,1,2,0:0:0:0:
424,192,101361,6,0,L|316:211,1,110,6|2,1:2|0:0,0:0:0:0:
304,232,101694,2,0,P|342:270|343:324,1,110,10|2,0:2|0:2,0:0:0:0:
352,344,102027,2,0,L|407:354,1,55,10|0,0:2|0:0,0:0:0:0:
256,300,102249,6,0,L|201:309,1,55,2|8,1:2|0:2,0:0:0:0:
68,212,102471,1,8,0:2:0:0:
92,176,102582,1,8,0:2:0:0:
132,168,102694,1,8,1:2:0:0:
168,180,102805,1,8,0:2:0:0:
188,212,102916,2,0,L|198:157,1,55,8|4,0:3|0:3,0:0:0:0:
220,48,103138,5,2,1:2:0:0:
448,0,103471,1,2,1:2:0:0:
220,48,103805,1,2,1:2:0:0:
256,296,104916,5,2,1:2:0:0:
396,192,105249,1,2,1:2:0:0:
116,192,105583,1,2,1:2:0:0:
116,192,106027,6,0,L|75:184,2,41.2500015735627,2|2|2,0:0|0:0|0:0,0:0:0:0:
356,280,106694,5,2,1:2:0:0:
131,340,107027,1,2,1:2:0:0:
356,280,107361,1,2,1:2:0:0:
76,181,108472,6,0,B|115:193|147:156|147:156|178:119|232:137,2,165,6|2|2,1:2|1:2|1:2,0:0:0:0:
76,181,109361,2,0,P|59:169|53:150,1,41.2500015735627,10|0,0:2|0:0,0:0:0:0:
192,24,109582,1,8,0:2:0:0:
232,8,109694,1,8,0:2:0:0:
268,16,109805,1,10,0:2:0:0:
288,44,109916,1,8,0:2:0:0:
328,56,110027,1,8,0:3:0:0:
364,44,110138,1,4,0:3:0:0:
384,8,110250,6,0,L|403:117,1,110,6|10,1:2|0:0,0:0:0:0:
424,144,110582,1,8,0:2:0:0:
444,168,110694,2,0,P|392:184|361:229,1,110,2|10,1:2|0:2,0:0:0:0:
344,256,111027,1,8,0:2:0:0:
328,288,111139,2,0,P|380:304|411:349,1,110,2|10,1:2|0:2,0:0:0:0:
400,368,111471,1,8,0:2:0:0:
384,384,111582,2,0,L|276:365,1,110,2|10,1:2|0:2,0:0:0:0:
64,332,112027,6,0,L|50:279,1,55,2|0,1:2|0:0,0:0:0:0:
192,256,112249,2,0,L|144:284,1,55,10|8,0:2|0:2,0:0:0:0:
100,196,112471,2,0,L|114:143,1,55,2|0,1:2|0:0,0:0:0:0:
244,100,112693,2,0,L|190:86,1,55,10|8,0:2|0:2,0:0:0:0:
196,0,112916,6,0,L|302:28,1,110,0|8,1:2|0:2,0:0:0:0:
332,24,113249,1,8,0:2:0:0:
364,12,113360,2,0,P|378:36|379:63,1,55,0|0,1:2|0:0,0:0:0:0:
468,120,113583,2,0,P|454:144|453:171,1,55,10|8,0:2|0:2,0:0:0:0:
508,284,113805,5,14,1:2:0:0:
484,312,113916,1,8,0:2:0:0:
452,320,114027,1,8,0:2:0:0:
416,308,114138,1,8,0:2:0:0:
380,316,114249,1,8,0:2:0:0:
360,348,114360,1,8,0:2:0:0:
364,384,114471,2,0,L|310:375,1,55,10|10,0:2|0:2,0:0:0:0:
160,232,114694,5,10,0:3:0:0:
136,280,114805,1,8,0:3:0:0:
164,332,114916,1,8,0:3:0:0:
216,336,115027,1,8,0:3:0:0:
254,293,115138,2,0,L|308:284,1,55,6|4,0:3|0:3,0:0:0:0:
404,180,115360,5,4,0:3:0:0:
384,172,115471,1,4,0:3:0:0:
364,164,115583,2,0,B|319:177|287:143|287:143|254:110|205:121,2,165,6|2|2,1:2|1:2|1:2,0:0:0:0:
212,232,116472,2,0,P|213:212|225:195,1,41.2500015735627,12|0,0:2|0:0,0:0:0:0:
344,88,116694,5,8,0:2:0:0:
320,36,116805,1,8,0:2:0:0:
268,12,116916,1,8,0:2:0:0:
208,24,117027,1,8,0:2:0:0:
168,64,117138,1,8,0:3:0:0:
164,120,117249,1,4,0:3:0:0:
168,132,117360,5,2,1:2:0:0:
176,160,117694,1,2,0:0:0:0:
184,188,118027,1,2,0:0:0:0:
56,296,118472,5,0,1:0:0:0:
52,312,118583,1,0,1:0:0:0:
4,356,118694,6,0,L|85:341,1,82.5,8|0,0:2|0:0,0:0:0:0:
144,280,119139,6,0,B|181:249|229:257|229:257|241:287|280:293,1,137.5,6|2,1:2|0:0,0:0:0:0:
452,336,119472,1,2,0:0:0:0:
408,384,119583,2,0,B|413:320|413:320|417:316|417:316|423:248,1,137.5,10|2,1:2|0:0,0:0:0:0:
252,176,119917,1,2,0:0:0:0:
304,216,120028,2,0,P|333:196|345:165,1,68.75,2|0,1:2|0:0,0:0:0:0:
244,84,120250,2,0,L|176:72,1,68.75,2|0,0:2|0:0,0:0:0:0:
388,0,120472,2,0,L|455:12,1,68.75,10|0,1:2|0:0,0:0:0:0:
172,156,120695,1,2,0:0:0:0:
172,156,120806,1,0,0:0:0:0:
172,156,120917,6,0,L|37:133,1,137.5,0|2,1:2|0:0,0:0:0:0:
256,376,121361,2,0,L|323:364,1,68.75,10|0,1:2|0:0,0:0:0:0:
420,316,121583,2,0,P|368:272|300:273,1,137.5,2|2,0:0|1:2,0:0:0:0:
301,272,122028,6,0,P|327:251|334:218,1,68.75,2|0,0:0|0:0,0:0:0:0:
172,156,122250,2,0,P|178:189|204:210,1,68.75,10|0,1:2|0:0,0:0:0:0:
416,96,122472,1,2,0:0:0:0:
416,96,122583,1,2,0:0:0:0:
416,96,122695,6,0,L|279:107,1,137.5,2|2,1:2|0:0,0:0:0:0:
128,20,123028,1,2,0:0:0:0:
72,52,123139,2,0,B|107:73|106:106|106:106|122:78|166:77,1,137.5,10|2,1:2|0:0,0:0:0:0:
348,188,123472,1,2,0:0:0:0:
304,232,123583,2,0,P|287:261|290:295,1,68.75,2|2,1:2|0:0,0:0:0:0:
512,196,123806,2,0,P|481:183|462:155,1,68.75,2|0,0:0|0:0,0:0:0:0:
440,348,124028,2,0,L|373:336,1,68.75,10|0,1:2|0:0,0:0:0:0:
192,300,124250,6,0,B|155:288|130:316|130:316|104:344|66:336,2,137.5,2|0|2,0:0|1:2|0:0,0:0:0:0:
0,216,124917,2,0,P|0:182|18:154,1,68.75,10|0,0:2|0:0,0:0:0:0:
232,68,125139,2,0,L|221:136,1,68.75,2|0,0:0|0:2,0:0:0:0:
124,212,125361,6,0,B|95:50|95:50|99:74|79:97,1,206.25,0|0,1:2|0:0,0:0:0:0:
20,48,125805,1,8,1:2:0:0:
236,224,126028,1,8,0:2:0:0:
252,244,126139,1,8,0:2:0:0:
268,264,126250,6,0,B|328:248|362:297|362:297|396:348|468:324,1,206.25,6|0,1:2|0:0,0:0:0:0:
512,252,126695,2,0,P|487:229|454:218,1,68.75,10|0,1:2|0:0,0:0:0:0:
339,40,126917,2,0,L|351:177,1,137.5,2|0,0:0|1:0,0:0:0:0:
403,378,127361,2,0,P|431:359|448:329,1,68.75,2|0,0:0|0:0,0:0:0:0:
276,212,127583,2,0,P|294:240|324:256,1,68.75,10|0,1:2|0:0,0:0:0:0:
448,116,127806,2,0,L|380:105,1,68.75,2|0,0:0|0:0,0:0:0:0:
260,108,128028,6,0,P|206:68|202:1,1,137.5,0|2,1:2|0:0,0:0:0:0:
324,256,128472,1,10,0:2:0:0:
336,312,128583,1,0,0:0:0:0:
288,344,128695,2,0,B|251:332|222:361|222:361|196:389|155:379,1,137.5,2|0,0:0|1:2,0:0:0:0:
162,381,129139,2,0,P|137:357|125:325,1,68.75,2|0,0:0|0:0,0:0:0:0:
204,172,129361,2,0,P|192:204|167:227,1,68.75,10|0,1:2|0:0,0:0:0:0:
0,136,129583,6,0,B|59:125|59:125|67:128|67:128|135:116,1,137.5,2|0,0:0|1:2,0:0:0:0:
135,116,130028,2,0,L|145:48,1,68.75,2|0,0:0|0:0,0:0:0:0:
0,216,130250,2,0,L|11:283,1,68.75,10|0,1:2|0:0,0:0:0:0:
216,304,130472,1,2,0:0:0:0:
248,292,130583,1,0,0:0:0:0:
280,280,130695,6,0,P|346:272|396:316,2,137.5,2|2|10,1:2|0:0|1:2,0:0:0:0:
452,380,131361,2,0,P|485:372|509:348,1,68.75,2|0,0:0|0:0,0:0:0:0:
450,251,131583,5,2,1:2:0:0:
320,352,131806,1,2,0:0:0:0:
398,185,132027,2,0,P|426:166|460:165,1,68.75,14|0,1:2|0:0,0:0:0:0:
307,150,132250,2,0,P|273:149|244:130,1,68.75,2|0,0:0|0:0,0:0:0:0:
204,0,132472,5,10,1:2:0:0:
201,20,132583,1,8,0:2:0:0:
198,40,132695,1,10,0:2:0:0:
194,60,132806,1,8,0:2:0:0:
136,72,132917,1,10,1:2:0:0:
92,112,133028,1,8,0:2:0:0:
84,172,133139,1,10,0:2:0:0:
116,224,133250,1,8,0:2:0:0:
176,244,133361,6,0,B|286:224|286:224|270:227|243:256,1,137.5,6|2,1:2|0:0,0:0:0:0:
432,360,133695,1,2,0:0:0:0:
356,344,133806,2,0,P|393:289|459:288,1,137.5,10|2,1:2|0:0,0:0:0:0:
512,118,134139,1,2,0:0:0:0:
481,175,134250,2,0,P|448:171|421:149,1,68.75,2|0,1:2|0:0,0:0:0:0:
284,224,134472,2,0,P|263:196|259:163,1,68.75,2|0,0:0|0:0,0:0:0:0:
348,0,134695,2,0,L|337:68,1,68.75,10|0,1:2|0:0,0:0:0:0:
140,136,134917,1,2,0:0:0:0:
140,136,135028,1,0,0:0:0:0:
140,136,135139,6,0,B|37:117|37:117|37:97|13:72,1,137.5,0|2,1:2|0:0,0:0:0:0:
270,0,135583,2,0,L|258:67,1,68.75,10|0,1:2|0:0,0:0:0:0:
340,148,135805,2,0,B|376:159|405:130|405:130|431:102|472:112,1,137.5,2|2,0:0|1:2,0:0:0:0:
465,110,136250,6,0,P|487:135|491:168,1,68.75,2|0,0:0|0:0,0:0:0:0:
280,268,136472,2,0,P|300:240|332:230,1,68.75,10|0,1:2|0:0,0:0:0:0:
488,340,136694,1,2,0:0:0:0:
488,340,136805,1,0,0:0:0:0:
488,340,136917,6,0,L|352:316,1,137.5,2|2,1:2|0:0,0:0:0:0:
144,384,137250,1,2,0:0:0:0:
204,364,137361,2,0,P|205:296|168:239,1,137.5,10|2,1:2|0:0,0:0:0:0:
0,144,137694,1,2,0:0:0:0:
32,196,137805,2,0,P|51:224|82:239,1,68.75,10|8,1:2|0:2,0:0:0:0:
232,136,138028,1,10,0:3:0:0:
260,128,138139,1,4,0:3:0:0:
292,124,138250,1,2,1:2:0:0:
292,124,138472,6,0,B|320:104|327:68|327:68|296:164|316:248,1,247.500009441376,14|0,0:2|0:0,0:0:0:0:
324,328,138917,2,0,P|356:318|382:295,1,68.75,2|0,0:0|0:0,0:0:0:0:
444,156,139139,2,0,P|427:126|397:111,1,68.75,10|0,1:2|0:0,0:0:0:0:
233,239,139361,6,0,L|315:246,1,82.5000031471254,14|0,0:2|0:0,0:0:0:0:
404,32,139583,1,0,1:2:0:0:
348,8,139695,1,8,0:2:0:0:
300,40,139806,1,8,0:2:0:0:
288,96,139917,1,8,0:2:0:0:
240,128,140028,1,8,1:2:0:0:
184,104,140139,1,8,0:2:0:0:
164,52,140250,1,8,0:2:0:0:
192,0,140361,1,8,0:2:0:0:
256,0,140472,6,0,B|227:161|227:161|235:138|255:130,1,206.25,4|0,1:2|0:0,0:0:0:0:
300,192,140917,2,0,P|293:225|270:250,1,68.75,10|0,1:2|0:0,0:0:0:0:
48,256,141139,2,0,L|183:232,1,137.5,2|0,0:0|1:0,0:0:0:0:
355,107,141583,6,0,L|287:95,1,68.75,2|0,0:0|0:0,0:0:0:0:
444,16,141805,2,0,L|511:4,1,68.75,10|0,1:2|0:0,0:0:0:0:
452,232,142028,2,0,L|440:96,1,137.5,2|0,0:0|1:2,0:0:0:0:
168,36,142472,5,2,0:0:0:0:
128,56,142583,1,0,0:0:0:0:
120,104,142695,2,0,L|132:172,1,68.75,10|0,1:2|0:0,0:0:0:0:
256,220,142917,2,0,B|218:205|190:237|190:237|168:264|123:255,2,137.5,2|2|2,0:0|1:2|0:0,0:0:0:0:
256,220,143583,2,0,P|286:235|305:263,1,68.75,8|0,1:2|0:0,0:0:0:0:
148,344,143806,2,0,L|80:332,1,68.75,2|0,0:0|0:0,0:0:0:0:
0,200,144028,6,0,P|9:167|35:146,1,68.75,2|0,1:2|0:0,0:0:0:0:
173,67,144250,2,0,P|152:94|120:103,1,68.75,2|0,0:0|0:0,0:0:0:0:
4,4,144472,2,0,P|31:25|40:57,1,68.75,14|0,1:2|0:0,0:0:0:0:
180,200,144695,2,0,P|146:204|115:190,1,68.75,2|8,0:0|0:2,0:0:0:0:
284,0,144916,6,0,L|296:68,1,68.75,10|0,1:3|0:0,0:0:0:0:
472,124,145139,1,10,0:2:0:0:
424,108,145250,1,8,0:2:0:0:
384,140,145361,1,10,1:2:0:0:
392,188,145472,1,8,0:2:0:0:
432,212,145583,1,10,0:2:0:0:
452,252,145694,1,8,0:2:0:0:
428,296,145805,6,0,L|320:277,1,110,4|0,1:2|0:0,0:0:0:0:
108,348,146250,1,8,1:2:0:0:
212,360,146472,2,0,P|240:314|231:261,1,110,0|0,0:0|1:2,0:0:0:0:
100,152,146916,2,0,P|90:205|119:251,1,110,0|8,0:0|1:2,0:0:0:0:
288,192,147361,1,2,0:0:0:0:
288,192,147472,1,0,0:0:0:0:
288,192,147583,6,0,L|298:82,2,110,2|2|10,1:2|0:0|1:2,0:0:0:0:
192,128,148250,1,2,0:0:0:0:
428,52,148472,1,2,1:2:0:0:
376,144,148694,1,2,0:0:0:0:
216,44,148916,1,10,1:2:0:0:
216,44,149139,2,0,L|162:54,1,55,2|0,0:0|0:0,0:0:0:0:
56,72,149361,6,0,P|20:112|22:165,1,110,0|0,1:2|0:0,0:0:0:0:
172,296,149805,1,8,1:2:0:0:
224,152,150027,2,0,P|170:155|134:194,1,110,0|0,0:0|1:0,0:0:0:0:
272,276,150472,2,0,L|380:257,1,110,0|10,0:0|1:2,0:0:0:0:
432,96,150916,1,2,0:0:0:0:
432,96,151027,1,0,0:0:0:0:
432,96,151139,6,0,P|468:136|466:189,2,110,2|2|10,1:2|0:0|1:2,0:0:0:0:
320,180,151805,1,2,0:0:0:0:
361,365,152027,2,0,L|380:256,1,110,2|2,1:2|0:0,0:0:0:0:
488,328,152472,1,10,1:2:0:0:
256,348,152694,1,10,0:2:0:0:
220,352,152805,1,8,0:2:0:0:
188,356,152916,6,0,P|134:353|98:314,1,110,4|0,1:2|0:0,0:0:0:0:
296,192,153361,1,8,1:2:0:0:
184,260,153583,2,0,L|203:151,1,110,0|0,0:0|1:2,0:0:0:0:
20,176,154027,2,0,L|0:67,1,110,0|8,0:0|1:2,0:0:0:0:
136,0,154472,1,2,0:0:0:0:
136,0,154583,1,0,0:0:0:0:
136,0,154694,6,0,P|189:2|226:42,2,110,2|2|10,1:2|0:0|1:2,0:0:0:0:
144,96,155361,1,2,0:0:0:0:
372,136,155583,1,2,1:2:0:0:
312,40,155805,1,2,0:0:0:0:
132,208,156027,1,10,1:2:0:0:
312,328,156250,1,2,0:0:0:0:
320,348,156361,1,8,0:2:0:0:
328,368,156472,6,0,L|436:387,1,110,4|0,1:2|0:0,0:0:0:0:
224,240,156916,2,0,L|332:220,1,110,8|0,1:2|0:0,0:0:0:0:
84,352,157361,2,0,L|192:371,1,110,0|2,1:0|0:0,0:0:0:0:
4,192,157805,2,0,L|112:172,1,110,10|2,1:2|0:0,0:0:0:0:
332,40,158250,5,14,1:2:0:0:
300,20,158361,1,8,0:2:0:0:
264,32,158472,1,8,0:2:0:0:
248,68,158583,1,8,0:2:0:0:
260,104,158694,1,8,1:2:0:0:
300,120,158805,1,8,0:2:0:0:
332,148,158916,1,8,0:2:0:0:
336,188,159027,1,8,0:2:0:0:
284,244,159139,5,10,1:3:0:0:
212,216,159250,1,8,0:2:0:0:
144,248,159361,1,8,0:2:0:0:
132,324,159472,1,8,0:2:0:0:
188,376,159583,1,8,1:2:0:0:
252,332,159694,1,8,0:2:0:0:
332,332,159805,1,10,0:2:0:0:
344,356,159916,1,10,0:2:0:0:
356,380,160027,6,0,B|383:226|383:226|378:254|396:290,1,206.25,6|0,1:2|0:0,0:0:0:0:
452,180,160472,2,0,P|430:154|399:141,1,68.75,10|0,1:2|0:0,0:0:0:0:
244,256,160694,2,0,P|275:243|297:217,1,68.75,2|0,0:0|0:0,0:0:0:0:
220,96,160916,1,0,1:2:0:0:
220,96,161027,1,0,0:0:0:0:
220,96,161139,2,0,L|208:164,1,68.75,2|0,0:0|0:0,0:0:0:0:
76,264,161361,1,8,1:2:0:0:
76,264,161472,1,0,0:0:0:0:
76,264,161584,2,0,L|64:196,1,68.75,2|0,0:0|0:0,0:0:0:0:
0,0,161805,5,2,1:2:0:0:
40,28,161916,1,2,0:0:0:0:
80,12,162027,2,0,L|148:0,1,68.75,2|2,0:0|0:0,0:0:0:0:
215,44,162250,1,8,1:2:0:0:
120,135,162472,1,2,0:0:0:0:
284,222,162694,2,0,P|305:195|337:182,1,68.75,2|0,1:2|0:0,0:0:0:0:
472,164,162916,6,0,L|512:141,2,45.8333333333333,2|2|2,0:0|0:0|0:0,0:0:0:0:
452,188,163139,6,0,L|464:256,1,68.75,10|0,1:2|0:0,0:0:0:0:
372,301,163361,1,2,0:0:0:0:
196,192,163583,5,2,1:2:0:0:
188,224,163694,1,2,0:0:0:0:
180,256,163805,1,2,0:0:0:0:
172,288,163916,1,2,0:0:0:0:
180,300,164027,2,0,L|112:311,1,68.75,10|0,1:2|0:0,0:0:0:0:
0,136,164250,6,0,L|135:112,1,137.5,2|0,0:2|1:2,0:0:0:0:
484,0,164694,2,0,P|414:8|401:76,1,148.500000566483,2|8,0:0|1:2,0:0:0:0:
280,332,165139,2,0,L|294:250,1,82.5000031471254,2|0,0:0|0:0,0:0:0:0:
488,236,165361,5,2,1:2:0:0:
452,228,165472,1,2,0:0:0:0:
428,200,165583,1,2,0:0:0:0:
420,164,165694,1,2,0:0:0:0:
428,156,165805,2,0,L|509:141,1,82.5000031471254,10|2,1:2|0:0,0:0:0:0:
293,250,166027,6,0,B|248:262|214:228|214:228|179:194|133:207,1,165.000006294251,2|10,0:0|1:3,0:0:0:0:
142,205,166472,2,0,P|163:178|168:144,1,68.75,10|8,0:2|0:2,0:0:0:0:
4,24,166694,1,10,1:3:0:0:
16,40,166805,1,8,0:3:0:0:
36,48,166916,1,6,0:3:0:0:
56,44,167027,1,4,0:3:0:0:
72,32,167139,6,0,L|60:99,1,68.75,4|0,1:2|0:0,0:0:0:0:
96,268,167361,1,2,0:0:0:0:
156,284,167472,1,2,0:0:0:0:
216,236,167583,1,10,1:2:0:0:
244,228,167694,1,0,0:0:0:0:
284,256,167805,6,0,P|344:283|365:347,1,137.5,2|2,0:0|1:2,0:0:0:0:
364,346,168250,2,0,P|398:351|429:337,1,68.75,2|2,0:2|0:2,0:0:0:0:
512,212,168472,1,10,1:2:0:0:
512,212,168583,1,2,0:2:0:0:
511,212,168694,6,0,P|443:209|389:168,1,137.5,2|0,0:0|1:2,0:0:0:0:
389,168,169139,2,0,L|399:100,1,68.75,2|0,0:0|0:0,0:0:0:0:
500,0,169361,2,0,L|510:67,1,68.75,10|0,1:2|0:0,0:0:0:0:
312,120,169583,6,0,B|273:126|246:102|246:102|219:78|179:84,1,137.5,2|0,0:0|1:2,0:0:0:0:
0,12,170027,1,10,0:2:0:0:
32,24,170139,1,8,0:2:0:0:
48,64,170250,1,10,1:2:0:0:
48,64,170472,6,0,B|37:123|37:123|39:135|39:135|28:199,1,137.5,14|0,0:2|1:0,0:0:0:0:
212,360,170916,2,0,P|234:334|243:301,1,68.75,2|0,0:0|0:0,0:0:0:0:
116,192,171139,2,0,P|125:224|147:250,1,68.75,2|0,1:2|0:0,0:0:0:0:
308,212,171361,2,0,L|240:200,1,68.75,8|8,0:2|0:2,0:0:0:0:
152,72,171583,5,10,1:2:0:0:
188,104,171694,1,8,0:3:0:0:
236,96,171805,1,8,0:3:0:0:
260,60,171916,1,6,0:3:0:0:
252,48,172027,1,0,1:2:0:0:
252,48,172250,6,0,B|319:36|319:36|322:32|322:32|385:20,1,137.5,14|0,0:2|1:0,0:0:0:0:
512,228,172694,2,0,P|480:240|458:265,1,68.75,10|8,0:2|0:2,0:0:0:0:
396,344,172916,1,8,1:2:0:0:
356,336,173027,2,0,P|324:324|302:299,1,68.75,10|8,0:2|0:2,0:0:0:0:
208,232,173250,1,8,0:2:0:0:
172,252,173361,2,0,L|160:320,1,68.75,10|8,1:2|0:2,0:0:0:0:
72,376,173583,1,8,0:2:0:0:
36,356,173694,2,0,L|24:288,1,68.75,10|0,0:3|1:0,0:0:0:0:
24,288,174027,6,0,P|77:249|76:183,1,137.5,14|0,0:2|1:2,0:0:0:0:
0,16,174472,6,0,L|41:9,1,41.2500015735627,10|0,0:2|0:0,0:0:0:0:
64,88,174694,2,0,L|118:98,1,55,10|0,0:2|0:0,0:0:0:0:
320,0,174916,6,0,L|308:68,1,68.75,10|0,0:2|0:0,0:0:0:0:
220,116,175139,2,0,L|234:197,1,82.5000031471254,10|0,0:2|0:0,0:0:0:0:
452,344,175361,6,0,L|510:308,1,68.75,10|0,0:3|0:0,0:0:0:0:
448,248,175583,2,0,L|458:194,1,55,10|0,0:3|0:0,0:0:0:0:
368,200,175805,2,0,L|336:173,1,41.2500015735627,6|0,0:3|0:0,0:0:0:0:
292,252,176027,6,0,B|272:312|305:331|305:331|304:296|242:276,1,176,6|2,1:2|0:0,0:0:0:0:
460,72,182916,6,0,B|391:69|354:146|354:146|368:63|311:24,1,275,14|2,1:2|1:2,0:0:0:0:
311,24,183583,2,0,L|352:16,1,41.2500015735627,2|0,1:2|0:0,0:0:0:0:
508,240,183805,6,0,P|499:266|478:283,1,55,14|0,1:2|0:0,0:0:0:0:
336,384,184027,1,8,1:2:0:0:
320,344,184139,1,8,0:2:0:0:
292,320,184250,1,8,0:2:0:0:
256,328,184361,1,8,0:2:0:0:
216,336,184472,1,8,1:2:0:0:
184,308,184583,1,8,0:2:0:0:
180,268,184694,1,8,0:2:0:0:
200,236,184805,1,8,0:2:0:0:
248,224,184916,6,0,B|193:242|159:200|159:200|118:152|49:171,1,206.25,6|0,1:2|0:0,0:0:0:0:
0,120,185361,2,0,P|27:99|60:91,1,68.75,10|0,1:2|0:0,0:0:0:0:
284,32,185583,2,0,P|234:75|225:142,1,137.5,2|0,0:0|1:0,0:0:0:0:
512,352,186027,2,0,L|500:284,1,68.75,2|0,0:0|0:0,0:0:0:0:
320,320,186249,2,0,P|345:342|377:352,1,68.75,10|0,1:2|0:0,0:0:0:0:
420,184,186472,2,0,L|409:252,1,68.75,2|0,0:0|0:0,0:0:0:0:
276,228,186694,6,0,L|140:252,1,137.5,0|2,1:2|0:0,0:0:0:0:
0,20,187138,1,10,1:2:0:0:
40,64,187249,1,0,0:0:0:0:
20,120,187361,2,0,B|58:93|105:97|105:97|127:120|152:121,1,137.5,2|0,0:0|1:0,0:0:0:0:
145,120,187805,2,0,P|169:96|181:64,1,68.75,2|0,0:0|0:0,0:0:0:0:
328,0,188027,2,0,L|340:68,1,68.75,10|0,1:2|0:0,0:0:0:0:
244,180,188249,6,0,P|178:196|140:251,1,137.5,2|0,0:0|1:2,0:0:0:0:
140,251,188694,2,0,L|129:323,1,68.75,2|0,0:0|0:0,0:0:0:0:
360,272,188916,2,0,P|340:244|309:230,1,68.75,10|0,1:2|0:0,0:0:0:0:
192,376,189138,1,2,0:0:0:0:
220,380,189249,1,0,0:0:0:0:
256,384,189361,6,0,B|390:356,2,137.5,2|2|10,1:2|0:0|1:2,0:0:0:0:
472,352,190027,2,0,P|464:318|440:294,1,68.75,10|8,0:2|0:2,0:0:0:0:
244,180,190249,5,14,1:2:0:0:
244,180,190472,2,0,P|272:162|306:161,1,68.75,10|8,0:2|0:2,0:0:0:0:
512,96,190694,1,14,1:2:0:0:
512,96,190916,2,0,P|484:77|450:76,1,68.75,8|8,0:2|0:2,0:0:0:0:
280,24,191138,5,10,1:2:0:0:
260,27,191249,1,8,0:2:0:0:
240,30,191361,1,10,0:2:0:0:
220,34,191472,1,8,0:2:0:0:
168,20,191583,1,10,1:2:0:0:
116,48,191694,1,8,0:2:0:0:
104,108,191805,1,10,0:2:0:0:
140,152,191916,1,8,0:2:0:0:
160,152,192027,6,0,P|192:127|232:122,1,82.5,2|0,0:0|0:0,0:0:0:0:
280,64,192472,6,0,B|274:127|274:127|278:132|278:132|272:199,1,137.5,12|0,0:2|0:0,0:0:0:0:
128,268,192805,1,0,0:0:0:0:
184,244,192916,5,8,1:2:0:0:
220,256,193027,1,8,0:2:0:0:
232,292,193139,1,8,0:2:0:0:
224,328,193250,1,8,0:2:0:0:
192,348,193361,1,8,1:2:0:0:
192,348,193583,2,0,L|259:336,1,68.75,12|0,0:2|0:0,0:0:0:0:
404,328,193805,6,0,B|412:291|384:264|384:264|356:239|368:203,1,137.5,0|2,1:2|0:0,0:0:0:0:
468,0,194249,2,0,P|494:21|509:51,1,68.75,10|0,1:2|0:0,0:0:0:0:
352,120,194471,2,0,B|288:108|288:108|284:112|284:112|217:100,1,137.5,2|2,0:0|1:2,0:0:0:0:
217,100,194916,6,0,P|222:133|207:164,1,68.75,2|0,0:0|0:0,0:0:0:0:
48,48,195138,2,0,L|115:37,1,68.75,10|0,1:2|0:0,0:0:0:0:
40,208,195360,1,2,0:0:0:0:
40,208,195471,1,0,0:0:0:0:
40,208,195583,6,0,P|67:146|130:124,1,137.5,2|2,1:2|0:0,0:0:0:0:
328,224,195916,1,2,0:0:0:0:
284,268,196027,2,0,B|185:250|185:250|177:273|150:285,1,137.5,10|2,1:2|0:0,0:0:0:0:
0,384,196360,1,2,0:0:0:0:
24,332,196471,2,0,L|91:320,1,68.75,8|0,1:2|0:0,0:0:0:0:
346,323,196694,6,0,L|368:364,3,45.8333333333333,8|8|4|6,0:3|0:3|0:3|1:3,0:0:0:0:
368,364,197139,6,0,B|402:197|402:197|392:249|351:281,1,247.500009441376,14|0,1:2|0:0,0:0:0:0:
337,153,197583,2,0,P|363:130|396:120,1,68.75,2|0,0:0|0:0,0:0:0:0:
512,256,197805,2,0,P|496:286|467:302,1,68.75,2|0,1:2|0:0,0:0:0:0:
248,208,198027,6,0,L|233:126,1,82.5000031471254,14|0,0:2|0:0,0:0:0:0:
104,0,198249,1,0,1:2:0:0:
60,32,198361,1,8,0:2:0:0:
40,84,198472,1,8,0:2:0:0:
60,136,198583,1,8,0:2:0:0:
100,168,198694,1,8,1:2:0:0:
116,220,198805,1,8,0:2:0:0:
100,272,198916,1,8,0:2:0:0:
56,304,199027,1,8,0:2:0:0:
40,352,199138,6,0,B|108:316|176:352|176:352|140:352|104:400,1,206.25,4|0,1:2|0:0,0:0:0:0:
252,384,199583,2,0,P|275:358|281:321,1,68.75,10|0,1:2|0:0,0:0:0:0:
188,140,199805,2,0,L|211:275,1,137.5,2|0,0:0|1:0,0:0:0:0:
464,136,200249,6,0,P|492:117|510:88,1,68.75,2|0,0:0|0:0,0:0:0:0:
344,0,200471,2,0,L|332:67,1,68.75,10|0,1:2|0:0,0:0:0:0:
380,232,200694,2,0,P|447:238|510:211,1,137.5,2|0,0:0|1:2,0:0:0:0:
179,8,201138,5,2,0:0:0:0:
191,40,201249,1,0,0:0:0:0:
199,72,201361,2,0,L|131:60,1,68.75,10|0,1:2|0:0,0:0:0:0:
0,168,201583,2,0,B|63:156|63:156|66:152|66:152|133:140,2,137.5,2|2|2,0:0|1:2|0:0,0:0:0:0:
0,168,202249,2,0,P|14:199|39:222,1,68.75,8|0,1:2|0:0,0:0:0:0:
160,216,202472,2,0,P|191:202|214:177,1,68.75,2|0,0:0|0:0,0:0:0:0:
0,316,202694,6,0,L|12:384,1,68.75,2|0,1:2|0:0,0:0:0:0:
148,284,202916,2,0,L|160:216,1,68.75,2|0,0:0|0:0,0:0:0:0:
328,372,203138,2,0,L|260:384,1,68.75,10|0,1:2|0:0,0:0:0:0:
424,304,203361,2,0,L|492:316,1,68.75,2|0,0:0|0:0,0:0:0:0:
316,140,203583,6,0,P|329:76|391:54,2,137.5,2|2|10,1:2|0:0|1:2,0:0:0:0:
316,140,204249,2,0,P|282:139|253:121,1,68.75,2|0,0:2|0:0,0:0:0:0:
40,44,204472,6,0,B|192:17|192:17|164:22|142:55,1,206.25,2|2,1:2|0:0,0:0:0:0:
172,120,204916,2,0,P|164:153|138:176,1,68.75,12|0,1:2|0:0,0:0:0:0:
8,264,205138,1,0,0:0:0:0:
16,296,205249,1,8,0:2:0:0:
24,328,205361,2,0,P|47:353|80:362,1,68.75,8|0,1:3|0:0,0:0:0:0:
268,345,205583,5,10,0:2:0:0:
265,289,205694,1,8,0:2:0:0:
261,233,205805,1,10,1:2:0:0:
257,177,205916,1,8,0:2:0:0:
253,121,206027,1,10,0:2:0:0:
249,65,206138,1,8,0:2:0:0:
269,53,206249,5,4,1:2:0:0:
375,138,207139,5,2,0:0:0:0:
450,15,207805,5,0,1:0:0:0:
454,43,207916,1,0,1:0:0:0:
506,75,208027,1,8,0:2:0:0:
0,80,209805,6,0,B|50:64|93:105|93:105|139:150|199:133,1,206.25,6|2,1:2|0:0,0:0:0:0:
200,112,210249,1,8,1:2:0:0:
296,264,210472,2,0,L|293:222,1,41.2500015735627,2|8,0:0|0:2,0:0:0:0:
308,204,210694,2,0,P|336:224|370:229,1,68.75,0|0,1:0|0:0,0:0:0:0:
476,152,210916,1,2,0:0:0:0:
471,129,211027,1,2,0:0:0:0:
466,105,211138,2,0,L|454:38,1,68.75,10|2,1:2|0:0,0:0:0:0:
292,0,211360,2,0,L|280:68,1,68.75,2|2,0:0|0:0,0:0:0:0:
64,92,211582,6,0,P|163:94|218:176,1,206.25,2|2,1:2|0:0,0:0:0:0:
200,192,212027,1,8,1:2:0:0:
96,320,212250,2,0,L|89:280,1,41.2500015735627,2|8,0:0|0:2,0:0:0:0:
64,264,212472,2,0,P|30:259|3:239,1,68.75,0|0,1:0|0:0,0:0:0:0:
196,320,212694,2,0,P|191:354|171:381,1,68.75
100,180,212916,2,0,P|114:149|141:128,1,68.75,8|0,1:2|0:0,0:0:0:0:
328,208,213139,6,0,L|333:236,2,27.5000010490418,2|2|2,0:0|0:0|0:0,0:0:0:0:
384,140,213361,6,0,B|426:100|426:100|279:126,1,206.25,2|2,1:2|0:0,0:0:0:0:
268,104,213805,1,8,1:2:0:0:
188,279,214027,2,0,L|196:320,1,41.2500015735627,2|8,0:0|0:2,0:0:0:0:
216,339,214250,2,0,P|244:318|278:313,1,68.75,0|0,1:0|0:0,0:0:0:0:
480,280,214471,1,2,0:0:0:0:
484,256,214582,1,2,0:0:0:0:
488,232,214694,2,0,L|420:220,1,68.75,10|2,1:2|0:0,0:0:0:0:
279,125,214916,2,0,L|212:136,1,68.75,2|2,0:0|0:0,0:0:0:0:
24,252,215138,6,0,B|40:232|38:197|38:197|64:347,1,206.25,6|10,1:2|0:2,0:0:0:0:
40,360,215582,1,0,1:0:0:0:
199,203,215805,2,0,L|211:136,1,68.75,12|0,0:2|0:0,0:0:0:0:
380,0,216027,5,0,1:0:0:0:
385,27,216139,1,8,0:2:0:0:
390,55,216249,1,8,0:2:0:0:
395,82,216360,1,8,0:2:0:0:
432,116,216472,5,8,1:2:0:0:
464,128,216584,1,8,0:2:0:0:
480,156,216694,1,8,0:2:0:0:
476,192,216805,1,8,0:2:0:0:
428,232,216916,6,0,B|388:242|358:213|358:213|326:180|279:192,1,153.999995300293,4|0,1:2|0:0,0:0:0:0:
296,264,217250,2,0,L|303:305,1,41.2500015735627,8|0,0:2|1:2,0:0:0:0:
40,164,217583,6,0,L|116:177,1,76.9999976501466,12|0,0:2|0:0,0:0:0:0:
336,80,217805,1,0,1:2:0:0:
356,44,217916,1,8,0:2:0:0:
336,8,218027,1,8,0:2:0:0:
292,0,218139,1,8,0:2:0:0:
260,28,218250,2,0,L|247:103,1,76.9999976501466,8|8,1:2|0:2,0:0:0:0:
428,232,218472,2,0,L|415:157,1,76.9999976501466,8|8,0:2|0:2,0:0:0:0:
252,296,218694,6,0,P|218:312|179:315,1,76.9999976501466,4|0,1:2|0:0,0:0:0:0:
8,168,218916,1,8,0:2:0:0:
24,204,219027,1,8,0:2:0:0:
56,220,219139,1,8,1:2:0:0:
96,208,219250,1,8,0:2:0:0:
115,177,219361,2,0,L|102:101,1,76.9999976501466,4|0,1:2|0:0,0:0:0:0:
280,0,219583,5,8,0:2:0:0:
328,28,219694,1,8,0:2:0:0:
352,80,219805,1,8,0:2:0:0:
336,136,219916,1,8,0:2:0:0:
296,176,220027,1,8,0:2:0:0:
328,180,220139,1,8,0:2:0:0:
356,184,220250,1,4,0:3:0:0:
384,188,220361,1,4,0:3:0:0:
392,196,220472,5,2,0:0:0:0:
32,348,222250,6,0,B|111:334|111:334|114:329|114:329|197:315,1,165.000006294251,10|0,1:2|0:0,0:0:0:0:
288,288,222583,6,0,P|228:277|222:338,1,137.5,10|0,1:2|0:0,0:0:0:0:
368,384,222916,5,10,1:2:0:0:
