osu file format v14

[General]
AudioFilename: audio.mp3
AudioLeadIn: 0
PreviewTime: 49805
Countdown: 0
SampleSet: Soft
StackLeniency: 0.4
Mode: 0
LetterboxInBreaks: 0
WidescreenStoryboard: 1

[Editor]
Bookmarks: 1139,8916,14250,21361,35583,51583,65805,81805,88916,96027,103139,119139,133361,145805,160027,177805,184916,199139,209805,216916
DistanceSpacing: 1.1
BeatDivisor: 4
GridSize: 4
TimelineZoom: 1.7

[Metadata]
Title:Koufuku na Wagamama
TitleUnicode:幸福なわがまま
Artist:Sangatsu no Phantasia
ArtistUnicode:三月のパンタシア
Creator:Jiysea
Version:Hard
Source:
Tags:japanese pop jpop j-pop alt alternate happy selfishness 堀江晶太 Shota Horie みあ Mia
BeatmapID:3035515
BeatmapSetID:1478828

[Difficulty]
HPDrainRate:4.5
CircleSize:3.6
OverallDifficulty:6.5
ApproachRate:7.5
SliderMultiplier:1.8
SliderTickRate:1

[Events]
//Background and Video events
0,0,"bg.jpg",0,0
//Break Periods
2,89116,94980
2,178005,182091
2,220672,221425
//Storyboard Layer 0 (Background)
//Storyboard Layer 1 (Fail)
//Storyboard Layer 2 (Pass)
//Storyboard Layer 3 (Foreground)
//Storyboard Layer 4 (Overlay)
//Storyboard Sound Samples

[TimingPoints]
28,444.444444444444,4,2,1,30,1,0
1139,-133.333333333333,4,2,1,30,0,0
8916,-117.647058823529,4,2,1,50,0,0
14250,-83.3333333333333,4,2,1,75,0,0
21361,-117.647058823529,4,2,1,75,0,0
34694,-100,4,2,1,75,0,0
35583,-133.333333333333,4,2,1,75,0,0
40916,-100,4,2,1,75,0,0
41805,-117.647058823529,4,2,1,75,0,0
42694,-117.647058823529,4,2,1,75,0,0
49805,-100,4,2,1,75,0,0
51583,-83.3333333333333,4,2,1,85,0,1
64916,-83.3333333333333,4,2,1,75,0,0
65805,-83.3333333333333,4,2,1,85,0,1
80027,-117.647058823529,4,2,1,85,0,0
81805,-83.3333333333333,4,2,1,75,0,0
96027,-117.647058823529,4,2,1,75,0,0
101361,-100,4,2,1,75,0,0
103139,-133.333333333333,4,2,1,75,0,0
108472,-100,4,2,1,75,0,0
109361,-117.647058823529,4,2,1,75,0,0
117361,-200,4,2,1,50,0,0
118472,-117.647058823529,4,2,1,50,0,0
119139,-83.3333333333333,4,2,1,85,0,1
132472,-83.3333333333333,4,2,1,75,0,0
133361,-83.3333333333333,4,2,1,85,0,1
145805,-100,4,2,1,75,0,0
160027,-83.3333333333333,4,2,1,75,0,1
176027,-83.3333333333333,4,2,1,50,0,0
177805,-83.3333333333333,4,2,1,20,0,0
182916,-100,4,2,1,75,0,0
184916,-83.3333333333333,4,2,1,85,0,1
198250,-83.3333333333333,4,2,1,85,0,0
199139,-83.3333333333333,4,2,1,85,0,1
206250,-117.647058823529,4,2,1,85,0,0
209805,-83.3333333333333,4,2,1,85,0,0
220472,-83.3333333333333,4,2,1,50,0,0
222250,-83.3333333333333,4,2,1,85,0,0
222472,-83.3333333333333,4,2,1,5,0,0
222583,-83.3333333333333,4,2,1,85,0,0
222805,-83.3333333333333,4,2,1,5,0,0
222916,-83.3333333333333,4,2,1,85,0,0

[Colours]
Combo1 : 206,157,255
Combo2 : 206,81,81
Combo3 : 248,186,216
Combo4 : 72,104,164

[HitObjects]
44,92,1139,6,0,P|29:62|0:45,2,67.5000025749207,2|2|2,0:0|0:0|0:0,0:0:0:0:
108,148,1805,1,2,0:0:0:0:
108,148,2027,2,0,L|141:142,2,33.7500012874604,2|2|2,0:0|0:0|0:0,0:0:0:0:
128,224,2472,2,0,L|161:218,2,33.7500012874604,2|2|2,0:0|0:0|0:0,0:0:0:0:
84,292,2916,2,0,P|58:313|49:345,1,67.5000025749207,2|2,0:0|0:0,0:0:0:0:
132,360,3361,6,0,L|264:383,1,135.000005149841,2|2,0:0|0:0,0:0:0:0:
336,348,4027,1,2,0:0:0:0:
336,347,4250,2,0,P|368:332|382:304,1,67.5000025749207,2|0,0:0|0:0,0:0:0:0:
448,260,4694,2,0,P|462:289|491:306,2,67.5000025749207,2|2|2,0:0|0:0|0:0,0:0:0:0:
440,184,5360,5,2,0:0:0:0:
440,184,5582,2,0,L|434:150,2,33.7500012874604,2|2|2,0:0|0:0|0:0,0:0:0:0:
360,196,6027,2,0,L|354:229,2,33.7500012874604,2|2|2,0:0|0:0|0:0,0:0:0:0:
288,160,6471,2,0,P|262:138|253:106,1,67.5000025749207,2|2,0:0|0:0,0:0:0:0:
320,60,6916,2,0,P|268:17|202:15,1,135.000005149841,2|2,0:0|0:0,0:0:0:0:
136,56,7583,1,2,0:0:0:0:
136,56,7805,6,0,L|124:122,1,67.5000025749207,2|0,0:0|0:0,0:0:0:0:
512,272,8916,6,0,B|472:282|442:253|442:253|408:223|364:232,1,153.000002918243,2|2,0:0|0:0,0:0:0:0:
300,264,9583,2,0,P|366:240|358:170,1,153.000002918243,2|2,0:0|0:0,0:0:0:0:
308,120,10250,1,2,0:0:0:0:
308,120,10472,2,0,L|157:146,1,153.000002918243,2|2,0:0|0:0,0:0:0:0:
84,120,11139,1,2,0:0:0:0:
48,192,11361,2,0,P|117:221|151:287,1,153.000002918243,2|2,0:0|1:2,0:0:0:0:
132,320,11916,1,0,1:0:0:0:
132,320,12027,1,10,0:2:0:0:
64,356,12250,1,2,1:2:0:0:
180,384,12472,5,10,0:2:0:0:
512,88,14250,6,0,B|467:75|435:109|435:109|402:142|356:130,1,161.999995056153,6|2,1:2|0:0,0:0:0:0:
316,104,14694,1,8,1:2:0:0:
228,40,14916,1,2,0:0:0:0:
228,40,15027,1,8,0:2:0:0:
228,40,15139,1,0,1:0:0:0:
136,100,15361,2,0,L|83:91,1,53.9999983520508,2|2,0:0|0:0,0:0:0:0:
36,116,15583,2,0,P|22:139|21:166,3,53.9999983520508,10|2|2|2,0:2|0:0|0:0|0:0,0:0:0:0:
40,216,16027,6,0,B|125:201|125:201|127:205|127:205|198:192,1,161.999995056153,2|2,1:2|0:0,0:0:0:0:
236,232,16472,1,8,1:2:0:0:
180,328,16694,1,2,0:0:0:0:
180,328,16805,1,8,0:2:0:0:
180,328,16916,1,0,1:0:0:0:
272,384,17139,2,0,P|313:350|366:351,1,107.999996704102,0|8,0:0|1:2,0:0:0:0:
464,304,17583,6,0,L|499:310,2,35.9999989013672,2|2|2,0:0|0:0|0:0,0:0:0:0:
440,276,17805,6,0,L|454:115,1,161.999995056153,2|2,1:2|0:0,0:0:0:0:
500,84,18250,1,8,1:2:0:0:
432,16,18472,1,2,0:0:0:0:
432,16,18583,1,8,0:2:0:0:
432,16,18694,1,0,1:0:0:0:
336,64,18916,2,0,P|324:88|322:115,1,53.9999983520508,2|2,0:0|0:0,0:0:0:0:
292,160,19139,2,0,L|239:151,3,53.9999983520508,10|2|2|2,0:2|0:0|0:0|0:0,0:0:0:0:
196,184,19583,6,0,P|268:211|278:287,1,161.999995056153,2|2,1:2|0:0,0:0:0:0:
232,316,20027,1,12,1:2:0:0:
136,364,20250,1,10,0:2:0:0:
48,300,20472,2,0,L|39:247,1,53.9999983520508,0|8,1:0|0:2,0:0:0:0:
68,200,20694,2,0,L|77:147,1,53.9999983520508,8|8,0:2|0:2,0:0:0:0:
44,104,20916,2,0,L|35:51,3,53.9999983520508,8|8|8|8,1:2|0:2|0:2|0:2,0:0:0:0:
64,28,21361,6,0,P|120:30|162:68,2,114.750002188683,6|2|2,1:2|0:0|0:0,0:0:0:0:
64,28,22472,1,2,0:0:0:0:
14,95,22694,1,2,1:2:0:0:
53,169,22916,1,2,0:0:0:0:
137,173,23139,6,0,L|250:153,1,114.750002188683,2|2,1:2|0:0,0:0:0:0:
328,252,23805,2,0,P|366:251|398:270,1,76.5000014591217,2|0,0:0|1:0,0:0:0:0:
398,270,24250,1,0,0:0:0:0:
364,347,24472,2,0,L|288:361,1,76.5000014591217,0|2,1:2|0:0,0:0:0:0:
212,344,24916,6,0,P|159:326|128:279,2,114.750002188683,2|2|2,1:2|0:0|0:0,0:0:0:0:
212,344,26027,1,2,0:0:0:0:
261,275,26250,1,2,1:2:0:0:
280,193,26472,1,2,0:0:0:0:
278,108,26694,6,0,P|243:63|215:14,1,114.750002188683,2|2,1:2|0:0,0:0:0:0:
108,96,27361,2,0,L|33:83,1,76.5000014591217,2|0,0:0|1:0,0:0:0:0:
33,83,27805,1,0,0:0:0:0:
44,172,28027,2,0,L|51:210,3,38.2500007295609,8|0|0|0,1:2|0:0|0:0|0:0,0:0:0:0:
76,226,28472,6,0,P|129:206|183:221,2,114.750002188683,6|2|2,1:2|0:0|0:0,0:0:0:0:
76,226,29583,1,2,0:0:0:0:
131,288,29805,1,2,1:2:0:0:
212,309,30027,1,2,0:0:0:0:
290,278,30250,6,0,P|337:246|343:191,1,114.750002188683,2|2,1:2|0:0,0:0:0:0:
360,48,30916,2,0,L|285:61,1,76.5000014591217,2|0,0:0|1:0,0:0:0:0:
284,61,31361,1,0,0:0:0:0:
255,140,31583,1,2,1:2:0:0:
173,117,31805,1,2,0:0:0:0:
108,172,32027,6,0,B|98:227|98:227|93:230|93:230|74:319,1,153.000002918243,0|2,1:0|1:2,0:0:0:0:
172,372,32694,2,0,P|198:345|235:334,1,76.5000014591217,2|0,0:0|1:0,0:0:0:0:
234,333,33139,2,0,L|227:371,2,38.2500007295609,2|2|2,0:0|0:0|1:2,0:0:0:0:
320,292,33583,1,2,0:0:0:0:
320,292,33694,1,2,0:0:0:0:
320,292,33805,6,0,P|363:327|419:324,1,114.750002188683,2|2,1:2|0:0,0:0:0:0:
512,200,34472,1,2,0:0:0:0:
512,200,34694,6,0,L|468:192,1,45,12|0,1:2|0:0,0:0:0:0:
408,144,34916,1,8,0:2:0:0:
408,144,35027,1,8,0:2:0:0:
408,144,35139,1,8,1:2:0:0:
408,144,35250,1,8,0:2:0:0:
408,144,35361,2,0,L|400:100,1,45,8|4,0:3|0:3,0:0:0:0:
368,76,35583,5,2,1:2:0:0:
272,112,35916,1,2,1:2:0:0:
176,148,36250,1,2,1:2:0:0:
176,148,37361,5,2,1:2:0:0:
212,244,37694,1,2,1:2:0:0:
136,312,38028,1,2,1:2:0:0:
136,312,38472,2,0,L|130:279,2,33.7500012874604,2|2|2,0:0|0:0|0:0,0:0:0:0:
312,384,39139,5,2,1:2:0:0:
348,288,39472,1,2,1:2:0:0:
384,192,39806,1,2,1:2:0:0:
384,192,40916,6,0,P|321:210|268:171,2,135,6|2|2,1:2|1:2|1:2,0:0:0:0:
432,112,41805,2,0,L|425:74,1,38.2500007295609,10|0,0:2|0:0,0:0:0:0:
396,36,42027,2,0,P|378:28|359:26,1,38.2500007295609,8|8,0:2|0:2,0:0:0:0:
320,48,42250,2,0,P|302:55|283:57,3,38.2500007295609,10|8|8|4,0:2|0:2|0:3|0:3,0:0:0:0:
252,92,42694,6,0,L|176:78,1,76.5000014591217,4|10,1:2|0:0,0:0:0:0:
84,92,43139,2,0,L|97:167,1,76.5000014591217,2|10,1:2|0:2,0:0:0:0:
156,236,43583,2,0,P|179:206|184:169,1,76.5000014591217,2|10,1:2|0:2,0:0:0:0:
68,252,44027,2,0,P|73:289|96:318,1,76.5000014591217,2|10,1:2|0:2,0:0:0:0:
132,336,44361,1,8,0:2:0:0:
132,336,44472,6,0,L|207:323,1,76.5000014591217,2|10,1:2|0:2,0:0:0:0:
240,300,44805,1,8,0:2:0:0:
240,300,44916,2,0,L|277:307,1,38.2500007295609,2|0,1:2|0:0,0:0:0:0:
312,324,45138,2,0,L|349:318,1,38.2500007295609,10|8,0:2|0:2,0:0:0:0:
388,308,45361,5,0,1:2:0:0:
472,264,45583,1,8,0:2:0:0:
472,264,45694,1,8,0:2:0:0:
472,264,45805,2,0,L|478:226,1,38.2500007295609,0|0,1:2|0:0,0:0:0:0:
508,192,46027,2,0,L|502:154,1,38.2500007295609,10|8,0:2|0:2,0:0:0:0:
468,124,46250,6,0,P|440:98|403:92,1,76.5000014591217,14|8,1:2|0:2,0:0:0:0:
368,120,46583,1,8,0:2:0:0:
368,120,46694,2,0,L|330:113,1,38.2500007295609,8|8,0:2|0:2,0:0:0:0:
296,84,46916,2,0,L|258:90,1,38.2500007295609,10|10,0:2|0:2,0:0:0:0:
223,120,47139,6,0,P|216:137|217:156,3,38.2500007295609,10|8|8|8,0:3|0:3|0:3|0:3,0:0:0:0:
248,192,47583,2,0,P|255:209|254:228,3,38.2500007295609,6|4|4|4,0:3|0:3|0:3|0:3,0:0:0:0:
220,260,48027,6,0,L|106:279,2,114.750002188683,6|0|0,1:2|1:0|1:0,0:0:0:0:
300,308,48916,1,12,0:2:0:0:
384,268,49139,1,8,0:2:0:0:
388,256,49250,1,8,0:2:0:0:
392,244,49361,1,8,0:2:0:0:
396,232,49472,1,8,0:2:0:0:
400,220,49583,2,0,L|393:182,1,38.2500007295609,8|4,0:3|0:3,0:0:0:0:
424,104,49805,6,0,P|477:142|480:207,2,135,8|8|8,1:2|1:2|1:2,0:0:0:0:
0,0,51583,6,0,L|106:18,1,107.999996704102,6|2,1:2|0:0,0:0:0:0:
148,68,51916,1,2,0:0:0:0:
192,116,52027,2,0,P|240:94|264:47,1,107.999996704102,10|2,1:2|0:0,0:0:0:0:
328,32,52361,1,2,0:0:0:0:
380,68,52472,2,0,L|389:121,1,53.9999983520508,2|0,1:2|0:0,0:0:0:0:
440,164,52694,2,0,P|387:159|346:192,1,107.999996704102,2|10,0:0|1:2,0:0:0:0:
276,300,53139,2,0,L|329:290,1,53.9999983520508,2|0,0:0|0:0,0:0:0:0:
372,340,53361,6,0,L|265:358,2,107.999996704102,0|2|10,1:0|0:0|1:2,0:0:0:0:
444,232,54027,2,0,P|480:193|487:141,1,107.999996704102,2|2,0:0|1:2,0:0:0:0:
465,22,54472,1,2,0:0:0:0:
376,100,54694,1,10,1:2:0:0:
306,6,54916,1,2,0:0:0:0:
306,6,55139,6,0,P|276:50|226:68,1,107.999996704102,2|2,1:2|0:0,0:0:0:0:
164,72,55472,1,2,0:0:0:0:
108,36,55583,2,0,L|89:142,1,107.999996704102,10|2,1:2|0:0,0:0:0:0:
44,192,55916,1,2,0:0:0:0:
76,248,56027,2,0,L|85:301,1,53.9999983520508,2|0,1:2|0:0,0:0:0:0:
56,360,56250,2,0,P|109:365|148:320,1,107.999996704102,2|10,0:0|1:2,0:0:0:0:
248,248,56694,6,0,L|354:267,2,107.999996704102,2|0|2,0:0|1:2|0:0,0:0:0:0:
328,352,57361,1,10,0:2:0:0:
436,280,57583,2,0,P|431:228|390:193,1,107.999996704102,2|0,0:0|1:0,0:0:0:0:
330,168,57916,2,0,P|374:108|419:101,1,107.999996704102,8|0,0:2|1:0,0:0:0:0:
429,46,58250,2,0,L|482:37,1,53.9999983520508,8|0,0:2|0:0,0:0:0:0:
328,24,58472,2,0,L|275:15,1,53.9999983520508,8|8,0:2|0:2,0:0:0:0:
236,64,58694,6,0,B|191:51|161:83|161:83|126:118|80:106,1,161.999995056153,6|0,1:2|0:0,0:0:0:0:
32,140,59139,1,10,1:2:0:0:
116,240,59361,2,0,P|167:225|199:183,1,107.999996704102,2|0,0:0|1:0,0:0:0:0:
24,232,59805,2,0,L|15:285,1,53.9999983520508,2|0,0:0|0:0,0:0:0:0:
56,336,60027,1,10,1:2:0:0:
176,384,60250,2,0,P|199:369|224:361,1,53.9999983520508,2|0,0:0|0:0,0:0:0:0:
272,316,60472,6,0,L|378:335,2,107.999996704102,0|2|10,1:2|0:0|1:2,0:0:0:0:
444,276,61139,2,0,L|462:327,1,53.9999983520508,2|0,0:0|0:0,0:0:0:0:
496,380,61361,1,0,1:2:0:0:
368,240,61583,2,0,P|394:195|446:189,2,107.999996704102,2|10|2,0:0|1:2|0:0,0:0:0:0:
504,115,62250,5,0,1:2:0:0:
504,115,62472,2,0,L|398:96,1,107.999996704102,2|10,0:0|1:2,0:0:0:0:
292,20,62916,1,2,0:0:0:0:
292,20,63027,1,0,0:0:0:0:
292,20,63139,2,0,P|316:67|302:118,1,107.999996704102,2|2,1:2|0:0,0:0:0:0:
144,136,63583,2,0,P|170:90|220:74,1,107.999996704102,10|2,1:2|0:0,0:0:0:0:
232,208,64027,5,2,1:2:0:0:
232,208,64139,1,2,0:0:0:0:
232,208,64250,2,0,L|179:217,1,53.9999983520508,2|2,0:0|0:0,0:0:0:0:
128,256,64472,2,0,L|22:237,1,107.999996704102,14|2,1:2|0:0,0:0:0:0:
68,356,64916,1,10,1:2:0:0:
99,350,65027,1,8,0:2:0:0:
127,345,65139,1,10,0:2:0:0:
154,340,65250,1,8,0:2:0:0:
184,336,65361,2,0,L|237:345,3,53.9999983520508,10|8|10|8,1:2|0:2|0:2|0:2,0:0:0:0:
292,308,65805,6,0,P|331:272|384:273,1,107.999996704102,6|2,1:2|0:0,0:0:0:0:
440,308,66139,1,2,0:0:0:0:
492,268,66250,2,0,L|510:161,1,107.999996704102,10|2,1:2|0:0,0:0:0:0:
472,108,66583,1,2,0:0:0:0:
415,136,66694,2,0,P|390:145|363:145,1,53.9999983520508,2|0,1:2|0:0,0:0:0:0:
307,111,66916,2,0,P|256:96|224:48,1,107.999996704102,2|10,0:0|1:2,0:0:0:0:
104,4,67361,2,0,L|94:57,1,53.9999983520508,2|0,0:0|0:0,0:0:0:0:
52,108,67583,6,0,L|33:1,2,107.999996704102,0|2|10,1:2|0:0|1:2,0:0:0:0:
3,228,68250,2,0,P|56:220|100:249,1,107.999996704102,2|2,0:0|1:2,0:0:0:0:
139,360,68694,1,2,0:0:0:0:
217,270,68916,1,10,1:2:0:0:
292,340,69138,1,2,0:0:0:0:
292,340,69361,6,0,P|341:321|371:278,1,107.999996704102,2|2,1:2|0:0,0:0:0:0:
384,216,69694,1,2,0:0:0:0:
440,180,69805,2,0,L|334:161,1,107.999996704102,10|2,1:2|0:0,0:0:0:0:
292,112,70138,1,2,0:0:0:0:
228,100,70249,2,0,L|219:47,1,53.9999983520508,10|8,1:2|0:2,0:0:0:0:
168,24,70472,1,10,0:3:0:0:
168,24,70583,1,4,0:3:0:0:
168,24,70694,1,2,1:2:0:0:
49,35,70916,6,0,P|10:70|12:123,1,107.999996704102,14|0,0:2|1:0,0:0:0:0:
119,172,71361,1,2,0:0:0:0:
32,268,71583,1,10,1:2:0:0:
32,268,71805,6,0,L|138:249,1,107.999996704102,14|0,0:2|1:2,0:0:0:0:
200,284,72139,1,8,0:2:0:0:
200,284,72250,2,0,L|253:293,1,53.9999983520508,8|8,0:2|0:2,0:0:0:0:
299,340,72472,2,0,L|353:330,3,53.9999983520508,8|8|8|8,1:2|0:2|0:2|0:2,0:0:0:0:
395,282,72916,6,0,P|337:229|337:150,1,161.999995056153,4|0,1:2|0:0,0:0:0:0:
368,92,73361,1,10,1:2:0:0:
243,56,73583,2,0,P|294:41|326:-1,1,107.999996704102,2|0,0:0|1:0,0:0:0:0:
160,12,74027,2,0,L|151:65,1,53.9999983520508,2|0,0:0|0:0,0:0:0:0:
136,128,74249,1,10,1:2:0:0:
24,192,74472,6,0,P|77:190|124:216,1,107.999996704102,2|0,0:0|1:2,0:0:0:0:
216,308,74916,2,0,L|207:255,1,53.9999983520508,2|0,0:0|0:0,0:0:0:0:
252,208,75139,1,10,1:2:0:0:
372,160,75361,2,0,L|363:213,1,53.9999983520508,2|0,0:0|0:2,0:0:0:0:
388,272,75583,2,0,P|432:242|485:242,2,107.999996704102,2|2|8,1:2|0:0|1:2,0:0:0:0:
300,368,76250,1,2,0:0:0:0:
172,356,76472,6,0,P|119:350|81:314,1,107.999996704102,2|2,1:2|0:0,0:0:0:0:
12,204,76916,1,10,1:2:0:0:
112,120,77138,1,2,0:0:0:0:
112,120,77249,1,0,0:0:0:0:
112,120,77361,2,0,L|93:226,1,107.999996704102,2|2,1:2|0:0,0:0:0:0:
212,272,77805,2,0,P|249:234|301:232,1,107.999996704102,10|2,1:2|0:0,0:0:0:0:
400,148,78250,6,0,B|274:126|274:126|294:125|318:109,1,161.999995056153,2|2,1:2|0:0,0:0:0:0:
276,72,78694,1,12,1:2:0:0:
384,4,78916,1,0,0:0:0:0:
384,4,79027,1,8,0:2:0:0:
384,4,79139,2,0,L|393:57,1,53.9999983520508,8|0,1:3|0:0,0:0:0:0:
452,80,79361,2,0,P|479:78|502:91,1,53.9999983520508,10|8,0:2|0:2,0:0:0:0:
508,156,79583,2,0,L|499:209,3,53.9999983520508,10|8|10|8,1:2|0:2|0:2|0:2,0:0:0:0:
448,248,80027,5,4,1:2:0:0:
192,344,80694,2,0,L|199:382,2,38.2500007295609,0|0|8,1:0|1:0|0:2,0:0:0:0:
0,240,81805,6,0,B|110:221|110:221|118:195|143:178,1,161.999995056153,6|2,1:2|0:0,0:0:0:0:
168,224,82249,1,8,1:2:0:0:
228,140,82471,1,2,0:0:0:0:
228,140,82582,1,8,0:2:0:0:
228,140,82694,1,0,1:0:0:0:
308,212,82916,2,0,L|317:265,1,53.9999983520508,2|2,0:0|0:0,0:0:0:0:
276,300,83139,2,0,P|250:306|230:325,3,53.9999983520508,10|2|2|10,0:2|0:0|0:0|0:2,0:0:0:0:
204,372,83582,6,0,P|148:315|69:305,1,161.999995056153,2|2,1:2|0:0,0:0:0:0:
20,324,84027,1,8,1:2:0:0:
52,228,84249,1,2,0:0:0:0:
52,228,84360,1,8,0:2:0:0:
52,228,84471,1,0,1:0:0:0:
140,288,84694,2,0,P|193:289|234:255,1,107.999996704102,0|8,0:0|1:2,0:0:0:0:
304,172,85138,6,0,L|339:166,2,35.9999989013672,2|2|2,0:0|0:0|0:0,0:0:0:0:
272,156,85360,6,0,B|230:166|198:132|198:132|165:99|124:112,1,161.999995056153,2|2,1:2|0:0,0:0:0:0:
76,140,85805,1,8,1:2:0:0:
8,72,86027,1,2,0:0:0:0:
8,72,86138,1,8,0:2:0:0:
8,72,86249,1,0,1:0:0:0:
108,28,86471,2,0,P|133:20|154:2,1,53.9999983520508,2|2,0:0|0:0,0:0:0:0:
204,24,86694,2,0,L|257:33,3,53.9999983520508,10|2|2|10,0:2|0:0|0:0|0:2,0:0:0:0:
308,12,87138,6,0,P|387:22|446:77,1,161.999995056153,6|10,1:2|0:2,0:0:0:0:
472,124,87582,1,0,1:0:0:0:
392,196,87805,1,12,0:2:0:0:
452,288,88027,2,0,P|427:297|412:319,1,53.9999983520508,0|8,1:0|0:2,0:0:0:0:
372,356,88249,2,0,L|319:347,1,53.9999983520508,8|8,0:2|0:2,0:0:0:0:
284,308,88471,2,0,L|231:317,3,53.9999983520508,8|8|8|8,1:2|0:2|0:2|0:2,0:0:0:0:
180,296,88916,5,6,1:2:0:0:
464,104,95805,5,8,0:2:0:0:
464,104,95916,1,8,0:2:0:0:
464,104,96027,6,0,L|350:84,1,114.750002188683,6|2,1:2|0:0,0:0:0:0:
216,60,96694,2,0,P|202:25|169:5,1,76.5000014591217,2|0,0:0|1:0,0:0:0:0:
88,44,97138,2,0,L|95:82,1,38.2500007295609,2|0,0:0|0:0,0:0:0:0:
101,127,97360,1,2,1:2:0:0:
36,192,97582,1,2,0:0:0:0:
92,268,97805,6,0,P|123:247|161:247,1,76.5000014591217,2|2,1:2|0:0,0:0:0:0:
196,260,98138,1,2,0:0:0:0:
300,352,98471,2,0,L|313:277,1,76.5000014591217,2|0,0:0|1:0,0:0:0:0:
313,276,98916,2,0,P|325:291|342:301,1,38.2500007295609
388,304,99138,1,2,1:2:0:0:
468,260,99360,1,2,0:0:0:0:
416,184,99582,6,0,B|406:132|406:132|410:127|410:127|400:72,1,114.750002188683,0|0,1:0|0:0,0:0:0:0:
432,40,100027,1,2,1:2:0:0:
348,0,100249,2,0,P|322:27|285:38,1,76.5000014591217,2|0,0:0|1:0,0:0:0:0:
196,24,100694,2,0,L|189:62,1,38.2500007295609
152,88,100916,2,0,L|158:125,3,38.2500007295609,2|2|2|2,1:2|0:0|0:0|0:0,0:0:0:0:
132,172,101361,6,0,P|99:202|56:212,1,90,6|2,1:2|0:0,0:0:0:0:
17,243,101694,2,0,L|32:331,1,90,10|2,0:2|0:0,0:0:0:0:
72,360,102027,1,10,0:2:0:0:
184,332,102250,1,2,1:2:0:0:
184,332,102361,1,8,0:2:0:0:
184,332,102471,1,8,0:2:0:0:
184,332,102582,1,8,0:2:0:0:
184,332,102694,2,0,L|192:288,3,45,8|8|8|4,1:2|0:2|0:3|0:3,0:0:0:0:
236,256,103138,5,2,1:2:0:0:
332,220,103471,1,2,1:2:0:0:
428,184,103805,1,2,1:2:0:0:
428,184,104916,5,2,1:2:0:0:
385,90,105249,1,2,1:2:0:0:
283,96,105583,1,2,1:2:0:0:
283,96,106027,2,0,L|276:129,2,33.7500012874604,2|2|2,0:0|0:0|0:0,0:0:0:0:
0,124,106694,5,2,1:2:0:0:
96,160,107027,1,2,1:2:0:0:
192,196,107361,1,2,1:2:0:0:
192,196,108472,6,0,B|180:262|180:262|183:267|183:267|172:328,2,135,6|2|2,1:2|1:2|1:2,0:0:0:0:
260,136,109361,2,0,L|298:129,1,38.2500007295609,10|0,0:2|0:0,0:0:0:0:
340,140,109582,2,0,P|351:154|358:172,1,38.2500007295609,8|8,0:2|0:2,0:0:0:0:
336,212,109805,2,0,P|329:230|327:249,3,38.2500007295609,10|8|8|4,0:2|0:2|0:3|0:3,0:0:0:0:
360,280,110249,6,0,L|436:266,1,76.5000014591217,6|10,1:2|0:0,0:0:0:0:
456,356,110694,2,0,L|381:368,1,76.5000014591217,2|10,1:2|0:2,0:0:0:0:
288,384,111138,2,0,P|265:354|260:317,1,76.5000014591217,2|10,1:2|0:2,0:0:0:0:
180,272,111582,2,0,P|143:267|114:244,1,76.5000014591217,2|10,1:2|0:2,0:0:0:0:
76,228,111916,1,8,0:2:0:0:
76,228,112027,6,0,L|62:153,1,76.5000014591217,2|10,1:2|0:2,0:0:0:0:
88,116,112360,1,8,0:2:0:0:
88,116,112471,2,0,L|125:109,1,38.2500007295609,2|0,1:2|0:0,0:0:0:0:
160,80,112693,2,0,L|197:86,1,38.2500007295609,10|8,0:2|0:2,0:0:0:0:
240,64,112916,5,0,1:2:0:0:
332,16,113138,1,8,0:2:0:0:
332,16,113249,1,8,0:2:0:0:
332,16,113360,2,0,L|338:54,1,38.2500007295609,0|0,1:2|0:0,0:0:0:0:
372,88,113582,2,0,L|366:126,1,38.2500007295609,10|8,0:2|0:2,0:0:0:0:
352,176,113805,6,0,L|427:162,1,76.5000014591217,14|8,1:2|0:2,0:0:0:0:
464,204,114138,1,8,0:2:0:0:
464,204,114249,2,0,L|457:242,1,38.2500007295609,8|8,0:2|0:2,0:0:0:0:
424,280,114471,2,0,L|386:286,1,38.2500007295609,10|10,0:2|0:2,0:0:0:0:
336,292,114694,6,0,P|329:309|330:328,3,38.2500007295609,10|8|8|8,0:3|0:3|0:3|0:3,0:0:0:0:
288,356,115138,2,0,P|269:357|251:350,3,38.2500007295609,6|4|4|4,0:3|0:3|0:3|0:3,0:0:0:0:
204,364,115583,6,0,P|156:333|136:280,2,114.750002188683,6|2|2,1:2|1:2|1:2,0:0:0:0:
232,268,116472,1,12,0:2:0:0:
168,192,116694,1,8,0:2:0:0:
164,180,116805,1,8,0:2:0:0:
160,168,116916,1,8,0:2:0:0:
156,156,117027,1,8,0:2:0:0:
152,144,117138,2,0,L|113:137,1,38.2500007295609,8|4,0:3|0:3,0:0:0:0:
76,100,117361,6,0,P|45:112|22:138,2,67.5,2|2|2,1:2|0:0|0:0,0:0:0:0:
280,40,118472,6,0,L|273:2,2,38.2500007295609,0|0|8,1:0|1:0|0:2,0:0:0:0:
280,40,119139,6,0,P|332:31|381:53,1,107.999996704102,6|2,1:2|0:0,0:0:0:0:
428,96,119471,1,2,0:0:0:0:
492,92,119582,2,0,L|473:198,1,107.999996704102,10|2,1:2|0:0,0:0:0:0:
420,236,119916,1,2,0:0:0:0:
460,288,120027,2,0,L|469:341,1,53.9999983520508,2|0,1:2|0:0,0:0:0:0:
413,368,120249,2,0,P|360:373|319:340,1,107.999996704102,2|10,0:2|1:2,0:0:0:0:
240,252,120694,2,0,L|250:199,1,53.9999983520508,2|0,0:0|0:0,0:0:0:0:
208,152,120916,6,0,P|167:117|115:118,2,107.999996704102,0|2|10,1:2|0:0|1:2,0:0:0:0:
72,196,121582,2,0,P|36:157|29:105,1,107.999996704102,2|2,0:0|1:2,0:0:0:0:
92,3,122027,1,2,0:0:0:0:
115,117,122249,1,10,1:2:0:0:
240,88,122471,1,2,0:0:0:0:
240,88,122694,6,0,L|221:194,1,107.999996704102,2|2,1:2|0:0,0:0:0:0:
276,228,123027,1,2,0:0:0:0:
320,272,123138,2,0,L|339:378,1,107.999996704102,10|2,1:2|0:0,0:0:0:0:
404,372,123471,1,2,0:0:0:0:
448,324,123582,2,0,P|459:299|481:285,1,53.9999983520508,2|2,1:2|0:0,0:0:0:0:
504,224,123805,2,0,P|451:215|425:161,1,107.999996704102,2|10,0:0|1:2,0:0:0:0:
508,72,124249,6,0,L|402:53,2,107.999996704102,2|0|2,0:0|1:2|0:0,0:0:0:0:
356,124,124916,1,10,0:2:0:0:
264,32,125138,2,0,L|210:41,1,53.9999983520508,2|0,0:0|0:2,0:0:0:0:
160,79,125361,2,0,P|128:122|135:174,1,107.999996704102,0|0,1:2|0:0,0:0:0:0:
61,267,125805,1,8,1:2:0:0:
132,384,126027,1,8,0:2:0:0:
132,384,126139,1,8,0:2:0:0:
132,384,126249,6,0,P|201:343|281:340,1,161.999995056153,6|0,1:2|0:0,0:0:0:0:
336,304,126694,1,10,1:2:0:0:
440,380,126916,2,0,L|458:273,1,107.999996704102,2|0,0:0|1:0,0:0:0:0:
484,148,127360,2,0,L|431:157,1,53.9999983520508,2|0,0:0|0:0,0:0:0:0:
372,128,127582,1,10,1:2:0:0:
252,180,127805,2,0,L|243:127,1,53.9999983520508,2|0,0:0|0:0,0:0:0:0:
192,88,128027,6,0,P|141:101|111:145,2,107.999996704102,0|2|10,1:2|0:0|0:2,0:0:0:0:
168,216,128694,2,0,L|158:269,1,53.9999983520508,2|0,0:0|0:0,0:0:0:0:
108,308,128916,1,0,1:2:0:0:
216,384,129138,2,0,P|242:339|296:324,2,107.999996704102,2|10|2,0:0|1:2|0:0,0:0:0:0:
360,384,129805,5,0,1:2:0:0:
360,384,130027,2,0,L|466:365,1,107.999996704102,2|10,0:0|1:2,0:0:0:0:
512,248,130471,1,2,0:0:0:0:
512,248,130582,1,0,0:0:0:0:
512,248,130694,2,0,P|462:232|436:186,1,107.999996704102,2|2,1:2|0:0,0:0:0:0:
404,60,131138,2,0,P|378:106|328:122,1,107.999996704102,10|2,1:2|0:0,0:0:0:0:
224,64,131582,5,2,1:2:0:0:
224,64,131694,1,2,0:0:0:0:
224,64,131805,2,0,L|215:117,1,53.9999983520508,2|2,0:0|0:0,0:0:0:0:
156,140,132027,2,0,P|106:159|76:202,1,107.999996704102,14|2,1:2|0:0,0:0:0:0:
188,268,132471,1,10,1:2:0:0:
212,252,132582,1,8,0:2:0:0:
240,252,132694,1,10,0:2:0:0:
264,264,132805,1,8,0:2:0:0:
284,284,132916,2,0,L|293:337,3,53.9999983520508,10|8|10|8,1:2|0:2|0:2|0:2,0:0:0:0:
356,344,133360,6,0,L|462:363,1,107.999996704102,6|2,1:2|0:0,0:0:0:0:
492,304,133694,1,2,0:0:0:0:
448,256,133805,2,0,L|430:149,1,107.999996704102,10|2,1:2|0:0,0:0:0:0:
368,136,134138,1,2,0:0:0:0:
308,156,134249,2,0,P|288:173|274:197,1,53.9999983520508,2|0,1:2|0:0,0:0:0:0:
216,220,134471,2,0,P|165:205|133:157,1,107.999996704102,2|10,0:0|1:2,0:0:0:0:
16,108,134916,2,0,L|26:161,1,53.9999983520508,2|0,0:0|0:0,0:0:0:0:
60,216,135138,6,0,P|76:266|53:314,2,107.999996704102,0|2|10,1:2|0:0|1:2,0:0:0:0:
96,92,135805,2,0,P|140:63|193:72,1,107.999996704102,2|2,0:0|1:2,0:0:0:0:
257,170,136249,1,2,0:0:0:0:
291,56,136471,1,10,1:2:0:0:
400,84,136693,1,2,0:0:0:0:
400,84,136916,6,0,L|419:190,1,107.999996704102,2|2,1:2|0:0,0:0:0:0:
472,224,137249,1,2,0:0:0:0:
440,280,137360,2,0,P|392:302|368:349,1,107.999996704102,10|2,1:2|0:0,0:0:0:0:
308,372,137693,1,2,0:0:0:0:
252,340,137804,2,0,L|243:287,1,53.9999983520508,10|8,1:2|0:2,0:0:0:0:
300,252,138027,1,10,0:3:0:0:
300,252,138138,1,4,0:3:0:0:
300,252,138249,1,2,1:2:0:0:
184,188,138471,6,0,P|132:191|96:152,1,107.999996704102,14|0,0:2|1:0,0:0:0:0:
60,28,138916,1,2,0:0:0:0:
168,100,139138,1,10,1:2:0:0:
256,4,139360,6,0,L|362:23,1,107.999996704102,14|0,0:2|1:2,0:0:0:0:
404,80,139694,1,8,0:2:0:0:
404,80,139805,2,0,L|413:133,1,53.9999983520508,8|8,0:2|0:2,0:0:0:0:
460,176,140027,2,0,P|484:188|501:209,3,53.9999983520508,8|8|8|8,1:2|0:2|0:2|0:2,0:0:0:0:
476,268,140471,6,0,B|430:285|398:251|398:251|369:219|320:236,1,161.999995056153,4|0,1:2|0:0,0:0:0:0:
276,272,140916,1,10,1:2:0:0:
196,376,141138,2,0,L|177:270,1,107.999996704102,2|0,0:0|1:0,0:0:0:0:
92,172,141582,2,0,P|82:197|62:215,1,53.9999983520508,2|0,0:0|0:0,0:0:0:0:
0,236,141804,1,10,1:2:0:0:
16,108,142027,6,0,L|122:89,1,107.999996704102,2|0,0:0|1:2,0:0:0:0:
248,116,142471,2,0,L|257:63,1,53.9999983520508,2|0,0:0|0:0,0:0:0:0:
308,24,142694,1,10,1:2:0:0:
368,140,142916,2,0,L|421:149,1,53.9999983520508,2|0,0:0|0:2,0:0:0:0:
456,96,143138,2,0,P|500:66|513:15,2,107.999996704102,2|2|8,1:2|0:0|1:2,0:0:0:0:
508,216,143805,1,2,0:0:0:0:
412,304,144027,6,0,L|306:285,1,107.999996704102,2|2,1:2|0:0,0:0:0:0:
184,324,144471,1,14,1:2:0:0:
128,220,144693,1,2,0:0:0:0:
128,220,144804,1,8,0:2:0:0:
128,220,144916,2,0,L|119:167,1,53.9999983520508,10|0,1:3|0:0,0:0:0:0:
72,120,145139,2,0,L|81:67,1,53.9999983520508,10|8,0:2|0:2,0:0:0:0:
132,28,145361,2,0,P|155:15|182:14,3,53.9999983520508,10|8|10|8,1:2|0:2|0:2|0:2,0:0:0:0:
216,56,145805,6,0,L|305:40,2,90,4|0|8,1:2|0:0|1:2,0:0:0:0:
284,140,146472,2,0,P|326:153|348:191,1,90,0|0,0:0|1:2,0:0:0:0:
252,244,146916,2,0,P|239:286|201:308,1,90,0|8,0:0|1:2,0:0:0:0:
124,248,147361,1,2,0:0:0:0:
124,248,147472,1,0,0:0:0:0:
124,248,147583,6,0,L|108:159,2,90,2|2|10,1:2|0:0|1:2,0:0:0:0:
24,208,148250,1,2,0:0:0:0:
108,76,148472,2,0,P|152:83|183:114,1,90,2|2,1:2|0:0,0:0:0:0:
280,156,148916,2,0,L|369:140,1,90,10|2,1:2|0:0,0:0:0:0:
436,224,149361,6,0,P|396:243|375:282,2,90,0|0|8,1:2|0:0|1:2,0:0:0:0:
408,384,150027,2,0,L|319:368,1,90,0|0,0:0|1:0,0:0:0:0:
244,292,150472,2,0,P|206:270|193:228,1,90,0|10,0:0|1:2,0:0:0:0:
280,156,150916,1,2,0:0:0:0:
280,156,151027,1,0,0:0:0:0:
280,156,151139,6,0,P|318:134|331:92,2,90,2|2|10,1:2|0:0|1:2,0:0:0:0:
176,128,151805,1,2,0:0:0:0:
92,196,152027,2,0,L|76:285,1,90,2|2,1:2|0:0,0:0:0:0:
160,356,152472,1,10,1:2:0:0:
248,296,152694,1,10,0:2:0:0:
252,316,152805,1,8,0:2:0:0:
256,336,152916,6,0,L|345:320,2,90,4|0|8,1:2|0:0|1:2,0:0:0:0:
368,236,153583,2,0,P|407:258|429:296,1,90,0|0,0:0|1:2,0:0:0:0:
280,204,154027,2,0,P|302:166|341:144,1,90,0|8,0:0|1:2,0:0:0:0:
424,72,154472,1,2,0:0:0:0:
424,72,154583,1,0,0:0:0:0:
424,72,154694,6,0,L|440:161,2,90,2|2|10,1:2|0:0|1:2,0:0:0:0:
324,32,155361,1,2,0:0:0:0:
236,96,155583,2,0,L|147:80,1,90,2|2,1:2|0:0,0:0:0:0:
48,120,156027,1,10,1:2:0:0:
68,20,156250,1,2,0:0:0:0:
68,20,156361,1,8,0:2:0:0:
68,20,156472,6,0,P|111:30|135:66,1,90,4|0,1:2|0:0,0:0:0:0:
188,160,156916,2,0,P|212:123|255:114,1,90,8|0,1:2|0:0,0:0:0:0:
316,204,157361,2,0,P|340:241|383:250,1,90,0|2,1:0|0:0,0:0:0:0:
480,200,157805,1,10,1:2:0:0:
404,124,158027,2,0,L|412:80,1,45,2|8,0:0|0:2,0:0:0:0:
360,24,158250,5,14,1:2:0:0:
328,24,158361,1,8,0:2:0:0:
308,44,158472,1,8,0:2:0:0:
300,72,158583,1,8,0:2:0:0:
312,96,158694,2,0,L|304:140,3,45,8|8|8|8,1:2|0:2|0:2|0:2,0:0:0:0:
264,180,159139,5,10,1:3:0:0:
220,200,159250,1,8,0:2:0:0:
172,192,159361,1,8,0:2:0:0:
144,160,159472,1,8,0:2:0:0:
148,120,159583,2,0,L|104:128,3,45,8|8|10|10,1:2|0:2|0:2|0:2,0:0:0:0:
40,116,160027,6,0,B|27:191|27:191|29:199|29:199|16:275,1,161.999995056153,6|0,1:2|0:0,0:0:0:0:
56,328,160472,1,10,1:2:0:0:
180,368,160694,2,0,P|230:350|260:307,1,107.999996704102,2|0,0:0|1:2,0:0:0:0:
192,180,161139,2,0,P|169:228|178:280,1,107.999996704102,2|8,0:0|1:2,0:0:0:0:
328,256,161583,1,2,0:0:0:0:
328,256,161694,1,0,0:0:0:0:
328,256,161805,6,0,L|381:265,3,53.9999983520508,2|2|2|2,1:2|0:0|0:0|0:0,0:0:0:0:
440,240,162250,2,0,P|474:199|472:147,1,107.999996704102,10|2,1:2|0:0,0:0:0:0:
380,52,162694,1,2,1:2:0:0:
252,76,162916,6,0,L|217:70,2,35.9999989013672,2|2|2,0:0|0:0|0:0,0:0:0:0:
220,104,163139,2,0,P|271:114|297:160,1,107.999996704102,10|2,1:2|0:0,0:0:0:0:
208,252,163583,6,0,L|155:243,3,53.9999983520508,2|2|2|2,1:2|0:0|0:0|0:0,0:0:0:0:
100,276,164027,2,0,P|82:295|77:321,1,53.9999983520508,10|0,1:2|0:0,0:0:0:0:
32,224,164250,2,0,P|-2:183|2:131,1,107.999996704102,2|0,0:2|1:2,0:0:0:0:
92,36,164694,2,0,L|198:17,1,107.999996704102,2|8,0:0|1:2,0:0:0:0:
308,84,165139,1,2,0:0:0:0:
420,20,165361,6,0,P|447:22|470:36,3,53.9999983520508,2|2|2|2,1:2|0:0|0:0|0:0,0:0:0:0:
504,92,165805,2,0,L|495:145,1,53.9999983520508,10|2,1:2|0:0,0:0:0:0:
436,172,166027,2,0,L|455:278,1,107.999996704102,2|10,0:0|1:3,0:0:0:0:
352,360,166472,5,10,0:2:0:0:
340,340,166583,1,8,0:2:0:0:
320,332,166694,1,10,1:3:0:0:
300,340,166805,1,8,0:3:0:0:
284,360,166916,2,0,L|231:351,1,53.9999983520508,6|4,0:3|0:3,0:0:0:0:
180,312,167139,6,0,L|74:331,1,107.999996704102,4|2,1:2|0:0,0:0:0:0:
32,288,167472,1,2,0:0:0:0:
32,288,167583,2,0,P|41:263|58:242,1,53.9999983520508,10|0,1:2|0:0,0:0:0:0:
96,188,167805,2,0,P|130:148|122:96,1,107.999996704102,2|2,0:0|1:2,0:0:0:0:
220,8,168250,2,0,L|229:61,1,53.9999983520508,2|2,0:2|0:2,0:0:0:0:
276,104,168472,1,10,1:2:0:0:
388,168,168694,6,0,P|422:128|474:122,1,107.999996704102,2|0,0:0|1:2,0:0:0:0:
512,248,169139,1,2,0:0:0:0:
440,356,169361,1,10,1:2:0:0:
328,292,169583,6,0,L|222:273,1,107.999996704102,2|0,0:0|1:2,0:0:0:0:
116,348,170027,2,0,L|63:357,2,53.9999983520508,10|8|10,0:2|0:2|1:2,0:0:0:0:
64,228,170472,6,0,P|56:176|89:135,1,107.999996704102,14|0,0:2|1:0,0:0:0:0:
196,60,170916,1,2,0:0:0:0:
196,60,171027,1,0,0:0:0:0:
196,60,171139,2,0,L|205:168,1,107.999996704102,2|8,1:2|0:2,0:0:0:0:
264,204,171472,1,8,0:2:0:0:
264,204,171583,6,0,L|317:195,2,53.9999983520508,10|8|8,1:2|0:3|0:3,0:0:0:0:
236,264,171916,2,0,L|183:273,2,53.9999983520508,6|0|0,0:3|1:2|0:0,0:0:0:0:
276,316,172250,2,0,P|316:350|368:345,1,107.999996704102,14|0,0:2|1:0,0:0:0:0:
480,280,172694,6,0,L|489:227,2,53.9999983520508,10|8|8,0:2|0:2|1:2,0:0:0:0:
408,228,173027,2,0,L|399:175,2,53.9999983520508,10|8|8,0:2|0:2|0:2,0:0:0:0:
472,152,173361,2,0,L|481:99,2,53.9999983520508,10|8|8,1:2|0:2|0:2,0:0:0:0:
400,96,173694,2,0,L|391:43,1,53.9999983520508,10|0,0:3|1:0,0:0:0:0:
268,8,174027,2,0,P|216:14|182:54,1,107.999996704102,14|0,0:2|1:2,0:0:0:0:
76,128,174472,5,10,0:2:0:0:
76,128,174694,1,10,0:2:0:0:
188,188,174916,1,10,0:2:0:0:
80,264,175139,1,10,0:2:0:0:
184,340,175361,5,10,0:3:0:0:
264,288,175583,1,10,0:3:0:0:
320,364,175805,1,6,0:3:0:0:
452,308,176027,5,6,1:2:0:0:
256,192,176139,12,2,177805,0:0:0:0:
512,108,182916,6,0,B|462:124|429:86|429:86|396:48|340:68,1,180,14|2,1:2|1:2,0:0:0:0:
256,120,183583,1,2,1:2:0:0:
356,164,183805,2,0,P|371:181|378:202,1,45,14|0,1:2|0:0,0:0:0:0:
360,252,184027,1,8,1:2:0:0:
352,272,184139,1,8,0:2:0:0:
344,292,184250,1,8,0:2:0:0:
336,312,184361,1,8,0:2:0:0:
328,332,184472,2,0,L|284:340,3,45,8|8|8|8,1:2|0:2|0:2|0:2,0:0:0:0:
228,372,184916,6,0,P|149:369|94:312,1,161.999995056153,6|0,1:2|0:0,0:0:0:0:
72,252,185361,1,10,1:2:0:0:
185,267,185583,2,0,P|192:214|168:168,1,107.999996704102,2|0,0:0|1:0,0:0:0:0:
59,120,186027,2,0,L|68:67,1,53.9999983520508,2|0,0:0|0:0,0:0:0:0:
53,9,186249,1,10,1:2:0:0:
184,0,186472,2,0,P|207:15|232:23,1,53.9999983520508,2|0,0:0|0:0,0:0:0:0:
296,40,186694,6,0,P|343:63|360:113,2,107.999996704102,0|2|10,1:2|0:0|1:2,0:0:0:0:
279,164,187361,2,0,L|289:217,1,53.9999983520508,2|0,0:0|0:0,0:0:0:0:
348,244,187583,1,0,1:0:0:0:
412,356,187805,2,0,L|306:337,2,107.999996704102,2|10|2,0:0|1:2|0:0,0:0:0:0:
484,248,188472,5,0,1:2:0:0:
483,248,188694,2,0,P|514:205|508:153,1,107.999996704102,2|10,0:0|1:2,0:0:0:0:
420,72,189138,1,2,0:0:0:0:
420,72,189249,1,0,0:0:0:0:
420,72,189361,2,0,L|314:53,1,107.999996704102,2|2,1:2|0:0,0:0:0:0:
192,4,189805,1,10,1:2:0:0:
80,68,190027,6,0,L|27:59,2,53.9999983520508,10|8|14,0:2|0:2|1:2,0:0:0:0:
188,140,190472,2,0,L|241:131,2,53.9999983520508,10|8|14,0:2|0:2|1:2,0:0:0:0:
64,180,190916,2,0,L|55:233,1,53.9999983520508,8|8,0:2|0:2,0:0:0:0:
100,280,191138,1,10,1:2:0:0:
128,264,191249,1,8,0:2:0:0:
160,264,191361,1,10,0:2:0:0:
188,280,191472,1,8,0:2:0:0:
200,304,191583,2,0,L|209:357,3,53.9999983520508,10|8|10|8,1:2|0:2|0:2|0:2,0:0:0:0:
272,376,192027,5,2,0:0:0:0:
272,376,192472,6,0,P|315:345|367:351,1,107.999996704102,12|0,0:2|0:0,0:0:0:0:
420,312,192805,1,0,0:0:0:0:
420,312,192916,2,0,P|405:290|398:264,3,53.9999983520508,8|8|8|8,1:2|0:2|0:2|0:2,0:0:0:0:
416,200,193361,1,8,1:2:0:0:
508,108,193583,2,0,L|455:98,1,53.9999983520508,12|0,0:2|0:0,0:0:0:0:
400,64,193805,6,0,P|350:46|322:1,2,107.999996704102,0|2|10,1:2|0:0|1:2,0:0:0:0:
300,148,194472,2,0,P|250:168|226:215,1,107.999996704102,2|2,0:0|1:2,0:0:0:0:
204,330,194916,1,2,0:0:0:0:
85,318,195138,1,10,1:2:0:0:
100,196,195360,1,2,0:0:0:0:
100,196,195583,6,0,L|81:90,1,107.999996704102,2|2,1:2|0:0,0:0:0:0:
136,56,195916,1,2,0:0:0:0:
190,97,196027,2,0,P|238:119|291:111,1,107.999996704102,10|2,1:2|0:0,0:0:0:0:
344,72,196360,1,2,0:0:0:0:
404,92,196471,2,0,L|413:145,1,53.9999983520508,8|0,1:2|0:0,0:0:0:0:
468,180,196694,6,0,L|503:174,3,35.9999989013672,8|8|4|6,0:3|0:3|0:3|1:3,0:0:0:0:
508,304,197138,6,0,P|461:328|449:379,1,107.999996704102,14|0,1:2|1:0,0:0:0:0:
336,312,197583,1,2,0:0:0:0:
224,380,197805,1,2,1:2:0:0:
120,304,198027,6,0,L|226:285,1,107.999996704102,14|0,0:2|1:2,0:0:0:0:
272,236,198361,1,8,0:2:0:0:
272,235,198472,2,0,P|282:210|281:183,1,53.9999983520508,8|8,0:2|0:2,0:0:0:0:
236,136,198694,2,0,P|226:111|227:84,3,53.9999983520508,8|8|8|8,1:2|0:2|0:2|0:2,0:0:0:0:
288,68,199138,6,0,B|329:82|361:48|361:48|398:14|448:36,1,161.999995056153,4|0,1:2|0:0,0:0:0:0:
484,76,199583,1,10,1:2:0:0:
424,188,199805,2,0,P|379:216|359:265,1,107.999996704102,2|0,0:0|1:0,0:0:0:0:
420,380,200249,2,0,L|367:371,1,53.9999983520508,2|0,0:0|0:0,0:0:0:0:
304,380,200471,1,10,1:2:0:0:
200,300,200694,6,0,P|245:273|263:223,1,107.999996704102,2|0,0:0|1:2,0:0:0:0:
180,124,201138,2,0,L|171:177,1,53.9999983520508,2|0,0:0|0:0,0:0:0:0:
116,212,201361,1,10,1:2:0:0:
32,112,201583,2,0,L|23:59,1,53.9999983520508,2|0,0:0|0:2,0:0:0:0:
80,32,201805,2,0,P|133:32|177:2,2,107.999996704102,2|2|8,1:2|0:0|1:2,0:0:0:0:
236,64,202472,1,2,0:0:0:0:
352,8,202694,6,0,L|343:116,1,107.999996704102,2|2,1:2|0:0,0:0:0:0:
444,196,203138,1,10,1:2:0:0:
348,284,203360,1,2,0:0:0:0:
348,284,203471,1,0,0:0:0:0:
348,284,203583,2,0,L|242:303,1,107.999996704102,2|2,1:2|0:0,0:0:0:0:
116,328,204027,2,0,P|115:275|151:237,1,107.999996704102,10|2,1:2|0:2,0:0:0:0:
260,164,204472,6,0,B|189:151|189:151|184:155|184:155|101:140,1,161.999995056153,2|2,1:2|0:0,0:0:0:0:
56,92,204916,1,12,1:2:0:0:
172,32,205138,1,0,0:0:0:0:
172,32,205249,1,8,0:2:0:0:
172,32,205361,2,0,L|225:23,1,53.9999983520508,8|0,1:3|0:0,0:0:0:0:
280,60,205583,2,0,P|307:62|330:49,1,53.9999983520508,10|8,0:2|0:2,0:0:0:0:
384,16,205805,2,0,P|411:14|434:27,3,53.9999983520508,10|8|10|8,1:2|0:2|0:2|0:2,0:0:0:0:
480,72,206249,5,4,1:2:0:0:
8,344,207805,2,0,L|1:382,2,38.2500007295609,0|0|8,1:0|1:0|0:2,0:0:0:0:
448,0,209805,6,0,B|420:48|420:48|445:151,1,161.999995056153,6|2,1:2|0:0,0:0:0:0:
460,216,210249,1,8,1:2:0:0:
400,308,210471,1,2,0:0:0:0:
400,308,210582,1,8,0:2:0:0:
400,308,210694,1,0,1:0:0:0:
304,260,210916,2,0,L|251:269,1,53.9999983520508,2|2,0:0|0:0,0:0:0:0:
208,236,211139,2,0,P|182:230|162:211,3,53.9999983520508,10|2|2|2,0:2|0:0|0:0|0:0,0:0:0:0:
132,168,211582,6,0,L|160:8,1,161.999995056153,2|2,1:2|0:0,0:0:0:0:
108,0,212027,1,8,1:2:0:0:
16,44,212249,1,2,0:0:0:0:
16,44,212360,1,8,0:2:0:0:
16,44,212471,1,0,1:0:0:0:
48,148,212694,2,0,P|49:201|15:242,1,107.999996704102,0|8,0:0|1:2,0:0:0:0:
60,340,213138,6,0,L|54:375,2,35.9999989013672,2|2|2,0:0|0:0|0:0,0:0:0:0:
92,328,213360,6,0,B|202:309|202:309|227:287|235:242,1,161.999995056153,2|2,1:2|0:0,0:0:0:0:
208,216,213805,1,8,1:2:0:0:
304,164,214027,1,2,0:0:0:0:
304,164,214138,1,8,0:2:0:0:
304,164,214249,1,0,1:0:0:0:
372,248,214471,2,0,P|384:271|386:299,1,53.9999983520508,2|2,0:0|0:0,0:0:0:0:
416,344,214694,2,0,L|469:335,3,53.9999983520508,10|2|2|2,0:2|0:0|0:0|0:0,0:0:0:0:
484,284,215138,6,0,L|512:124,1,161.999995056153,6|10,1:2|0:2,0:0:0:0:
488,76,215582,1,0,1:0:0:0:
400,12,215805,1,12,0:2:0:0:
308,72,216027,2,0,L|255:81,1,53.9999983520508,0|8,1:0|0:2,0:0:0:0:
208,112,216249,2,0,L|155:103,1,53.9999983520508,8|8,0:2|0:2,0:0:0:0:
116,68,216471,2,0,P|94:53|82:29,3,53.9999983520508,8|8|8|8,1:2|0:2|0:2|0:2,0:0:0:0:
32,4,216916,6,0,B|45:79|45:79|42:84|42:84|56:163,1,161.999995056153,4|8,1:2|0:2,0:0:0:0:
36,212,217361,1,0,1:2:0:0:
132,296,217583,1,12,0:2:0:0:
228,208,217805,1,0,1:2:0:0:
252,200,217916,1,8,0:2:0:0:
280,204,218027,1,8,0:2:0:0:
300,220,218139,1,8,0:2:0:0:
308,244,218250,2,0,L|299:297,3,53.9999983520508,8|8|8|8,1:2|0:2|0:2|0:2,0:0:0:0:
336,336,218694,6,0,P|378:369|431:370,1,107.999996704102,4|0,1:2|0:0,0:0:0:0:
468,332,219027,1,8,0:2:0:0:
468,332,219139,2,0,L|477:279,1,53.9999983520508,8|8,1:2|0:2,0:0:0:0:
444,236,219361,6,0,P|404:201|394:149,1,107.999996704102,4|0,1:2|0:2,0:0:0:0:
428,108,219694,1,8,0:2:0:0:
428,108,219805,2,0,P|452:96|470:76,1,53.9999983520508,8|8,0:2|0:2,0:0:0:0:
448,28,220027,2,0,L|395:19,3,53.9999983520508,8|8|4|4,0:2|0:2|0:3|0:3,0:0:0:0:
348,48,220472,5,2,0:0:0:0:
60,212,222250,6,0,P|111:201|137:156,1,107.999996704102,10|0,1:2|0:0,0:0:0:0:
188,136,222583,2,0,L|207:242,1,107.999996704102,10|0,1:2|0:0,0:0:0:0:
252,272,222916,1,10,1:2:0:0:
