osu file format v14

[General]
AudioFilename: audio.mp3
AudioLeadIn: 0
PreviewTime: 541
Countdown: 0
SampleSet: Soft
StackLeniency: 0.7
Mode: 0
LetterboxInBreaks: 0
WidescreenStoryboard: 0

[Editor]
DistanceSpacing: 0.6
BeatDivisor: 4
GridSize: 8
TimelineZoom: 1.2

[Metadata]
Title:Kaze no Koe wo Kikinagara
TitleUnicode:風の声を聴きながら
Artist:Sangatsu no Phantasia
ArtistUnicode:三月のパンタシア
Creator:CoLouRed GlaZeE
Version:Slow Start
Source:スロウスタート
Tags:slow start Manga Time Kirara Aniplex 40mP 芳文社 一之瀨花名 十仓栄依子 百地たまて 长绳麻理亚 万年 大会 はんねん ひろえ 京塚志温 A-1 Pictures Mineuchi Tomomi Koudou Rein Itou Ayasa Naganawa Maria M·A·O Uchida Maaya Numakura Manami Drecom
BeatmapID:1542638
BeatmapSetID:730938

[Difficulty]
HPDrainRate:5
CircleSize:4
OverallDifficulty:7
ApproachRate:8
SliderMultiplier:1.4
SliderTickRate:1

[Events]
//Background and Video events
0,0,"68030556_p0.jpg",0,0
//Break Periods
//Storyboard Layer 0 (Background)
//Storyboard Layer 1 (Fail)
//Storyboard Layer 2 (Pass)
//Storyboard Layer 3 (Foreground)
//Storyboard Sound Samples

[TimingPoints]
1010,468.75,4,2,0,30,1,0
8510,-100,4,2,0,40,0,0
14135,-133.333333333333,4,2,0,40,0,0
16010,-133.333333333333,4,2,0,30,0,0
31010,-100,4,2,0,40,0,0
46010,-133.333333333333,4,2,0,40,0,0
57260,-100,4,2,0,40,0,0
62885,-80,4,2,0,55,0,1
71791,-80,4,2,0,55,0,0
72025,-76.9230769230769,4,2,0,60,0,1
72260,-80,4,2,0,60,0,0
72494,-74.0740740740741,4,2,0,65,0,1
72728,-80,4,2,0,65,0,0
72963,-71.4285714285714,4,2,0,70,0,1
73431,-80,4,2,0,55,0,1
81635,-100,4,2,0,40,0,0
87260,-133.333333333333,4,2,0,40,0,0
88197,-100,4,2,0,50,0,0
89135,-100,4,2,0,40,0,0
104135,-133.333333333333,4,2,0,30,0,0
109760,-133.333333333333,4,2,0,40,0,0
111635,-100,4,2,0,40,0,0
119135,-133.333333333333,4,2,0,40,0,0
130385,-100,4,2,0,40,0,0
136010,-80,4,2,0,55,0,1
144916,-80,4,2,0,55,0,0
145150,-76.9230769230769,4,2,0,60,0,1
145385,-80,4,2,0,60,0,0
145619,-74.0740740740741,4,2,0,65,0,1
145853,-76.9230769230769,4,2,0,65,0,0
146088,-71.4285714285714,4,2,0,70,0,1
146556,-80,4,2,0,55,0,1
154760,-100,4,2,0,40,0,0
163900,-76.9230769230769,4,2,0,60,0,1
164135,-100,4,2,0,60,0,0
164369,-74.0740740740741,4,2,0,65,0,1
164603,-100,4,2,0,65,0,0
164838,-71.4285714285714,4,2,0,70,0,1
165306,-100,4,2,0,50,0,0
176791,-133.333333333333,4,2,0,30,0,0
184760,-117.647058823529,4,2,0,40,0,0
190385,-100,4,2,0,40,0,0
194135,-80,4,2,0,55,0,1
203041,-80,4,2,0,55,0,0
203275,-76.9230769230769,4,2,0,60,0,1
203510,-76.9230769230769,4,2,0,60,0,0
203744,-74.0740740740741,4,2,0,65,0,1
203978,-74.0740740740741,4,2,0,65,0,0
204213,-71.4285714285714,4,2,0,70,0,1
204681,-80,4,2,0,55,0,1
218510,-133.333333333333,4,2,0,45,0,0
223666,-133.333333333333,4,2,0,30,0,0
230697,-133.333333333333,4,2,0,20,0,0
231635,-133.333333333333,4,2,0,15,0,0
234974,-133.333333333333,4,2,0,5,0,0

[Colours]
Combo1 : 255,140,255
Combo2 : 255,128,128
Combo3 : 186,123,109
Combo4 : 255,160,66

[HitObjects]
272,139,541,6,0,P|282:180|291:213,1,70,2|2,0:0|0:0,0:0:0:0:
360,259,1010,2,0,P|405:256|439:257,1,70,2|2,1:2|0:0,0:0:0:0:
299,322,1478,1,10,0:0:0:0:
233,272,1713,2,0,P|178:254|94:252,1,140,2|2,1:2|1:2,0:0:0:0:
97,252,2416,1,8,0:0:0:0:
19,219,2650,2,0,L|3:225,2,11.6666666666667,2|2|2,0:0|0:0|0:0,0:0:0:0:
116,174,2885,6,0,P|81:154|49:137,1,70,2|2,1:2|0:0,0:0:0:0:
45,54,3353,1,10,0:0:0:0:
122,80,3588,2,0,P|194:73|263:68,1,140,2|0,1:2|1:0,0:0:0:0:
351,151,4291,2,0,P|315:148|268:146,1,70,10|2,0:0|0:0,0:0:0:0:
139,323,4760,6,0,P|104:321|69:318,1,70,2|2,1:2|0:0,0:0:0:0:
218,296,5228,1,10,0:0:0:0:
158,239,5463,2,0,P|138:167|124:97,1,140,2|2,1:2|1:2,0:0:0:0:
125,103,6166,1,8,0:0:0:0:
213,113,6400,2,0,L|232:109,2,11.6666666666667,2|2|2,0:0|0:0|0:0,0:0:0:0:
158,183,6635,5,0,1:0:0:0:
78,169,6869,1,2,0:0:0:0:
49,247,7103,1,10,0:0:0:0:
127,261,7337,1,2,1:2:0:0:
455,279,7806,5,8,1:2:0:0:
346,187,8041,1,10,1:2:0:0:
486,97,8275,1,2,0:0:0:0:
431,180,8510,6,0,P|467:180|505:178,1,70,4|2,0:1|0:0,0:0:0:0:
401,95,8978,1,10,0:0:0:0:
350,154,9213,2,0,P|341:238|356:306,1,140,2|2,1:2|1:2,0:0:0:0:
418,355,9916,1,8,0:0:0:0:
488,306,10150,1,2,0:0:0:0:
481,139,10385,6,0,P|480:104|476:69,1,70,0|2,1:0|0:0,0:0:0:0:
411,185,10853,1,10,0:0:0:0:
337,146,11088,2,0,P|278:155|192:141,1,140,2|2,1:2|1:2,0:0:0:0:
68,281,11791,1,10,0:0:0:0:
24,212,12025,2,0,P|58:206|169:214,1,140,2|0,1:2|1:0,0:0:0:0:
271,119,12728,5,10,0:0:0:0:
378,220,12963,1,2,0:0:0:0:
241,265,13197,1,2,1:2:0:0:
280,131,13431,1,2,1:2:0:0:
299,214,13666,1,10,0:0:0:0:
218,188,13900,1,2,0:0:0:0:
264,106,14135,6,4,P|222:112|151:106,1,105.000004005432,4|2,0:1|0:0,0:0:0:0:
345,118,14838,1,2,0:0:0:0:
416,157,15072,2,0,P|442:156|469:158,3,52.5000020027161,4|2|2|2,0:1|0:0|0:0|0:0,0:0:0:0:
315,336,16010,6,0,P|304:283|307:222,1,105.000004005432,2|0,0:0|0:0,0:0:0:0:
426,84,16713,2,0,P|435:137|435:191,1,105.000004005432,2|0,0:0|0:0,0:0:0:0:
351,280,17416,1,2,0:0:0:0:
274,310,17650,1,2,0:0:0:0:
198,283,17885,6,0,P|145:279|91:283,1,105.000004005432,2|0,0:0|0:0,0:0:0:0:
36,111,18588,2,0,P|88:117|145:113,1,105.000004005432,2|2,0:0|0:0,0:0:0:0:
279,229,19291,1,2,0:0:0:0:
269,152,19525,1,2,0:0:0:0:
281,75,19760,6,0,P|340:64|396:73,1,105.000004005432,2|0,0:0|0:0,0:0:0:0:
473,260,20463,2,0,P|479:205|465:154,1,105.000004005432,2|0,0:0|0:0,0:0:0:0:
325,168,21166,2,0,P|280:171|260:170,1,52.5000020027161,2|0,0:0|0:0,0:0:0:0:
195,160,21635,6,0,P|133:157|78:162,1,105.000004005432,2|0,0:0|0:0,0:0:0:0:
354,35,22338,2,0,P|346:87|349:141,1,105.000004005432,2|2,0:0|0:0,0:0:0:0:
348,139,22924,1,2,0:0:0:0:
348,139,23041,1,2,0:0:0:0:
403,215,23275,1,0,0:0:0:0:
210,325,23510,6,0,L|314:327,1,105.000004005432,2|0,0:0|0:0,0:0:0:0:
245,176,24213,1,2,0:0:0:0:
191,223,24447,1,0,0:0:0:0:
121,237,24681,1,2,0:0:0:0:
53,225,24916,1,2,0:0:0:0:
83,159,25150,1,2,0:0:0:0:
224,344,25385,6,0,P|227:291|221:230,1,105.000004005432,2|0,0:0|0:0,0:0:0:0:
279,57,26088,1,2,0:0:0:0:
232,111,26322,1,0,0:0:0:0:
305,126,26556,1,2,0:0:0:0:
371,154,26791,1,2,0:0:0:0:
429,195,27025,1,2,0:0:0:0:
285,325,27260,6,0,L|179:328,1,105.000004005432,2|0,0:0|0:0,0:0:0:0:
319,204,27963,1,2,0:0:0:0:
250,190,28197,1,0,0:0:0:0:
207,133,28431,1,2,0:0:0:0:
168,76,28666,1,2,0:0:0:0:
102,53,28900,1,2,0:0:0:0:
35,278,29135,6,0,P|31:219|34:170,1,105.000004005432,2|0,0:0|0:0,0:0:0:0:
96,137,29838,1,0,0:0:0:0:
166,152,30072,2,0,P|221:152|280:148,1,105.000004005432,2|0,0:0|0:0,0:0:0:0:
472,342,31010,6,0,P|411:304|331:315,1,140,2|8,1:2|0:0,0:0:0:0:
265,356,31713,2,0,P|297:301|284:219,1,140,2|0,1:2|1:0,0:0:0:0:
99,231,32416,1,10,0:0:0:0:
74,149,32650,1,2,0:0:0:0:
88,66,32885,2,0,P|173:60|233:62,1,140,2|8,1:2|0:0,0:0:0:0:
319,141,33588,2,0,P|284:138|248:140,1,70,2|0,1:2|0:0,0:0:0:0:
246,283,34056,2,0,P|281:286|317:284,1,70,2|8,1:2|0:0,0:0:0:0:
202,210,34525,1,2,0:0:0:0:
122,248,34760,6,0,P|82:253|46:251,1,70,2|0,1:2|0:0,0:0:0:0:
262,342,35228,1,8,0:0:0:0:
338,303,35463,2,0,P|390:298|482:302,1,140,2|0,1:2|1:0,0:0:0:0:
468,125,36166,2,0,P|470:159|472:197,1,70,10|0,0:0|0:0,0:0:0:0:
318,330,36635,6,0,P|316:253|313:186,1,140,2|8,1:2|0:0,0:0:0:0:
462,87,37338,2,0,P|390:95|319:95,1,140,2|0,1:2|1:0,0:0:0:0:
340,257,38041,2,0,P|377:253|416:254,1,70,10|4,0:0|0:0,0:0:0:0:
262,226,38510,6,0,P|171:229|122:261,1,140,2|8,1:2|0:0,0:0:0:0:
55,219,39213,2,0,P|56:184|52:149,1,70,2|0,1:2|0:0,0:0:0:0:
137,142,39681,2,0,P|198:140|235:142,2,70,2|10|2,1:2|0:0|0:0,0:0:0:0:
109,51,40385,6,0,P|190:51|275:42,1,140,2|8,1:2|0:0,0:0:0:0:
311,106,41088,2,0,P|310:141|316:176,1,70,2|0,1:2|0:0,0:0:0:0:
395,98,41556,2,0,P|397:63|392:26,2,70,2|10|0,1:2|0:0|0:0,0:0:0:0:
463,178,42260,6,0,P|469:247|465:321,1,140,2|8,1:2|0:0,0:0:0:0:
364,300,42963,2,0,L|370:370,1,70,2|0,1:2|0:0,0:0:0:0:
267,250,43431,2,0,L|197:230,2,70,0|10|2,1:0|0:0|0:0,0:0:0:0:
351,267,44135,6,0,P|354:223|352:189,1,70,0|0,1:0|0:0,0:0:0:0:
434,158,44603,2,0,P|430:203|433:238,1,70,8|0,0:0|0:0,0:0:0:0:
506,253,45072,1,0,1:0:0:0:
433,307,45306,1,0,1:0:0:0:
366,129,45541,2,0,L|297:134,1,70,12|0,0:0|0:0,0:0:0:0:
211,279,46010,6,0,P|276:290|314:303,1,105.000004005432,0|0,1:0|0:0,0:0:0:0:
496,206,46713,2,0,P|436:229|389:239,1,105.000004005432,2|0,1:2|1:0,0:0:0:0:
255,184,47416,2,0,P|224:182|198:182,1,52.5000020027161,8|0,0:0|0:0,0:0:0:0:
185,108,47885,6,0,P|153:101|114:96,2,52.5000020027161,2|0|0,1:2|0:0|0:0,0:0:0:0:
267,111,48588,1,2,1:2:0:0:
267,111,48705,1,2,0:0:0:0:
267,111,48822,1,2,0:0:0:0:
335,82,49056,1,0,1:0:0:0:
402,114,49291,2,0,P|435:121|457:124,1,52.5000020027161,10|0,0:0|0:0,0:0:0:0:
467,316,49760,5,2,1:2:0:0:
398,336,49994,1,0,0:0:0:0:
400,265,50228,1,0,0:0:0:0:
469,244,50463,2,0,P|470:212|481:140,1,105.000004005432,2|0,1:2|1:0,0:0:0:0:
403,159,51166,2,0,P|377:164|351:167,1,52.5000020027161,10|0,0:0|0:0,0:0:0:0:
150,299,51635,5,2,1:2:0:0:
207,254,51869,1,2,0:0:0:0:
163,197,52103,1,2,0:0:0:0:
108,242,52338,2,0,P|70:239|38:240,1,52.5000020027161,2|2,1:2|0:0,0:0:0:0:
55,239,52689,1,2,0:0:0:0:
55,239,52806,1,6,1:2:0:0:
217,325,53041,2,0,P|252:328|270:326,1,52.5000020027161,10|0,0:0|0:0,0:0:0:0:
286,99,53510,6,0,P|294:158|287:216,1,105.000004005432,2|0,1:2|0:0,0:0:0:0:
157,138,54213,2,0,P|150:83|157:25,1,105.000004005432,2|2,1:2|0:0,0:0:0:0:
12,238,54916,1,8,0:0:0:0:
79,202,55150,1,0,0:0:0:0:
151,231,55385,6,0,P|150:266|156:303,2,52.5000020027161,2|0|0,1:2|0:0|0:0,0:0:0:0:
225,202,56088,1,2,1:2:0:0:
225,202,56205,1,2,0:0:0:0:
225,202,56322,1,2,0:0:0:0:
298,223,56556,1,2,1:2:0:0:
372,202,56791,2,0,P|376:176|376:145,1,52.5000020027161,10|0,0:0|0:0,0:0:0:0:
480,354,57260,6,0,P|454:290|472:214,1,140,0|8,1:0|0:0,0:0:0:0:
339,323,57963,2,0,P|264:304|199:334,1,140,2|2,1:2|1:2,0:0:0:0:
248,155,58666,2,0,P|254:200|251:236,1,70,8|0,0:0|0:0,0:0:0:0:
362,235,59135,6,0,P|399:241|431:240,1,70,0|0,1:0|0:0,0:0:0:0:
313,108,59603,2,0,P|348:109|383:115,1,70,8|0,0:0|0:0,0:0:0:0:
204,298,60072,2,0,P|250:303|279:304,1,70,0|0,1:0|1:0,0:0:0:0:
140,73,60541,2,0,P|184:69|218:70,1,70,8|0,0:0|0:0,0:0:0:0:
400,149,61010,5,8,1:2:0:0:
330,267,61244,1,8,1:2:0:0:
219,176,61478,1,8,1:2:0:0:
292,60,61713,1,8,1:2:0:0:
292,60,61830,1,8,1:2:0:0:
292,60,61947,1,8,1:2:0:0:
45,273,62416,6,0,L|54:352,1,70,4|0,0:0|0:0,0:0:0:0:
212,245,62885,5,4,1:1:0:0:
98,148,63119,1,0,0:0:0:0:
191,35,63353,1,8,0:0:0:0:
295,131,63588,2,0,P|250:127|208:133,1,87.5,2|0,1:2|0:0,0:0:0:0:
151,323,64056,2,0,P|203:327|244:321,1,87.5,0|8,1:0|0:0,0:0:0:0:
468,168,64525,6,0,P|424:163|381:169,2,87.5,2|2|0,0:0|1:2|0:0,0:0:0:0:
478,288,65228,1,10,0:0:0:0:
378,336,65463,2,0,P|292:350|193:332,1,175,2|0,1:2|1:0,0:0:0:0:
58,263,66166,2,0,P|75:304|86:351,1,87.5,10|0,0:0|0:0,0:0:0:0:
158,233,66635,5,2,1:2:0:0:
233,120,66869,1,0,0:0:0:0:
131,34,67103,1,8,0:0:0:0:
71,172,67338,2,0,P|64:128|66:84,1,87.5,2|0,1:2|0:0,0:0:0:0:
324,178,67806,1,0,1:0:0:0:
253,116,68041,1,8,0:0:0:0:
339,86,68275,1,2,0:0:0:0:
226,286,68510,6,0,P|238:200|226:170,1,87.5,2|0,1:2|0:0,0:0:0:0:
134,46,68978,1,8,0:0:0:0:
60,90,69213,2,0,P|48:176|60:206,1,87.5,2|2,1:2|0:0,0:0:0:0:
47,174,69564,1,2,0:0:0:0:
47,174,69681,1,2,1:2:0:0:
151,197,69916,1,10,0:0:0:0:
162,101,70150,1,4,0:0:0:0:
36,158,70385,5,2,1:2:0:0:
77,303,70619,1,0,0:0:0:0:
116,196,70853,1,8,0:0:0:0:
184,334,71088,2,0,P|178:290|178:244,1,87.5,2|0,1:2|0:0,0:0:0:0:
261,264,71556,2,0,P|269:307|271:351,1,87.5,0|10,1:0|0:0,0:0:0:0:
37,347,72025,6,0,P|28:296|36:249,1,90.9999958343508,6|0,1:2|0:0,0:0:0:0:
265,119,72494,2,0,P|268:74|262:26,1,94.5000003604889,6|0,1:2|0:0,0:0:0:0:
479,353,72963,2,0,P|471:265|481:146,1,195.999994018555,6|8,1:2|1:2,0:0:0:0:
289,99,73666,5,8,0:0:0:0:
223,157,73900,2,0,P|173:160|129:154,2,87.5,2|2|0,0:0|1:2|0:0,0:0:0:0:
280,232,74603,1,8,0:0:0:0:
190,237,74838,2,0,P|103:177|20:211,1,175,2|0,1:2|1:0,0:0:0:0:
37,347,75541,1,8,0:0:0:0:
197,316,75775,2,0,P|146:318|101:314,1,87.5,0|2,0:0|1:2,0:0:0:0:
372,241,76244,5,2,0:0:0:0:
455,366,76478,1,10,0:0:0:0:
494,269,76713,2,0,P|437:331|335:341,1,175,2|2,1:2|1:2,0:0:0:0:
213,280,77416,1,10,0:0:0:0:
284,215,77650,1,8,0:0:0:0:
166,110,77885,6,0,P|80:113|12:60,1,175,2|8,1:2|0:0,0:0:0:0:
240,146,78588,2,0,P|281:131|324:126,1,87.5,2|0,1:2|0:0,0:0:0:0:
171,190,79056,2,0,P|174:236|171:278,1,87.5,2|8,1:2|0:0,0:0:0:0:
103,325,79525,6,0,L|12:342,1,87.5,0|2,0:0|1:2,0:0:0:0:
253,268,79994,2,0,L|340:281,1,87.5,0|8,0:0|0:0,0:0:0:0:
467,365,80463,1,2,1:2:0:0:
495,289,80697,1,8,0:0:0:0:
467,365,80931,1,8,0:0:0:0:
387,272,81166,1,10,0:0:0:0:
467,365,81400,1,8,0:0:0:0:
490,207,81635,5,4,1:1:0:0:
417,248,81869,1,2,0:0:0:0:
335,191,82103,1,10,0:0:0:0:
257,254,82338,2,0,P|186:246|114:254,1,140,2|0,1:2|1:0,0:0:0:0:
31,279,83041,1,8,0:0:0:0:
13,144,83275,5,2,0:0:0:0:
13,144,83392,1,2,0:0:0:0:
13,144,83510,1,2,1:2:0:0:
92,173,83744,1,0,0:0:0:0:
161,125,83978,1,10,0:0:0:0:
240,118,84213,2,0,P|302:111|379:119,1,140,2|0,1:2|1:0,0:0:0:0:
454,144,84916,1,8,0:0:0:0:
300,238,85150,5,2,0:0:0:0:
300,238,85267,1,2,0:0:0:0:
300,238,85385,1,2,1:2:0:0:
185,199,85619,1,2,0:0:0:0:
211,331,85853,1,10,0:0:0:0:
299,318,86088,2,0,L|368:326,1,70,2|0,1:2|0:0,0:0:0:0:
368,326,86556,1,2,1:2:0:0:
450,341,86791,1,2,1:2:0:0:
133,268,87260,6,0,P|171:263|202:265,3,52.5000020027161,4|0|0|0,1:2|0:0|0:0|0:0,0:0:0:0:
142,346,88197,6,0,P|104:351|73:349,3,70,4|0|0|0,1:2|0:0|0:0|0:0,0:0:0:0:
39,265,89135,6,0,P|52:195|22:105,1,140,4|8,1:1|0:0,0:0:0:0:
36,129,89838,1,2,1:2:0:0:
39,265,90072,1,0,0:0:0:0:
97,176,90306,1,2,1:2:0:0:
39,265,90541,1,10,0:0:0:0:
36,129,90775,1,2,0:0:0:0:
39,265,91010,5,2,1:2:0:0:
115,255,91244,1,0,0:0:0:0:
180,322,91478,1,8,0:0:0:0:
290,343,91713,2,0,L|429:334,1,140,0|2,1:0|1:2,0:0:0:0:
430,334,92416,1,10,0:0:0:0:
290,343,92650,1,2,0:0:0:0:
203,296,92885,6,0,P|213:227|202:158,1,140,2|8,1:2|0:0,0:0:0:0:
89,42,93588,2,0,P|75:110|82:180,1,140,2|2,1:2|1:2,0:0:0:0:
129,368,94291,2,0,P|129:330|131:296,1,70,8|0,0:0|0:0,0:0:0:0:
209,308,94760,6,0,P|275:301|356:314,1,140,2|8,1:2|0:0,0:0:0:0:
411,242,95463,1,0,1:0:0:0:
411,242,95697,2,0,P|447:245|484:249,1,70,2|0,0:0|1:0,0:0:0:0:
250,361,96166,2,0,P|254:326|257:291,1,70,10|4,0:0|0:0,0:0:0:0:
39,310,96635,6,0,P|29:250|38:168,1,140,2|8,1:2|0:0,0:0:0:0:
123,275,97338,2,0,P|123:240|120:205,1,70,2|0,1:2|0:0,0:0:0:0:
184,358,97806,2,0,P|140:355|98:361,1,70,2|8,1:2|0:0,0:0:0:0:
218,282,98275,1,0,0:0:0:0:
275,339,98510,6,0,P|347:330|416:340,1,140,2|8,1:2|0:0,0:0:0:0:
512,266,99213,2,0,P|473:269|430:266,1,70,2|0,1:2|0:0,0:0:0:0:
360,249,99681,2,0,P|362:214|361:180,1,70,2|8,1:2|0:0,0:0:0:0:
455,190,100150,1,2,0:0:0:0:
484,106,100385,6,0,P|414:97|338:104,1,140,2|8,1:2|0:0,0:0:0:0:
260,107,101088,1,0,1:0:0:0:
260,107,101322,2,0,P|261:72|257:38,1,70,2|0,0:0|1:0,0:0:0:0:
313,186,101791,2,0,P|347:190|383:189,1,70,10|0,0:0|0:0,0:0:0:0:
202,215,102260,6,0,L|128:209,2,70,2|0|8,1:2|0:0|0:0,0:0:0:0:
202,215,102963,1,2,1:2:0:0:
277,111,103197,1,2,0:0:0:0:
330,203,103431,1,2,1:2:0:0:
277,111,103666,1,10,0:0:0:0:
202,215,103900,1,2,0:0:0:0:
110,43,104135,6,0,P|55:48|5:43,1,105.000004005432,4|8,1:1|0:0,0:0:0:0:
0,246,104838,2,0,P|6:190|-2:137,1,105.000004005432,2|0,0:0|0:0,0:0:0:0:
174,109,105541,1,8,0:0:0:0:
250,139,105775,1,0,0:0:0:0:
322,103,106010,5,2,0:0:0:0:
396,102,106244,1,2,0:0:0:0:
459,142,106478,1,10,0:0:0:0:
485,210,106713,1,2,0:0:0:0:
266,337,107181,1,2,0:0:0:0:
248,268,107415,1,8,0:0:0:0:
197,319,107650,1,0,0:0:0:0:
372,346,107885,6,0,P|367:296|371:233,1,105.000004005432,2|8,0:0|0:0,0:0:0:0:
303,115,108588,2,0,P|247:111|194:116,1,105.000004005432,2|2,0:0|0:0,0:0:0:0:
136,313,109291,2,0,P|137:281|134:247,1,52.5000020027161,8|0,0:0|0:0,0:0:0:0:
121,184,109760,6,0,P|115:130|120:76,1,105.000004005432,2|10,0:0|0:0,0:0:0:0:
294,229,110463,2,0,P|298:282|295:341,1,105.000004005432,6|8,0:0|1:2,0:0:0:0:
212,181,111166,1,8,1:2:0:0:
190,104,111635,6,0,P|264:112|330:101,1,140,4|8,1:1|0:0,0:0:0:0:
342,193,112338,1,2,1:2:0:0:
415,165,112572,1,0,0:0:0:0:
312,273,112806,1,0,1:0:0:0:
429,309,113041,1,10,0:0:0:0:
312,273,113275,1,2,0:0:0:0:
245,224,113510,6,0,P|182:215|100:226,1,140,2|8,1:2|0:0,0:0:0:0:
332,186,114213,1,0,1:0:0:0:
391,256,114447,1,0,0:0:0:0:
312,273,114681,1,2,1:2:0:0:
312,273,114799,1,2,0:0:0:0:
312,273,114916,1,10,0:0:0:0:
270,342,115150,1,2,0:0:0:0:
350,342,115385,6,0,P|417:351|495:342,1,140,2|8,1:2|0:0,0:0:0:0:
493,255,116088,1,2,1:2:0:0:
498,166,116322,1,0,0:0:0:0:
348,109,116556,1,2,1:2:0:0:
343,194,116790,1,10,0:0:0:0:
421,180,117025,1,2,0:0:0:0:
269,116,117260,6,0,P|214:113|191:102,1,70,2|0,1:2|0:0,0:0:0:0:
175,75,117728,2,0,P|230:78|253:89,1,70,8|4,0:0|0:0,0:0:0:0:
295,160,118197,1,10,1:2:0:0:
174,186,118431,1,8,1:2:0:0:
148,65,118666,1,8,1:2:0:0:
269,39,118900,1,8,1:2:0:0:
222,113,119135,5,4,1:1:0:0:
0,35,119838,1,2,1:2:0:0:
83,201,120306,1,2,1:2:0:0:
86,127,120541,1,10,0:0:0:0:
21,161,120775,1,2,0:0:0:0:
18,235,121010,5,2,1:2:0:0:
83,277,121244,1,0,0:0:0:0:
152,245,121478,1,0,0:0:0:0:
220,279,121713,2,0,P|261:273|331:281,1,105.000004005432,2|2,1:2|1:2,0:0:0:0:
399,263,122416,2,0,P|403:292|402:321,1,52.5000020027161,10|0,0:0|0:0,0:0:0:0:
496,226,122885,5,2,1:2:0:0:
459,162,123119,1,0,0:0:0:0:
488,95,123353,1,0,0:0:0:0:
488,95,123588,2,0,P|419:86|377:94,1,105.000004005432,2|2,1:2|1:2,0:0:0:0:
376,169,124291,2,0,P|377:199|375:223,1,52.5000020027161,8|0,0:0|0:0,0:0:0:0:
316,118,124760,5,2,1:2:0:0:
248,138,124994,1,2,0:0:0:0:
228,71,125228,1,2,0:0:0:0:
297,51,125463,2,0,L|328:40,1,26.2500010013581,2|0,1:2|1:0,0:0:0:0:
401,67,125697,1,0,1:0:0:0:
401,67,125814,1,0,0:0:0:0:
401,67,125931,2,0,L|444:73,1,26.2500010013581,2|0,0:0|1:0,0:0:0:0:
483,123,126166,1,0,0:0:0:0:
498,197,126400,2,0,L|492:224,3,17.500000667572,2|2|2|2,1:2|0:0|0:0|1:2,0:0:0:0:
429,357,126869,6,0,P|403:358|375:360,1,52.5000020027161
305,333,127338,2,0,P|296:288|302:227,1,105.000004005432,2|0,1:2|1:0,0:0:0:0:
346,158,128041,1,8,0:0:0:0:
425,128,128275,1,2,0:0:0:0:
498,211,128510,5,2,1:2:0:0:
424,233,128744,1,0,0:0:0:0:
392,303,128978,1,0,0:0:0:0:
329,344,129213,2,0,P|283:350|222:345,1,105.000004005432,2|2,1:2|1:2,0:0:0:0:
236,267,129916,2,0,P|192:271|174:269,1,52.5000020027161,10|0,0:0|0:0,0:0:0:0:
117,227,130385,6,0,P|114:167|48:123,1,140,0|8,1:0|0:0,0:0:0:0:
125,30,131088,2,0,P|68:69|0:69,1,140,0|0,1:0|1:0,0:0:0:0:
81,211,131791,2,0,P|41:207|5:210,1,70,8|0,0:0|0:0,0:0:0:0:
209,259,132260,6,0,P|214:302|213:335,1,70,0|0,1:0|0:0,0:0:0:0:
67,311,132728,2,0,P|63:348|64:380,1,70,8|0,0:0|0:0,0:0:0:0:
303,153,133197,2,0,P|306:192|305:226,1,70,0|0,1:0|1:0,0:0:0:0:
33,103,133666,2,0,P|28:151|28:174,1,70,8|0,0:0|0:0,0:0:0:0:
200,34,134135,5,0,1:0:0:0:
177,138,134369,1,0,0:0:0:0:
385,184,134603,1,0,1:0:0:0:
408,80,134838,1,0,1:0:0:0:
408,80,134955,1,0,1:0:0:0:
408,80,135072,1,0,1:0:0:0:
466,344,135541,6,0,P|434:352|392:356,1,70,0|0,1:0|0:0,0:0:0:0:
294,341,136010,5,4,1:1:0:0:
357,182,136244,1,0,0:0:0:0:
512,259,136478,1,8,0:0:0:0:
340,270,136713,2,0,P|397:264|435:262,1,87.5,2|0,1:2|0:0,0:0:0:0:
233,64,137181,2,0,P|290:68|359:67,1,87.5,0|8,1:0|0:0,0:0:0:0:
88,287,137650,6,0,P|138:280|187:284,2,87.5,2|2|0,0:0|1:2|0:0,0:0:0:0:
128,178,138353,1,8,0:0:0:0:
40,106,138588,2,0,P|74:66|224:71,1,175,2|4,1:2|1:2,0:0:0:0:
315,138,139291,2,0,P|260:147|223:140,1,87.5,10|0,0:0|0:0,0:0:0:0:
416,304,139760,5,2,1:2:0:0:
291,240,139994,1,0,0:0:0:0:
217,351,140228,1,8,0:0:0:0:
87,249,140463,2,0,P|25:254|-2:253,1,87.5,2|0,1:2|0:0,0:0:0:0:
93,169,140931,1,0,1:0:0:0:
175,251,141166,1,8,0:0:0:0:
257,174,141400,1,2,0:0:0:0:
179,100,141635,6,0,P|180:55|174:5,1,87.5,2|0,1:2|0:0,0:0:0:0:
336,189,142103,1,8,0:0:0:0:
379,124,142338,2,0,P|376:78|377:35,1,87.5,2|2,1:2|0:0,0:0:0:0:
376,36,142689,1,2,0:0:0:0:
376,36,142806,1,2,1:2:0:0:
276,32,143041,1,10,0:0:0:0:
280,134,143275,1,4,0:0:0:0:
128,193,143510,5,2,1:2:0:0:
270,234,143744,1,0,0:0:0:0:
156,350,143978,1,8,0:0:0:0:
94,276,144213,2,0,P|48:268|5:262,1,87.5,2|0,1:2|0:0,0:0:0:0:
179,270,144681,2,0,P|227:275|266:282,1,87.5,0|10,1:0|0:0,0:0:0:0:
478,348,145150,6,0,P|430:357|388:349,1,90.9999958343508,6|0,1:2|0:0,0:0:0:0:
119,192,145619,2,0,P|57:187|14:194,1,94.5000003604889,6|0,1:2|0:0,0:0:0:0:
479,34,146088,2,0,P|400:38|282:34,1,195.999994018555,6|0,1:2|1:0,0:0:0:0:
206,188,146791,5,8,0:0:0:0:
286,135,147025,2,0,P|335:140|387:137,2,87.5,2|2|0,0:0|1:2|0:0,0:0:0:0:
264,259,147728,1,8,0:0:0:0:
195,320,147963,2,0,P|100:323|54:255,1,175,2|0,1:2|1:0,0:0:0:0:
181,231,148666,1,8,0:0:0:0:
40,153,148900,2,0,P|100:157|138:154,1,87.5,0|2,0:0|1:2,0:0:0:0:
324,194,149369,5,0,0:0:0:0:
403,65,149603,1,8,0:0:0:0:
432,278,149838,2,0,P|443:182|374:138,1,175,2|0,1:2|1:0,0:0:0:0:
267,281,150541,1,10,0:0:0:0:
350,345,150775,1,8,0:0:0:0:
144,177,151010,6,0,P|160:263|150:350,1,175,2|8,1:2|0:0,0:0:0:0:
99,106,151713,2,0,P|58:95|18:71,1,87.5,2|0,1:2|0:0,0:0:0:0:
185,102,152181,2,0,L|272:121,1,87.5,2|8,1:2|0:0,0:0:0:0:
349,164,152650,6,0,P|355:211|353:252,1,87.5,0|2,0:0|1:2,0:0:0:0:
479,38,153119,2,0,P|477:79|481:126,1,87.5,0|8,0:0|0:0,0:0:0:0:
327,56,153588,1,2,1:2:0:0:
401,97,153822,1,8,0:0:0:0:
270,120,154056,1,8,0:0:0:0:
401,97,154291,1,10,0:0:0:0:
228,49,154525,1,8,0:0:0:0:
112,170,154760,5,4,1:1:0:0:
189,145,154994,1,2,0:0:0:0:
112,170,155228,1,10,0:0:0:0:
206,254,155463,2,0,P|149:245|56:254,1,140,2|2,1:2|1:2,0:0:0:0:
256,193,156166,2,0,P|299:196|329:192,1,70,8|2,0:0|0:0,0:0:0:0:
395,140,156635,1,2,1:2:0:0:
450,304,156869,5,2,0:0:0:0:
412,228,157103,1,10,0:0:0:0:
359,300,157338,2,0,P|296:307|203:299,1,140,2|0,1:2|1:0,0:0:0:0:
150,345,158041,2,0,P|115:342|81:343,1,70,10|4,0:0|0:0,0:0:0:0:
116,170,158510,5,2,1:2:0:0:
164,234,158744,1,2,0:0:0:0:
116,170,158978,1,10,0:0:0:0:
198,159,159213,2,0,P|189:104|199:18,1,140,2|2,1:2|1:2,0:0:0:0:
278,135,159916,2,0,P|313:133|347:135,1,70,10|2,0:0|0:0,0:0:0:0:
316,38,160385,1,2,1:2:0:0:
217,55,160619,6,0,P|181:57|145:55,1,70,2|10,0:0|0:0,0:0:0:0:
36,100,161088,1,6,1:2:0:0:
118,135,161322,1,4,1:2:0:0:
472,345,161791,1,4,1:1:0:0:
119,135,162260,5,2,1:2:0:0:
58,195,162494,1,2,0:0:0:0:
119,135,162728,1,10,0:0:0:0:
148,223,162963,2,0,P|215:231|247:312,1,140,2|2,1:2|1:2,0:0:0:0:
203,358,163666,1,10,0:0:0:0:
34,348,163900,6,0,P|79:354|125:347,1,90.9999958343508,6|0,1:2|0:0,0:0:0:0:
394,190,164369,2,0,P|445:187|499:192,1,94.5000003604889,6|0,1:2|0:0,0:0:0:0:
35,35,164838,2,0,P|132:41|235:34,1,195.999994018555,6|0,1:2|1:0,0:0:0:0:
296,122,165541,6,0,P|298:160|296:197,1,70,10|0,0:0|0:0,0:0:0:0:
458,101,166010,2,0,P|428:55|342:35,1,140,2|8,1:2|0:0,0:0:0:0:
500,182,166713,2,0,P|463:239|395:249,1,140,2|0,1:2|1:0,0:0:0:0:
171,342,167416,6,0,P|175:300|173:271,1,70,10|0,0:0|0:0,0:0:0:0:
265,312,167885,2,0,P|313:352|397:336,1,140,2|8,1:2|0:0,0:0:0:0:
197,194,168588,2,0,P|142:249|66:243,1,140,2|0,1:2|1:0,0:0:0:0:
52,47,169291,5,10,0:0:0:0:
101,116,169525,1,6,0:0:0:0:
181,79,169760,2,0,P|229:43|320:60,1,140,2|10,1:2|0:0,0:0:0:0:
162,213,170463,2,0,P|91:165|26:183,1,140,2|2,1:2|1:2,0:0:0:0:
261,188,171166,5,10,0:0:0:0:
283,272,171400,1,2,0:0:0:0:
261,188,171635,1,2,1:2:0:0:
208,317,171869,1,2,0:0:0:0:
351,332,172103,1,10,0:0:0:0:
404,203,172338,2,0,P|352:155|351:81,1,140,2|2,1:2|1:2,0:0:0:0:
480,245,173041,1,10,0:0:0:0:
441,317,173275,1,2,0:0:0:0:
287,271,173510,6,0,L|294:202,1,70,0|0,1:0|0:0,0:0:0:0:
363,363,173978,1,0,1:0:0:0:
363,363,174095,1,0,1:0:0:0:
363,363,174213,1,0,1:0:0:0:
363,363,174330,1,0,1:0:0:0:
363,363,174447,2,0,P|327:362|283:358,1,70,0|0,1:0|1:0,0:0:0:0:
148,309,174916,2,0,P|184:310|228:314,1,70,0|0,1:0|1:0,0:0:0:0:
217,312,175267,1,0,1:0:0:0:
217,312,175385,5,0,1:0:0:0:
106,162,175619,1,0,1:0:0:0:
366,201,175853,1,0,1:0:0:0:
255,52,176087,1,0,1:0:0:0:
255,52,176205,1,0,1:0:0:0:
255,52,176322,1,0,1:0:0:0:
97,343,176791,6,0,P|61:347|37:348,1,52.5000020027161,2|2,0:0|0:0,0:0:0:0:
0,235,177260,2,0,P|48:263|107:267,1,105.000004005432,2|0,0:0|0:0,0:0:0:0:
11,158,177963,2,0,P|7:131|5:102,1,52.5000020027161,2|0,0:0|0:0,0:0:0:0:
141,53,178431,2,0,P|116:70|85:136,1,105.000004005432,2|0,0:0|0:0,0:0:0:0:
215,61,179135,6,0,P|241:62|321:41,1,105.000004005432,2|0,0:0|0:0,0:0:0:0:
224,136,179838,2,0,P|174:164|136:200,1,105.000004005432,2|0,0:0|0:0,0:0:0:0:
80,243,180541,2,0,P|56:219|33:205,1,52.5000020027161,2|0,0:0|0:0,0:0:0:0:
36,304,181010,6,0,P|76:331|130:353,1,105.000004005432,2|2,0:0|0:0,0:0:0:0:
204,348,181713,2,0,P|245:351|262:354,1,52.5000020027161,2|0,0:0|0:0,0:0:0:0:
171,279,182181,2,0,P|168:246|162:215,1,52.5000020027161,2|0,0:0|0:0,0:0:0:0:
251,274,182650,2,0,P|325:294|361:311,1,105.000004005432,2|2,0:0|0:0,0:0:0:0:
239,200,183353,1,2,0:0:0:0:
239,200,183588,1,2,0:0:0:0:
248,122,183822,5,2,0:0:0:0:
512,91,184291,2,0,P|480:90|455:91,1,52.5000020027161,2|0,1:2|0:0,0:0:0:0:
398,34,184760,6,0,P|373:91|316:116,1,119.000002269745,2|2,0:0|1:2,0:0:0:0:
398,167,185463,2,0,P|436:165|461:165,1,59.5000011348725,2|0,0:0|0:0,0:0:0:0:
404,312,185931,2,0,P|366:311|338:312,1,59.5000011348725,2|0,0:0|1:0,0:0:0:0:
270,358,186400,6,0,P|266:321|267:279,1,59.5000011348725,2|0,0:0|0:0,0:0:0:0:
404,240,186869,2,0,P|448:240|467:239,1,59.5000011348725,2|0,0:0|1:0,0:0:0:0:
334,208,187338,2,0,P|290:253|231:266,1,119.000002269745,2|2,0:0|0:0,0:0:0:0:
182,321,188041,2,0,P|142:320|112:322,1,59.5000011348725,2|0,1:2|0:0,0:0:0:0:
158,133,188510,6,0,P|100:111|34:120,1,119.000002269745,2|0,0:0|1:0,0:0:0:0:
288,151,189213,2,0,P|277:93|298:18,1,119.000002269745,2|2,0:0|0:0,0:0:0:0:
476,37,189916,1,0,1:0:0:0:
512,102,190150,1,0,0:0:0:0:
362,235,190385,6,0,P|399:241|431:240,1,70,0|0,1:0|0:0,0:0:0:0:
67,311,190853,2,0,P|63:348|64:380,1,70,0|0,1:0|0:0,0:0:0:0:
204,298,191322,2,0,P|250:303|279:304,1,70,0|0,1:0|0:0,0:0:0:0:
33,103,191791,2,0,P|28:151|28:174,1,70,0|0,1:0|0:0,0:0:0:0:
242,36,192260,5,8,1:2:0:0:
275,228,192494,1,8,1:2:0:0:
458,235,192728,1,8,1:2:0:0:
425,43,192963,1,8,1:2:0:0:
425,43,193080,1,8,1:2:0:0:
425,43,193197,1,8,1:2:0:0:
103,39,193666,6,0,P|53:51|24:54,1,70,4|0,0:0|0:0,0:0:0:0:
222,234,194135,5,4,1:1:0:0:
110,123,194369,1,0,0:0:0:0:
286,38,194603,1,8,0:0:0:0:
388,156,194838,2,0,P|389:105|392:62,1,87.5,2|0,1:2|0:0,0:0:0:0:
127,248,195306,2,0,P|129:199|125:151,1,87.5,0|8,1:0|0:0,0:0:0:0:
461,316,195775,6,0,P|453:261|457:217,2,87.5,2|2|0,0:0|1:2|0:0,0:0:0:0:
342,351,196478,1,10,0:0:0:0:
277,251,196713,2,0,P|210:266|131:189,1,175,2|4,1:2|1:2,0:0:0:0:
114,315,197416,2,0,P|56:334|31:348,1,87.5,10|0,0:0|0:0,0:0:0:0:
247,171,197885,5,2,1:2:0:0:
342,63,198119,1,0,0:0:0:0:
221,36,198353,1,8,0:0:0:0:
113,144,198588,2,0,P|116:96|114:51,1,87.5,2|0,1:2|0:0,0:0:0:0:
339,171,199056,1,0,1:0:0:0:
258,99,199291,1,8,0:0:0:0:
168,206,199525,1,2,0:0:0:0:
241,281,199760,6,0,P|296:277|336:282,1,87.5,2|0,1:2|0:0,0:0:0:0:
255,189,200228,1,8,0:0:0:0:
154,345,200463,2,0,P|110:340|66:344,1,87.5,2|2,1:2|0:0,0:0:0:0:
67,345,200814,1,2,0:0:0:0:
67,345,200931,1,2,1:2:0:0:
59,254,201166,1,10,0:0:0:0:
154,250,201400,1,0,0:0:0:0:
271,73,201635,5,2,1:2:0:0:
420,68,201869,1,0,0:0:0:0:
428,219,202103,1,8,0:0:0:0:
280,232,202338,2,0,P|275:178|275:136,1,87.5,2|0,1:2|0:0,0:0:0:0:
192,261,202806,2,0,P|196:296|197:349,1,87.5,0|10,1:0|0:0,0:0:0:0:
477,351,203275,6,0,P|483:305|475:254,1,90.9999958343508,6|0,1:2|0:0,0:0:0:0:
257,118,203744,2,0,P|253:66|257:23,1,94.5000003604889,6|0,1:2|0:0,0:0:0:0:
35,349,204213,2,0,P|40:236|26:112,1,195.999994018555,6|8,1:2|1:2,0:0:0:0:
343,191,204916,5,8,1:2:0:0:
426,154,205150,2,0,P|423:206|429:253,2,87.5,2|2|0,0:0|1:2|0:0,0:0:0:0:
407,365,205853,1,8,0:0:0:0:
485,330,206088,2,0,P|404:270|305:308,1,175,2|0,1:2|1:0,0:0:0:0:
289,36,206791,1,8,0:0:0:0:
217,167,207025,2,0,P|220:119|215:70,1,87.5,0|2,0:0|1:2,0:0:0:0:
334,164,207494,5,0,0:0:0:0:
250,292,207728,1,8,0:0:0:0:
136,213,207963,2,0,P|124:157|133:32,1,175,2|0,1:2|1:0,0:0:0:0:
313,141,208666,1,10,0:0:0:0:
260,235,208900,1,8,1:2:0:0:
412,331,209135,6,0,P|449:250|457:145,1,175,2|8,1:2|0:0,0:0:0:0:
327,346,209838,2,0,P|286:342|239:339,1,87.5,2|0,1:2|0:0,0:0:0:0:
352,262,210306,2,0,P|328:217|309:160,1,87.5,2|8,1:2|0:0,0:0:0:0:
347,102,210775,6,0,P|408:117|435:124,1,87.5,0|2,0:0|1:2,0:0:0:0:
249,251,211244,2,0,P|194:266|162:276,1,87.5,0|8,0:0|0:0,0:0:0:0:
52,348,211713,2,0,P|50:272|51:220,1,87.5,2|0,1:2|0:0,0:0:0:0:
91,171,212181,2,0,P|143:180|203:185,1,87.5,2|8,1:2|0:0,0:0:0:0:
248,133,212650,1,4,0:0:0:0:
265,327,212885,6,0,P|182:341|106:278,1,175,2|8,1:2|0:0,0:0:0:0:
349,350,213588,2,0,P|432:321|516:347,1,175,2|2,1:2|1:2,0:0:0:0:
512,344,214291,1,10,0:0:0:0:
496,208,214525,1,2,1:2:0:0:
480,72,214760,6,0,P|343:54|283:36,1,175,2|10,1:2|0:0,0:0:0:0:
271,165,215463,2,0,P|382:152|457:149,1,175,2|2,1:2|1:2,0:0:0:0:
238,90,216166,2,0,P|168:89|119:86,1,87.5,10|4,0:0|0:0,0:0:0:0:
161,346,216635,6,0,P|140:228|100:152,1,175,2|8,1:2|0:0,0:0:0:0:
242,345,217338,2,0,P|274:333|344:317,1,87.5,2|0,1:2|0:0,0:0:0:0:
374,252,217806,2,0,P|330:237|276:213,1,87.5,0|8,1:0|0:0,0:0:0:0:
424,193,218275,1,2,0:0:0:0:
479,314,218510,5,4,0:0:0:0:
43,245,219447,1,4,0:0:0:0:
412,168,220385,2,0,P|327:165|234:152,1,157.500006008148,2|6,0:0|0:0,0:0:0:0:
177,182,221556,1,2,0:0:0:0:
177,182,221674,1,2,0:0:0:0:
177,182,221791,2,0,P|171:115|169:63,1,105.000004005432,2|6,0:0|0:0,0:0:0:0:
462,343,223666,6,0,P|468:300|468:268,1,52.5000020027161,2|2,0:0|0:0,0:0:0:0:
422,223,224135,2,0,P|385:214|361:207,1,52.5000020027161,2|2,0:0|0:0,0:0:0:0:
490,174,224603,1,2,0:0:0:0:
442,108,224838,2,0,P|356:110|316:116,1,105.000004005432,2|2,0:0|0:0,0:0:0:0:
104,238,225775,5,2,0:0:0:0:
104,238,226010,2,0,P|101:188|101:162,1,52.5000020027161,2|0,0:0|0:0,0:0:0:0:
34,131,226478,1,2,0:0:0:0:
96,70,226713,2,0,P|138:66|224:64,1,105.000004005432,2|2,0:0|0:0,0:0:0:0:
285,34,227416,1,2,0:0:0:0:
351,98,227650,2,0,P|346:170|348:222,1,105.000004005432,2|0,0:0|0:0,0:0:0:0:
397,271,228353,5,2,0:0:0:0:
271,223,228588,1,2,0:0:0:0:
309,348,228822,1,2,0:0:0:0:
374,264,229056,1,2,0:0:0:0:
295,252,229291,1,2,0:0:0:0:
323,328,229525,1,2,0:0:0:0:
330,283,229760,5,2,0:0:0:0:
405,95,230697,1,2,0:0:0:0:
471,218,231635,2,0,L|488:233,2,13.125000500679,2|2|2,0:0|0:0|0:0,0:0:0:0:
256,192,231869,12,2,234974,0:0:0:0:
