osu file format v14

[General]
AudioFilename: audio.mp3
AudioLeadIn: 0
PreviewTime: 36814
Countdown: 0
SampleSet: Soft
StackLeniency: 0.7
Mode: 0
LetterboxInBreaks: 0
WidescreenStoryboard: 1

[Editor]
Bookmarks: 58873,88079,89694
DistanceSpacing: 0.8
BeatDivisor: 4
GridSize: 32
TimelineZoom: 1.4

[Metadata]
Title:Hajimari no Sokudo (TV Size)
TitleUnicode:はじまりの速度 (TV Size)
Artist:Sangatsu no Phantasia
ArtistUnicode:三月のパンタシア
Creator:SupaV
Version:lushifer's Insane
Source:キズナイーバー
Tags:kiznaiver j-pop jpop anime ending ed -_afifakilie_- afifakilie fluffy hair inyuschan lushifer nyukai nyu-chan unranked_mapper unranked mapper uta waifuiscute wenect wenet japanese pop j-rock jrock rock
BeatmapID:3424102
BeatmapSetID:1531850

[Difficulty]
HPDrainRate:4.8
CircleSize:4.2
OverallDifficulty:7
ApproachRate:8.5
SliderMultiplier:1.68
SliderTickRate:1

[Events]
//Background and Video events
0,0,"wallpaper.jpg",0,0
Video,380,"hajimari.m4v"
//Break Periods
2,79814,81410
//Storyboard Layer 0 (Background)
//Storyboard Layer 1 (Fail)
//Storyboard Layer 2 (Pass)
//Storyboard Layer 3 (Foreground)
//Storyboard Layer 4 (Overlay)
//Storyboard Sound Samples

[TimingPoints]
564,352.941176470588,4,2,1,40,1,0
564,-133.333333333333,4,2,1,40,0,0
10093,333.333333333333,4,2,1,40,1,0
10093,-133.333333333333,4,2,1,40,0,0
10426,361.44578313253,4,2,1,40,1,0
10426,-166.666666666667,4,2,1,40,0,0
10787,326.086956521739,4,2,1,40,1,0
11113,394.736842105263,4,2,1,40,1,0
11113,-166.666666666667,4,2,1,40,0,0
11844,-125,4,2,1,40,0,0
11850,352.941176470588,4,2,1,50,1,0
12202,-125,4,2,4,50,0,0
16438,-117.647058823529,4,2,4,50,0,0
17320,-117.647058823529,4,2,1,50,0,0
17849,-117.647058823529,4,2,4,50,0,0
18908,-111.111111111111,4,2,4,50,0,0
19614,-111.111111111111,4,2,1,50,0,0
20320,-111.111111111111,4,2,1,60,0,0
24555,-100,4,2,1,60,0,0
25085,-100,4,2,2,60,0,0
25614,-100,4,2,1,60,0,0
28085,-133.333333333333,4,2,1,60,0,0
29143,-133.333333333333,4,2,2,60,0,0
30908,-125,4,2,2,60,0,0
31614,-113.636363636364,4,2,1,60,0,0
34085,-113.636363636364,4,2,3,60,0,0
34438,-95.2380952380952,4,2,1,60,0,0
34614,-95.2380952380952,4,2,1,45,0,0
34790,-95.2380952380952,4,2,1,50,0,0
34967,-95.2380952380952,4,2,1,55,0,0
35143,-95.2380952380952,4,2,1,60,0,0
35320,-95.2380952380952,4,2,1,65,0,0
35496,-95.2380952380952,4,2,1,70,0,0
35937,-95.2380952380952,4,2,1,60,0,0
36202,-95.2380952380952,4,2,1,70,0,0
36290,-95.2380952380952,4,2,1,60,0,0
36555,-95.2380952380952,4,2,1,70,0,0
36732,-95.2380952380952,4,2,1,60,0,0
36908,-95.2380952380952,4,2,1,70,0,0
36996,-95.2380952380952,4,2,1,60,0,0
37261,-90.9090909090909,4,2,2,70,0,1
37437,-90.9090909090909,4,2,1,70,0,1
47144,-90.9090909090909,4,2,1,70,0,1
47849,-90.9090909090909,4,2,2,70,0,1
47937,-90.9090909090909,4,2,1,60,0,1
48202,-90.9090909090909,4,2,1,70,0,1
48290,-90.9090909090909,4,2,1,60,0,1
48555,-90.9090909090909,4,2,1,70,0,0
54114,-86.9565217391304,4,2,1,70,0,0
59143,-86.9565217391304,4,2,2,70,0,0
59232,-86.9565217391304,4,2,1,60,0,0
59496,-86.9565217391304,4,2,1,70,0,0
59585,-86.9565217391304,4,2,1,60,0,0
59849,-90.9090909090909,4,2,1,70,0,1
69732,-90.9090909090909,4,2,2,70,0,1
69908,-90.9090909090909,4,2,1,70,0,1
70438,-90.9090909090909,4,2,1,60,0,0
70614,-90.9090909090909,4,2,1,55,0,0
70790,-90.9090909090909,4,2,1,50,0,0
70967,-90.9090909090909,4,2,1,45,0,0
71144,-111.111111111111,4,2,1,60,0,0
75379,-95.2380952380952,4,2,1,70,0,0
75908,-95.2380952380952,4,2,3,70,0,0
76791,-117.647058823529,4,2,1,60,0,0
77143,-117.647058823529,4,2,2,60,0,0
79614,-117.647058823529,4,2,1,50,0,0
82085,337.078651685393,4,2,1,60,1,0
82085,-100,4,2,1,60,0,0
82432,352.941176470588,4,2,1,60,1,0
85255,-100,4,2,1,60,0,0
86490,-100,4,2,1,60,0,0
87196,-76.9230769230769,4,2,1,60,0,0
87549,-76.9230769230769,4,2,1,60,0,0
88078,-285.714285714286,4,2,1,60,0,0
89490,-285.714285714286,4,2,1,5,0,0

[Colours]
Combo1 : 255,131,121
Combo2 : 251,29,4
Combo3 : 178,205,250
Combo4 : 102,129,184

[HitObjects]
69,319,564,54,0,P|75:275|81:240,1,63.0000024032594
156,184,916,2,0,P|187:179|218:174,1,63.0000024032594,0|2,0:0|0:0,0:0:0:0:
311,195,1269,2,0,P|364:173|371:130,2,94.500003604889,2|2|2,0:0|0:0|0:0,0:0:0:0:
480,160,1975,2,0,P|435:125|366:149,1,126.000004806519,2|2,0:0|0:0,0:0:0:0:
347,268,2505,2,0,P|354:308|357:338,1,63.0000024032594,2|0,0:0|0:0,0:0:0:0:
494,299,2858,6,0,P|497:267|503:236,1,63.0000024032594,2|0,0:0|0:0,0:0:0:0:
448,128,3211,1,2,0:0:0:0:
448,128,3387,2,0,P|408:121|387:99,1,63.0000024032594
299,14,3740,2,0,P|309:51|315:81,1,63.0000024032594
216,174,4093,1,0,0:0:0:0:
216,174,4269,6,0,P|226:137|232:107,1,63.0000024032594,2|2,0:0|0:0,0:0:0:0:
64,64,4622,1,2,0:0:0:0:
64,64,4798,2,0,P|83:136|95:195,1,126.000004806519
52,323,5505,6,0,P|95:309|113:280,1,63.0000024032594,2|0,0:0|0:0,0:0:0:0:
192,288,5858,2,0,P|229:298|259:304,1,63.0000024032594,2|0,0:0|0:0,0:0:0:0:
320,256,6211,2,0,P|332:216|366:130,1,126.000004806519
216,0,6740,6,0,P|227:29|237:59,1,63.0000024032594,2|2,0:0|0:0,0:0:0:0:
348,42,7093,2,0,P|361:89|453:102,1,126.000004806519,2|2,0:0|0:0,0:0:0:0:
512,96,7622,2,0,P|448:115|386:139,1,126.000004806519,2|2,0:0|0:0,0:0:0:0:
256,128,8152,2,0,P|238:93|240:54,1,63.0000024032594,2|0,0:0|0:0,0:0:0:0:
200,243,8505,2,0,P|165:230|130:219,1,63.0000024032594,2|0,0:0|0:0,0:0:0:0:
9,229,8858,5,2,0:0:0:0:
9,229,9034,2,0,P|52:212|54:129,1,126.000004806519,2|0,0:0|0:0,0:0:0:0:
0,50,9563,1,2,0:0:0:0:
0,50,9740,2,0,P|42:92|100:75,1,126.000004806519,2|0,0:0|0:0,0:0:0:0:
100,75,10426,6,0,P|144:65|206:59,1,100.799996923828,2|2,0:0|0:0,0:0:0:0:
320,192,11113,2,0,P|276:202|214:208,1,100.799996923828,2|6,0:0|0:0,0:0:0:0:
220,207,11850,1,4,0:0:0:0:
352,96,12202,6,0,P|385:91|417:83,1,67.2,2|0,3:2|0:0,0:0:0:0:
512,192,12555,2,0,P|479:183|446:179,1,67.2,2|0,3:2|0:0,0:0:0:0:
372,265,12908,2,0,P|384:331|420:334,1,100.8,2|0,3:2|0:0,0:0:0:0:
431,339,13261,2,0,P|352:346|282:376,1,134.4,0|0,3:0|3:0,0:0:0:0:
300,365,13791,5,2,0:0:0:0:
240,256,13967,1,2,3:2:0:0:
281,191,14232,2,0,P|330:189|355:236,1,100.8,2|2,0:0|0:0,0:0:0:0:
270,354,14673,2,0,P|241:348|182:347,2,67.2,2|2|2,3:2|0:0|3:2,0:0:0:0:
70,299,15202,6,0,L|52:212,1,67.2,2|0,0:0|3:0,0:0:0:0:
131,218,15555,1,2,0:0:0:0:
131,218,15732,2,0,L|144:283,1,67.2,2|0,3:2|0:0,0:0:0:0:
239,92,16085,6,0,P|204:96|173:105,1,67.2,0|0,3:0|0:0,0:0:0:0:
352,32,16438,2,0,P|384:41|421:43,1,71.4000013618469,0|0,3:0|0:0,0:0:0:0:
503,111,16791,6,0,P|492:172|416:189,1,142.800002723694,2|2,3:2|3:2,0:0:0:0:
406,170,17320,2,0,P|331:160|257:155,1,142.800002723694,2|2,0:0|0:0,0:0:0:0:
261,177,17849,1,2,3:2:0:0:
261,177,18202,1,0,3:0:0:0:
261,177,18555,1,2,3:2:0:0:
261,177,18908,2,0,B|204:190|204:190|188:227|188:227|113:245,1,151.199995385742,2|6,3:2|3:2,0:0:0:0:
0,341,19614,5,8,0:0:0:0:
26,331,19702,1,8,0:0:0:0:
54,326,19790,1,10,0:0:0:0:
82,325,19878,1,8,0:0:0:0:
111,328,19967,2,0,P|132:336|159:340,3,37.7999988464356,8|8|10|8,1:2|0:0|0:0|0:0,0:0:0:0:
83,252,20320,6,0,P|74:176|62:90,1,151.199995385742,4|10,1:2|0:0,0:0:0:0:
128,46,20849,1,0,1:0:0:0:
128,46,20938,1,8,0:0:0:0:
128,46,21026,2,0,P|167:55|217:35,1,75.5999976928712,0|0,1:0|1:0,0:0:0:0:
288,128,21379,2,0,L|272:202,1,75.5999976928712,10|0,0:0|0:0,0:0:0:0:
341,308,21732,6,0,P|380:314|415:323,1,75.5999976928712,2|0,1:2|1:0,0:0:0:0:
512,224,22085,2,0,P|506:186|496:150,1,75.5999976928712,10|0,0:0|1:0,0:0:0:0:
384,109,22438,1,2,1:2:0:0:
341,308,22614,1,8,0:0:0:0:
256,224,22791,5,10,1:2:0:0:
232,208,22879,1,8,0:0:0:0:
205,200,22967,1,8,0:0:0:0:
176,200,23055,1,8,0:0:0:0:
149,207,23144,2,0,P|157:279|167:368,1,151.199995385742,6|10,1:2|0:0,0:0:0:0:
411,247,23673,6,0,P|413:202|391:161,1,75.5999976928712,0|0,1:0|1:0,0:0:0:0:
356,317,24026,1,2,1:2:0:0:
356,317,24202,2,0,P|311:319|270:297,1,75.5999976928712,10|0,0:0|1:0,0:0:0:0:
111,237,24555,6,0,B|17:289|80:318|-10:363,1,168,0|8,1:0|0:0,0:0:0:0:
3,207,25085,1,6,0:0:0:0:
129,320,25261,2,0,P|180:328|228:343,1,84,2|4,1:2|1:2,0:0:0:0:
170,183,25614,2,0,P|184:146|150:100,1,84,12|2,0:0|1:2,0:0:0:0:
62,112,25967,6,0,P|139:96|243:85,1,168,2|10,1:2|0:0,0:0:0:0:
320,128,26497,2,0,P|309:169|302:215,1,84,2|0,1:2|1:0,0:0:0:0:
411,247,26849,1,2,1:2:0:0:
411,247,27026,2,0,P|421:288|429:334,1,84,10|0,0:0|0:0,0:0:0:0:
512,203,27379,6,0,P|442:199|341:197,1,168,0|8,1:0|0:0,0:0:0:0:
344,196,28085,5,2,1:2:0:0:
179,306,28261,1,8,0:3:0:0:
186,229,28438,5,4,1:3:0:0:
129,153,28614,1,0,0:0:0:0:
129,153,28791,2,0,P|86:172|72:247,1,126.000004806519,4|2,1:0|3:2,0:0:0:0:
163,278,29320,1,0,1:0:0:0:
163,278,29497,2,0,P|93:291|17:318,1,126.000004806519,10|2,3:2|3:2,0:0:0:0:
139,378,30026,5,8,0:0:0:0:
139,378,30114,1,8,0:0:0:0:
139,378,30202,1,2,1:2:0:0:
297,366,30379,1,8,0:0:0:0:
297,366,30732,5,0,1:0:0:0:
297,366,30908,2,0,P|329:358|371:355,1,67.2,10|0,3:2|1:0,0:0:0:0:
416,287,31261,2,0,P|408:254|405:213,1,67.2,10|8,3:2|0:0,0:0:0:0:
404,197,31526,1,8,0:0:0:0:
409,171,31614,1,4,1:0:0:0:
409,171,31967,6,0,P|356:126|258:157,1,147.840004511719,8|2,0:0|1:2,0:0:0:0:
207,249,32497,1,0,1:0:0:0:
207,249,32673,2,0,P|173:252|131:262,1,73.9200022558594,8|0,0:0|0:0,0:0:0:0:
52,143,33026,6,0,B|17:175|17:175|71:171|134:189,1,147.840004511719,2|8,1:2|0:0,0:0:0:0:
182,72,33555,2,0,L|199:-13,1,73.9200022558594,2|0,1:2|1:0,0:0:0:0:
288,128,33908,1,0,1:0:0:0:
288,128,34085,2,0,L|360:113,1,73.9200022558594,14|0,0:0|0:0,0:0:0:0:
512,160,34438,1,6,1:2:0:0:
512,160,34791,5,10,1:2:0:0:
430,129,34967,1,10,0:0:0:0:
416,256,35144,5,8,1:2:0:0:
307,297,35320,1,10,0:0:0:0:
256,160,35497,5,8,1:2:0:0:
97,100,35673,1,10,0:0:0:0:
97,100,35849,6,0,P|56:88|5:84,1,88.1999973083497,12|8,1:2|0:0,0:0:0:0:
12,113,36114,1,8,0:0:0:0:
22,141,36202,1,10,1:2:0:0:
183,136,36379,5,10,0:0:0:0:
193,164,36467,1,8,0:0:0:0:
195,194,36555,1,12,1:2:0:0:
337,215,36732,5,8,0:0:0:0:
330,197,36820,1,8,0:0:0:0:
329,178,36908,1,10,1:2:0:0:
454,32,37085,5,8,0:0:0:0:
454,32,37173,1,8,0:0:0:0:
454,32,37261,2,0,P|448:115|443:224,1,184.800005639649,4|10,1:0|0:0,0:0:0:0:
380,286,37791,5,2,1:2:0:0:
380,286,37879,1,8,0:0:0:0:
380,286,37967,2,0,P|330:302|293:264,1,92.4000028198243,0|0,1:0|1:0,0:0:0:0:
443,216,38320,2,0,L|467:317,1,92.4000028198243,10|0,0:0|1:0,0:0:0:0:
283,382,38673,6,0,B|179:372|228:319|108:307,1,184.800005639649,2|10,1:2|0:0,0:0:0:0:
66,373,39202,1,2,1:2:0:0:
66,373,39290,1,8,0:0:0:0:
66,373,39378,2,0,P|112:365|168:359,1,92.4000028198243,0|0,1:0|1:0,0:0:0:0:
192,256,39732,6,0,P|141:214|111:220,1,92.4000028198243,10|0,0:0|1:0,0:0:0:0:
255,302,40085,2,0,B|359:292|310:239|430:227,1,184.800005639649,2|8,1:2|0:0,0:0:0:0:
501,156,40614,1,2,1:2:0:0:
501,156,40791,2,0,P|457:148|396:135,1,92.4000028198243,0|0,1:0|1:0,0:0:0:0:
330,91,41144,2,0,P|320:45|312:0,1,92.4000028198243,8|2,0:0|1:2,0:0:0:0:
259,147,41497,6,0,P|199:135|118:223,1,184.800005639649,2|8,1:2|0:0,0:0:0:0:
92,336,42026,1,2,1:2:0:0:
92,336,42114,1,8,0:0:0:0:
92,336,42202,2,0,P|46:344|-10:350,1,92.4000028198243,2|0,1:2|1:0,0:0:0:0:
118,215,42555,5,10,0:0:0:0:
160,42,42732,1,8,0:0:0:0:
160,42,42820,1,8,0:0:0:0:
160,42,42908,2,0,B|257:54|203:110|323:131,1,184.800005639649,6|10,1:2|0:0,0:0:0:0:
447,60,43438,5,2,1:2:0:0:
447,60,43526,1,8,0:0:0:0:
447,60,43614,2,0,P|411:31|366:25,1,92.4000028198243,0|2,1:0|1:2,0:0:0:0:
400,141,43967,2,0,P|406:186|413:245,1,92.4000028198243,10|2,0:0|1:2,0:0:0:0:
480,317,44320,2,0,B|492:375|432:372|432:372|394:334|326:360,1,184.800005639649,0|10,1:0|0:0,0:0:0:0:
224,288,44849,6,0,P|178:293|132:299,1,92.4000028198243,2|0,1:2|1:0,0:0:0:0:
57,138,45202,1,2,1:2:0:0:
57,138,45291,1,0,0:0:0:0:
57,138,45379,2,0,P|102:144|148:149,1,92.4000028198243,8|2,0:0|1:2,0:0:0:0:
256,192,45732,6,0,P|341:170|443:157,1,184.800005639649,2|8,1:2|0:0,0:0:0:0:
478,84,46261,1,2,1:2:0:0:
478,84,46438,2,0,P|516:136|505:172,1,92.4000028198243,2|0,1:2|1:0,0:0:0:0:
370,222,46791,2,0,P|332:170|343:134,1,92.4000028198243,8|0,0:0|1:0,0:0:0:0:
512,291,47144,6,0,P|505:337|499:385,1,92.4000028198243,6|0,1:2|1:0,0:0:0:0:
433,262,47497,2,0,P|354:238|232:243,1,184.800005639649,10|14,0:0|1:2,0:0:0:0:
220,252,47938,1,8,0:0:0:0:
192,276,48026,6,0,P|169:272|146:270,1,46.2000014099122,8|8,0:0|0:0,0:0:0:0:
167,367,48202,2,0,P|210:372|252:379,1,46.2000014099122,10|8,1:2|0:0,0:0:0:0:
145,188,48379,2,0,P|101:182|59:175,1,46.2000014099122,8|8,0:0|0:0,0:0:0:0:
79,369,48555,2,0,P|7:320|29:236,1,184.800005639649,4|10,1:0|0:0,0:0:0:0:
116,286,49085,6,0,B|218:290|172:360|293:370,2,184.800005639649,2|2|2,1:2|1:2|1:2,0:0:0:0:
324,221,49967,2,0,P|282:247|233:260,1,92.4000028198243,0|0,1:0|1:0,0:0:0:0:
111,189,50320,1,10,0:0:0:0:
111,189,50497,2,0,P|97:145|89:84,1,92.4000028198243,2|0,1:2|1:0,0:0:0:0:
211,0,50849,5,0,1:0:0:0:
211,0,50938,1,0,0:0:0:0:
211,0,51026,2,0,P|167:14|106:22,1,92.4000028198243,8|2,0:0|1:2,0:0:0:0:
234,96,51379,6,0,L|426:81,1,184.800005639649,2|10,1:2|0:0,0:0:0:0:
456,221,51908,2,0,P|403:193|389:150,1,92.4000028198243,2|0,1:2|1:0,0:0:0:0:
491,30,52261,2,0,P|504:73|512:119,1,92.4000028198243,2|8,1:2|0:0,0:0:0:0:
456,221,52614,6,0,P|368:209|293:272,1,184.800005639649,2|2,1:2|1:2,0:0:0:0:
256,352,53144,1,10,0:0:0:0:
256,352,53320,2,0,P|252:277|241:151,1,184.800005639649,2|0,1:2|1:0,0:0:0:0:
320,96,53849,1,8,0:0:0:0:
239,164,54026,5,10,0:0:0:0:
239,164,54114,1,8,0:0:0:0:
239,164,54202,2,0,B|120:138|173:97|66:81,1,193.200003684998,4|10,1:2|0:0,0:0:0:0:
0,183,54732,2,0,P|73:170|116:168,1,96.6000018424988,2|0,1:2|1:0,0:0:0:0:
193,45,55085,1,2,1:2:0:0:
193,45,55261,2,0,P|266:58|309:60,1,96.6000018424988,10|0,0:0|1:0,0:0:0:0:
399,134,55614,6,0,P|461:125|509:16,1,193.200003684998,0|8,1:0|0:0,0:0:0:0:
288,59,56144,1,2,1:2:0:0:
288,59,56232,1,8,0:0:0:0:
288,59,56320,2,0,P|301:104|322:208,2,144.900002763748,2|2|2,1:2|0:0|1:2,0:0:0:0:
435,252,57026,6,0,P|343:239|240:234,1,193.200003684998,2|8,1:2|0:0,0:0:0:0:
181,275,57555,1,2,0:0:0:0:
181,275,57732,2,0,B|102:295|102:295|84:332|84:332|-4:352,1,193.200003684998,2|12,1:2|0:0,0:0:0:0:
15,347,58261,1,0,1:0:0:0:
89,171,58438,6,0,P|87:217|86:269,1,96.6000018424988,8|0,1:2|2:0,0:0:0:0:
0,263,58791,2,0,P|0:215|2:167,1,96.6000018424988,8|8,1:3|0:0,0:0:0:0:
98,80,59144,6,0,P|125:83|159:87,1,48.3000009212494,14|8,1:2|0:0,0:0:0:0:
224,160,59320,2,0,P|251:156|285:153,1,48.3000009212494,8|8,0:0|0:0,0:0:0:0:
416,192,59497,5,10,1:2:0:0:
436,162,59585,1,8,0:0:0:0:
445,127,59673,1,8,0:0:0:0:
441,91,59761,1,8,0:0:0:0:
427,58,59849,6,0,B|302:34|302:34|340:51|349:105,1,184.800005639649,4|10,1:0|0:0,0:0:0:0:
416,192,60379,1,0,1:0:0:0:
416,192,60467,1,8,0:0:0:0:
416,192,60555,2,0,P|365:194|321:198,1,92.4000028198243,0|0,1:0|1:0,0:0:0:0:
324,325,60908,2,0,B|364:348|364:348|419:331,1,92.4000028198243,10|0,0:0|1:0,0:0:0:0:
264,257,61261,6,0,P|204:249|78:244,1,184.800005639649,2|10,1:2|0:0,0:0:0:0:
0,160,61791,1,2,1:2:0:0:
0,160,61879,1,8,0:0:0:0:
0,160,61967,2,0,P|12:106|24:66,1,92.4000028198243,0|0,1:0|1:0,0:0:0:0:
79,243,62320,2,0,P|91:287|101:332,1,92.4000028198243,10|0,0:0|1:0,0:0:0:0:
230,384,62673,6,0,P|287:370|271:248,1,184.800005639649,2|8,1:2|0:0,0:0:0:0:
160,192,63202,1,2,1:2:0:0:
160,192,63379,2,0,P|204:179|249:169,1,92.4000028198243,0|0,1:0|1:0,0:0:0:0:
413,243,63732,5,8,0:0:0:0:
422,156,63908,1,2,1:2:0:0:
422,156,64085,2,0,B|454:112|454:112|319:147,1,184.800005639649,2|8,1:2|0:0,0:0:0:0:
219,357,64614,1,2,1:2:0:0:
219,357,64791,2,0,P|192:287|243:252,2,138.600004229736,2|2|10,1:2|0:0|0:0,0:0:0:0:
330,290,65497,6,0,L|121:242,1,184.800005639649,6|8,1:2|0:0,0:0:0:0:
0,222,66026,1,0,1:2:0:0:
0,222,66114,1,8,0:0:0:0:
0,222,66202,2,0,P|36:164|104:189,2,138.600004229736,2|2|2,1:2|0:0|1:2,0:0:0:0:
166,364,66908,6,0,B|271:358|223:296|350:288,1,184.800005639649,2|10,1:2|0:0,0:0:0:0:
458,383,67438,2,0,P|408:373|360:371,1,92.4000028198243,2|0,1:2|1:0,0:0:0:0:
320,192,67791,1,2,1:2:0:0:
320,192,67967,2,0,P|366:189|411:179,1,92.4000028198243,8|2,0:0|1:2,0:0:0:0:
512,256,68320,6,0,P|500:186|490:61,1,184.800005639649,6|8,1:2|0:0,0:0:0:0:
490,72,68849,1,2,1:2:0:0:
384,96,69026,2,0,P|338:86|292:83,1,92.4000028198243,2|0,1:2|1:0,0:0:0:0:
181,231,69379,2,0,L|193:139,1,92.4000028198243,8|0,0:0|1:0,0:0:0:0:
40,63,69732,5,12,0:0:0:0:
117,105,69908,1,0,1:0:0:0:
111,265,70085,5,8,0:0:0:0:
256,192,70261,1,0,1:0:0:0:
256,192,70438,2,0,L|266:251,3,46.2000014099122,10|8|8|8,1:2|0:3|0:3|0:3,0:0:0:0:
346,285,70791,2,0,L|353:239,3,46.2000014099122,0|4|4|4,1:2|0:3|0:3|0:3,0:0:0:0:
328,353,71144,6,0,L|162:330,1,151.199995385742,4|2,1:0|1:2,0:0:0:0:
108,282,71673,2,0,L|95:194,1,75.5999976928712,2|0,0:0|1:0,0:0:0:0:
74,362,72026,2,0,L|-14:375,1,75.5999976928712,2|0,0:0|1:0,0:0:0:0:
224,384,72379,1,2,0:0:0:0:
224,384,72555,2,0,L|249:214,1,151.199995385742,0|0,1:0|1:0,0:0:0:0:
245,234,73085,5,2,0:0:0:0:
270,138,73261,1,2,1:2:0:0:
242,70,73526,2,0,P|300:73|341:122,1,113.399996539307,2|2,0:0|0:0,0:0:0:0:
147,172,73967,6,0,P|98:160|-9:139,1,151.199995385742,2|2,1:2|1:2,0:0:0:0:
34,34,74497,2,0,P|98:20|137:90,1,151.199995385742,2|2,0:0|0:0,0:0:0:0:
137,84,75026,1,0,1:0:0:0:
256,192,75202,5,2,0:0:0:0:
384,128,75379,2,0,P|392:81|406:28,1,88.1999973083497,14|0,0:0|1:0,0:0:0:0:
302,126,75732,5,2,1:2:0:0:
448,256,75908,1,14,0:0:0:0:
448,256,76261,2,0,P|405:245|361:238,1,88.1999973083497,14|0,0:0|0:0,0:0:0:0:
289,354,76614,5,10,0:0:0:0:
289,354,76702,1,8,0:0:0:0:
289,354,76791,2,0,P|205:333|120:319,1,142.800002723694,4|0,1:0|3:0,0:0:0:0:
51,380,77320,1,0,1:0:0:0:
51,380,77497,2,0,B|28:289|28:289|68:319,1,142.800002723694,8|0,3:2|3:0,0:0:0:0:
116,192,78026,5,8,0:0:0:0:
116,192,78114,1,8,0:0:0:0:
116,192,78202,2,0,P|111:229|108:287,2,71.4000013618469,2|8|0,1:2|0:0|3:0,0:0:0:0:
116,192,78732,1,0,1:0:0:0:
271,209,78908,5,10,3:2:0:0:
197,158,79085,1,8,0:0:0:0:
238,278,79261,5,10,3:2:0:0:
381,192,79438,1,8,0:0:0:0:
228,283,79614,1,2,0:0:0:0:
327,313,82085,5,10,0:0:0:0:
288,282,82169,1,8,0:0:0:0:
238,278,82253,1,10,0:0:0:0:
195,302,82337,1,8,0:0:0:0:
172,346,82432,5,4,1:0:0:0:
0,258,82608,1,0,1:0:0:0:
0,258,82785,2,0,P|49:250|97:244,1,84,8|0,0:0|1:0,0:0:0:0:
112,244,83049,1,8,0:0:0:0:
141,245,83138,1,0,1:0:0:0:
256,128,83314,5,2,1:2:0:0:
332,129,83491,1,8,0:0:0:0:
420,184,83667,1,0,1:2:0:0:
448,256,83843,2,0,B|346:260|391:316|290:333,1,168,2|10,1:2|0:0,0:0:0:0:
241,210,84373,1,0,1:0:0:0:
241,210,84549,2,0,P|249:169|256:113,1,84,2|0,1:2|1:0,0:0:0:0:
404,172,84902,2,0,P|412:212|419:269,1,84,10|4,0:0|0:3,0:0:0:0:
512,102,85255,6,0,P|460:106|415:12,1,168,14|8,0:0|0:0,0:0:0:0:
483,37,85784,1,2,1:2:0:0:
231,125,85961,5,10,0:0:0:0:
333,200,86137,1,0,1:0:0:0:
141,262,86314,5,8,0:0:0:0:
237,108,86490,1,2,1:2:0:0:
256,224,86667,2,0,P|141:207|71:202,1,168,14|8,0:0|0:0,0:0:0:0:
89,202,87196,1,2,1:2:0:0:
0,127,87373,1,12,0:0:0:0:
202,17,87549,5,10,0:0:0:0:
216,40,87637,1,8,0:0:0:0:
212,67,87726,1,10,0:0:0:0:
192,85,87814,1,8,0:0:0:0:
166,86,87902,1,10,0:0:0:0:
113,90,87990,1,8,0:0:0:0:
74,126,88079,5,6,1:2:0:0:
