osu file format v14

[General]
AudioFilename: audio.mp3
AudioLeadIn: 0
PreviewTime: 36814
Countdown: 0
SampleSet: Soft
StackLeniency: 0.7
Mode: 0
LetterboxInBreaks: 0
WidescreenStoryboard: 1

[Editor]
Bookmarks: 88079,89843
DistanceSpacing: 0.6
BeatDivisor: 4
GridSize: 4
TimelineZoom: 1.7

[Metadata]
Title:Hajimari no Sokudo (TV Size)
TitleUnicode:はじまりの速度 (TV Size)
Artist:Sangatsu no Phantasia
ArtistUnicode:三月のパンタシア
Creator:SupaV
Version:Uta's Expert
Source:キズナイーバー
Tags:kiznaiver j-pop jpop anime ending ed -_afifakilie_- afifakilie fluffy hair inyuschan lushifer nyukai nyu-chan unranked_mapper unranked mapper uta waifuiscute wenect wenet japanese pop j-rock jrock rock
BeatmapID:3228500
BeatmapSetID:1531850

[Difficulty]
HPDrainRate:5.2
CircleSize:3.8
OverallDifficulty:8.5
ApproachRate:9.2
SliderMultiplier:1.68
SliderTickRate:1

[Events]
//Background and Video events
0,0,"wallpaper.jpg",0,0
Video,380,"hajimari.m4v"
//Break Periods
//Storyboard Layer 0 (Background)
//Storyboard Layer 1 (Fail)
//Storyboard Layer 2 (Pass)
//Storyboard Layer 3 (Foreground)
//Storyboard Layer 4 (Overlay)
//Storyboard Sound Samples

[TimingPoints]
564,352.941176470588,4,2,1,40,1,0
564,-142.857142857143,4,2,1,40,0,0
6211,-144.927536231884,4,2,1,40,0,0
10093,333.333333333333,4,2,1,40,1,0
10093,-136.986301369863,4,2,1,40,0,0
10426,361.44578313253,4,2,1,40,1,0
10426,-125,4,2,1,40,0,0
10787,326.086956521739,4,2,1,40,1,0
11113,394.736842105263,4,2,1,40,1,0
11493,-166.666666666667,4,2,1,40,0,0
11850,352.941176470588,4,2,1,50,1,0
11850,-125,4,2,1,50,0,0
12202,-125,4,2,4,50,0,0
17320,-125,4,2,1,50,0,0
17849,-125,4,2,4,50,0,0
19614,-125,4,2,1,50,0,0
20320,-99.9999999999999,4,2,1,60,0,0
25085,-99.9999999999999,4,2,2,60,0,0
25614,-99.9999999999999,4,2,1,60,0,0
28085,-133.333333333333,4,2,1,60,0,0
29143,-133.333333333333,4,2,2,60,0,0
30908,-125,4,2,2,60,0,0
31614,-113.636363636364,4,2,1,60,0,0
34085,-100,4,2,3,60,0,0
34437,-100,4,2,1,60,0,0
34614,-100,4,2,1,45,0,0
34790,-100,4,2,1,50,0,0
34967,-100,4,2,1,55,0,0
35143,-100,4,2,1,60,0,0
35320,-100,4,2,1,65,0,0
35496,-100,4,2,1,70,0,0
35937,-100,4,2,1,60,0,0
36202,-100,4,2,1,70,0,0
36290,-100,4,2,1,60,0,0
36555,-100,4,2,1,70,0,0
36732,-100,4,2,1,60,0,0
36908,-100,4,2,1,70,0,0
36996,-100,4,2,1,60,0,0
37261,-90.9090909090909,4,2,2,70,0,1
37437,-90.9090909090909,4,2,1,70,0,1
40085,-90.9090909090909,4,2,1,70,0,1
42908,-90.9090909090909,4,2,1,70,0,1
45379,-125,4,2,1,70,0,1
45732,-90.9090909090909,4,2,1,70,0,1
47144,-90.9090909090909,4,2,1,70,0,1
47849,-90.9090909090909,4,2,2,70,0,1
47937,-90.9090909090909,4,2,1,60,0,1
48202,-90.9090909090909,4,2,1,70,0,1
48290,-90.9090909090909,4,2,1,60,0,1
48555,-100,4,2,1,70,0,0
51026,-142.857142857143,4,2,1,70,0,0
51379,-100,4,2,1,70,0,0
53849,-125,4,2,1,70,0,0
54114,-95.2380952380952,4,2,1,70,0,0
57026,-95.2380952380952,4,2,1,70,0,0
59143,-95.2380952380952,4,2,2,70,0,0
59232,-95.2380952380952,4,2,1,60,0,0
59496,-95.2380952380952,4,2,1,70,0,0
59585,-95.2380952380952,4,2,1,60,0,0
59849,-86.9565217391304,4,2,1,70,0,1
61261,-86.9565217391304,4,2,1,70,0,1
69732,-86.9565217391304,4,2,2,70,0,1
69908,-86.9565217391304,4,2,1,70,0,1
70438,-95.2380952380952,4,2,1,60,0,0
70614,-95.2380952380952,4,2,1,55,0,0
70790,-95.2380952380952,4,2,1,50,0,0
70967,-95.2380952380952,4,2,1,45,0,0
71144,-111.111111111111,4,2,1,60,0,0
75379,-100,4,2,1,70,0,0
75908,-100,4,2,3,70,0,0
76791,-117.647058823529,4,2,1,60,0,0
77143,-117.647058823529,4,2,2,60,0,0
79614,-144.927536231884,4,2,1,50,0,0
82085,337.078651685393,4,2,1,60,1,0
82085,-100,4,2,1,60,0,0
82432,352.941176470588,4,2,1,60,1,0
82432,-83.3333333333333,4,2,1,60,0,0
85255,-90.9090909090909,4,2,1,60,0,0
86490,-90.9090909090909,4,2,1,60,0,0
87196,-90.9090909090909,4,2,1,60,0,0
87539,-90.9090909090909,4,2,1,60,0,0
87549,-90.9090909090909,4,2,1,60,0,0
88079,-125,4,2,1,60,0,0
89490,-125,4,2,1,5,0,0

[Colours]
Combo1 : 255,131,121
Combo2 : 251,29,4
Combo3 : 178,205,250
Combo4 : 102,129,184

[HitObjects]
486,322,564,6,0,P|454:280|394:282,1,117.599996411133
300,342,1093,1,2,0:0:0:0:
300,342,1269,2,0,P|261:347|195:357,2,88.1999973083497,2|2|2,0:0|0:0|0:0,0:0:0:0:
266,242,1975,6,0,L|404:261,1,117.599996411133,2|2,0:0|0:0,0:0:0:0:
477,344,2505,2,0,L|411:351,1,58.7999982055665,2|0,0:0|0:0,0:0:0:0:
352,229,2858,2,0,L|418:222,1,58.7999982055665,2|0,0:0|0:0,0:0:0:0:
503,265,3211,1,2,0:0:0:0:
492,161,3387,6,0,P|462:127|431:119,1,58.7999982055665
351,189,3740,2,0,P|357:129|365:65,1,117.599996411133
421,5,4269,1,2,0:0:0:0:
297,32,4446,1,2,0:0:0:0:
297,32,4622,1,2,0:0:0:0:
405,113,4799,6,0,P|411:172|419:237,1,117.599996411133
374,322,5328,1,0,0:0:0:0:
321,232,5505,2,0,P|331:180|337:156,1,58.7999982055665,2|0,0:0|0:0,0:0:0:0:
230,104,5858,2,0,P|236:132|241:161,1,58.7999982055665,2|0,0:0|0:0,0:0:0:0:
182,243,6211,6,0,P|126:253|65:218,1,115.92000017688
161,153,6740,2,0,P|226:139|276:164,2,115.92000017688,2|2|2,0:0|0:0|0:0,0:0:0:0:
75,200,7622,6,0,P|63:162|69:124,1,57.9600000884399,2|0,0:0|0:0,0:0:0:0:
150,51,7975,1,2,0:0:0:0:
217,157,8152,2,0,P|177:158|142:141,1,57.9600000884399,2|0,0:0|0:0,0:0:0:0:
130,29,8505,2,0,P|157:21|186:24,1,57.9600000884399,2|0,0:0|0:0,0:0:0:0:
261,84,8858,1,2,0:0:0:0:
160,152,9034,6,0,P|159:218|197:262,1,115.92000017688,2|0,0:0|0:0,0:0:0:0:
266,336,9563,1,2,0:0:0:0:
356,261,9740,2,0,L|339:184,1,57.9600000884399,2|0,0:0|0:0,0:0:0:0:
406,145,10093,2,0,P|413:108|421:69,1,61.3200016842042
298,0,10426,6,0,P|222:-8|178:45,1,134.4,2|2,0:0|0:0,0:0:0:0:
105,127,10950,1,0,0:0:0:0:
260,169,11113,2,0,P|271:128|251:81,1,84,2|0,0:0|3:0,0:0:0:0:
189,63,11409,1,0,3:0:0:0:
189,63,11507,2,0,P|185:96|182:128,1,50.3999984619141,6|0,0:0|0:0,0:0:0:0:
154,212,11850,6,0,P|195:162|277:186,1,134.4,4|2,0:0|3:2,0:0:0:0:
268,284,12379,1,0,0:0:0:0:
145,358,12555,2,0,P|122:326|120:284,1,67.2,2|0,3:2|0:0,0:0:0:0:
92,161,12908,1,2,3:2:0:0:
232,262,13085,1,0,0:0:0:0:
163,94,13261,6,0,B|97:72|97:72|19:86,1,134.4,0|0,3:0|3:0,0:0:0:0:
209,184,13791,1,2,0:0:0:0:
209,184,13967,2,0,B|250:151|250:151|265:80,2,100.8,2|2|2,3:2|0:0|0:0,0:0:0:0:
181,24,14673,5,2,3:2:0:0:
307,196,14849,1,2,0:0:0:0:
130,140,15026,1,2,3:2:0:0:
273,26,15202,2,0,L|281:112,1,67.2,2|0,0:0|3:0,0:0:0:0:
219,253,15555,1,2,0:0:0:0:
219,253,15732,2,0,L|212:186,1,67.2,2|0,3:2|0:0,0:0:0:0:
161,46,16085,6,0,P|89:19|27:47,1,134.4,0|0,3:0|3:0,0:0:0:0:
0,144,16614,1,0,0:0:0:0:
75,244,16791,2,0,P|112:244|155:224,1,67.2,2|0,3:2|0:0,0:0:0:0:
219,159,17144,1,2,3:2:0:0:
325,311,17320,1,2,0:0:0:0:
325,311,17408,1,0,0:0:0:0:
325,311,17497,6,0,L|338:171,1,134.4,0|2,1:0|3:2,0:0:0:0:
431,87,18026,1,0,0:0:0:0:
471,194,18202,2,0,L|490:267,1,67.2,0|0,3:0|0:0,0:0:0:0:
373,173,18555,2,0,L|335:231,1,67.2,2|0,3:2|0:0,0:0:0:0:
307,67,18908,6,0,L|169:91,1,134.4,2|6,3:2|3:2,0:0:0:0:
450,0,19614,1,8,0:0:0:0:
434,33,19702,1,8,0:0:0:0:
433,70,19790,1,10,0:0:0:0:
445,104,19878,1,8,0:0:0:0:
470,132,19966,1,8,1:2:0:0:
494,159,20056,1,8,0:0:0:0:
506,193,20144,1,10,0:0:0:0:
505,231,20232,1,8,0:0:0:0:
489,264,20320,6,0,P|426:251|381:244,1,84,4|2,1:2|1:2,0:0:0:0:
268,284,20673,1,10,0:0:0:0:
345,149,20849,1,0,1:0:0:0:
345,149,20938,1,8,0:0:0:0:
345,149,21026,2,0,P|392:141|439:133,1,84,0|0,1:0|1:0,0:0:0:0:
331,311,21379,2,0,P|284:303|237:295,1,84,10|0,0:0|0:0,0:0:0:0:
179,134,21732,5,2,1:2:0:0:
39,187,21908,1,0,1:0:0:0:
158,342,22085,2,0,P|175:300|173:256,1,84,10|0,0:0|1:0,0:0:0:0:
98,106,22438,1,2,1:2:0:0:
258,234,22614,1,8,0:0:0:0:
291,242,22702,1,8,0:0:0:0:
326,240,22791,1,10,1:2:0:0:
359,231,22879,1,8,0:0:0:0:
391,216,22967,1,8,0:0:0:0:
417,191,23055,1,8,0:0:0:0:
435,161,23144,6,0,P|426:114|420:72,1,84,6|0,1:2|1:0,0:0:0:0:
304,215,23497,1,10,0:0:0:0:
457,270,23673,1,0,1:0:0:0:
457,270,23761,1,8,0:0:0:0:
457,270,23849,1,0,1:0:0:0:
270,126,24026,1,2,1:2:0:0:
428,49,24202,2,0,P|422:97|417:144,1,84,10|0,0:0|1:0,0:0:0:0:
284,249,24555,6,0,P|237:257|189:225,1,84,0|0,1:0|1:0,0:0:0:0:
82,140,24908,1,8,0:0:0:0:
288,132,25085,1,6,0:0:0:0:
108,98,25261,2,0,P|118:143|138:238,1,126,2|2,1:2|0:0,0:0:0:0:
117,252,25614,1,12,0:0:0:0:
17,137,25791,1,2,1:2:0:0:
17,137,25879,1,8,0:0:0:0:
17,137,25967,6,0,P|6:184|-2:228,1,84,2|0,1:2|1:0,0:0:0:0:
72,341,26320,1,10,0:0:0:0:
141,221,26497,1,2,1:2:0:0:
141,221,26585,1,8,0:0:0:0:
141,221,26673,2,0,P|181:214|225:227,1,84,0|2,1:0|1:2,0:0:0:0:
292,369,27026,2,0,P|252:376|208:363,1,84,10|0,0:0|0:0,0:0:0:0:
0,269,27379,5,0,1:0:0:0:
105,384,27555,1,0,1:0:0:0:
142,256,27732,1,8,0:0:0:0:
304,307,27908,1,0,1:0:0:0:
304,307,27997,1,8,0:0:0:0:
304,307,28085,2,0,P|296:345|287:391,1,63.0000024032594,2|8,1:2|0:3,0:0:0:0:
388,364,28438,2,0,P|394:328|405:280,1,63.0000024032594,4|0,1:3|0:0,0:0:0:0:
360,193,28791,6,0,P|409:161|497:187,1,126.000004806519,4|2,1:0|3:2,0:0:0:0:
420,278,29320,1,0,1:0:0:0:
297,243,29497,2,0,P|282:207|284:175,1,63.0000024032594,10|0,3:2|0:0,0:0:0:0:
197,73,29849,2,0,P|212:109|210:141,1,63.0000024032594,2|8,3:2|0:0,0:0:0:0:
201,176,30114,1,8,0:0:0:0:
201,176,30202,1,2,1:2:0:0:
128,100,30379,1,8,0:0:0:0:
70,191,30555,2,0,P|30:191|-11:180,1,63.0000024032594,0|0,3:0|1:0,0:0:0:0:
61,34,30908,5,10,3:2:0:0:
211,91,31085,1,0,1:0:0:0:
47,108,31261,1,10,3:2:0:0:
228,12,31438,1,8,0:0:0:0:
228,12,31526,1,8,0:0:0:0:
228,12,31614,6,0,P|265:3|314:-1,1,73.9200022558594,4|0,1:0|0:0,0:0:0:0:
201,176,31967,2,0,P|165:185|115:189,1,73.9200022558594,8|0,0:0|1:0,0:0:0:0:
86,180,32232,1,8,0:0:0:0:
86,180,32320,1,2,1:2:0:0:
175,69,32497,1,0,1:0:0:0:
0,11,32673,2,0,P|6:48|9:86,1,73.9200022558594,8|0,0:0|0:0,0:0:0:0:
109,255,33026,6,0,P|112:218|118:181,1,73.9200022558594,2|0,1:2|1:0,0:0:0:0:
255,102,33379,2,0,P|261:138|264:175,1,73.9200022558594,8|2,0:0|1:2,0:0:0:0:
303,363,33732,1,0,1:0:0:0:
190,194,33908,1,0,1:0:0:0:
404,279,34085,2,0,P|359:271|318:268,1,84,14|0,0:0|0:0,0:0:0:0:
182,349,34438,5,6,1:2:0:0:
182,349,34791,1,10,1:2:0:0:
290,151,34967,1,10,0:0:0:0:
307,384,35144,1,8,1:2:0:0:
138,144,35320,1,10,0:0:0:0:
380,264,35497,1,8,1:2:0:0:
75,232,35673,1,10,0:0:0:0:
185,2,35849,6,0,L|198:48,3,42,12|8|8|8,1:2|0:0|0:0|0:0,0:0:0:0:
367,116,36202,1,10,1:2:0:0:
390,100,36290,1,8,0:0:0:0:
417,90,36378,1,10,0:0:0:0:
446,87,36466,1,8,0:0:0:0:
473,91,36555,6,0,P|501:103|537:108,1,42,12|0,1:2|0:0,0:0:0:0:
413,291,36732,1,8,0:0:0:0:
380,264,36820,1,8,0:0:0:0:
341,250,36908,1,10,1:2:0:0:
301,245,36996,1,8,0:0:0:0:
263,250,37084,1,8,0:0:0:0:
226,264,37173,1,8,0:0:0:0:
193,287,37261,6,0,P|209:368|218:409,1,92.4000028198243,4|0,1:0|1:0,0:0:0:0:
0,273,37614,2,0,P|11:222|19:178,1,92.4000028198243,10|2,0:0|1:2,0:0:0:0:
27,147,37879,1,8,0:0:0:0:
27,147,37967,1,0,1:0:0:0:
210,185,38144,1,0,1:0:0:0:
87,42,38320,2,0,P|38:24|-7:32,1,92.4000028198243,10|0,0:0|1:0,0:0:0:0:
270,0,38673,6,0,B|255:64|255:64|264:121|264:121|249:190,1,184.800005639649,2|10,1:2|0:0,0:0:0:0:
176,294,39202,1,2,1:2:0:0:
139,288,39290,1,8,0:0:0:0:
105,283,39378,1,0,1:0:0:0:
72,280,39466,1,8,0:0:0:0:
38,275,39554,1,0,1:0:0:0:
257,380,39732,2,0,P|285:332|258:248,1,138.600004229736,10|8,0:0|0:0,0:0:0:0:
244,175,40085,6,0,B|338:155|322:250|422:233,1,184.800005639649,2|8,1:2|0:0,0:0:0:0:
480,51,40614,1,2,1:2:0:0:
480,51,40702,1,8,0:0:0:0:
480,51,40791,1,0,1:0:0:0:
395,160,40967,1,0,1:0:0:0:
219,47,41144,2,0,P|225:87|234:147,1,92.4000028198243,8|2,0:0|1:2,0:0:0:0:
225,214,41408,1,8,0:0:0:0:
225,214,41497,6,0,L|214:264,2,46.2000014099122,2|8|0,1:2|0:0|1:0,0:0:0:0:
259,57,41849,1,8,0:0:0:0:
86,4,42026,1,2,1:2:0:0:
50,5,42114,1,8,0:0:0:0:
22,23,42202,1,2,1:2:0:0:
2,52,42290,1,8,0:0:0:0:
0,85,42378,1,0,1:0:0:0:
182,69,42555,1,10,0:0:0:0:
139,255,42732,1,8,0:0:0:0:
139,255,42820,1,8,0:0:0:0:
139,255,42908,6,0,P|58:277|-1:194,1,184.800005639649,6|10,1:2|0:0,0:0:0:0:
158,81,43438,1,2,1:2:0:0:
158,81,43526,1,8,0:0:0:0:
158,81,43614,2,0,L|143:173,1,92.4000028198243,0|2,1:0|1:2,0:0:0:0:
130,358,43967,1,10,0:0:0:0:
0,207,44144,1,2,1:2:0:0:
266,244,44320,6,0,L|369:230,1,92.4000028198243,0|0,1:0|1:0,0:0:0:0:
387,54,44673,1,10,0:0:0:0:
192,185,44849,2,0,P|171:231|179:279,1,92.4000028198243,2|0,1:2|1:0,0:0:0:0:
192,302,45114,1,8,0:0:0:0:
192,302,45202,1,2,1:2:0:0:
123,119,45379,1,8,0:0:0:0:
36,322,45555,1,2,1:2:0:0:
36,322,45644,1,8,0:0:0:0:
36,322,45732,6,0,P|24:229|9:128,1,184.800005639649,2|8,1:2|0:0,0:0:0:0:
114,0,46261,1,2,1:2:0:0:
114,0,46349,1,8,0:0:0:0:
114,0,46438,1,2,1:2:0:0:
236,130,46614,1,0,1:0:0:0:
37,203,46791,1,8,0:0:0:0:
212,27,46967,1,0,1:0:0:0:
212,27,47055,1,8,0:0:0:0:
212,27,47144,5,6,1:2:0:0:
152,230,47320,1,0,1:0:0:0:
0,64,47497,2,0,P|46:70|109:78,1,92.4000028198243,10|0,0:0|0:0,0:0:0:0:
251,1,47849,2,0,P|253:25|257:54,1,46.2000014099122,14|8,1:2|0:0,0:0:0:0:
157,203,48026,2,0,P|159:180|165:151,1,46.2000014099122,8|8,0:0|0:0,0:0:0:0:
363,112,48202,2,0,P|365:133|368:160,1,46.2000014099122,10|8,1:2|0:0,0:0:0:0:
282,351,48379,1,8,0:0:0:0:
282,351,48467,1,8,0:0:0:0:
282,351,48555,6,0,P|318:365|372:366,1,84,4|0,1:0|1:0,0:0:0:0:
183,211,48908,2,0,P|141:213|102:228,1,84,10|2,0:0|1:2,0:0:0:0:
53,299,49173,1,8,0:0:0:0:
53,299,49261,2,0,L|60:356,2,42,0|8|2,1:0|0:0|1:2,0:0:0:0:
36,141,49614,1,8,0:0:0:0:
195,292,49791,1,2,1:2:0:0:
195,292,49879,1,8,0:0:0:0:
195,292,49967,6,0,P|198:247|207:200,1,84,0|0,1:0|1:0,0:0:0:0:
26,108,50320,1,10,0:0:0:0:
193,44,50497,1,2,1:2:0:0:
193,44,50585,1,8,0:0:0:0:
193,44,50674,2,0,L|236:50,2,42,0|8|0,1:0|0:0|1:0,0:0:0:0:
5,0,51026,1,8,0:0:0:0:
140,137,51202,1,2,1:2:0:0:
324,18,51379,6,0,P|363:-1|407:1,1,84,2|0,1:2|1:0,0:0:0:0:
359,161,51732,1,10,0:0:0:0:
190,122,51908,2,0,P|180:175|191:213,1,84,2|0,1:2|1:0,0:0:0:0:
203,247,52173,1,8,0:0:0:0:
203,247,52261,2,0,L|297:236,1,84,2|8,1:2|0:0,0:0:0:0:
451,384,52614,6,0,L|269:365,1,168,2|2,1:2|1:2,0:0:0:0:
121,384,53144,1,10,0:0:0:0:
132,159,53320,1,2,1:2:0:0:
132,159,53408,1,8,0:0:0:0:
132,159,53497,2,0,L|193:152,2,42,0|8|0,1:0|0:0|1:0,0:0:0:0:
0,249,53849,1,8,0:0:0:0:
149,360,54026,1,10,0:0:0:0:
149,360,54114,1,8,0:0:0:0:
149,360,54202,6,0,B|222:320|235:409|327:366,1,176.399994616699,4|10,1:2|0:0,0:0:0:0:
342,193,54732,2,0,P|297:222|282:271,1,88.1999973083497,2|0,1:2|1:0,0:0:0:0:
416,384,55085,1,2,1:2:0:0:
458,175,55261,2,0,L|354:168,1,88.1999973083497,10|0,0:0|1:0,0:0:0:0:
151,41,55614,6,0,B|233:6|233:6|337:20,1,176.399994616699,0|8,1:0|0:0,0:0:0:0:
512,28,56144,1,2,1:2:0:0:
506,56,56232,1,8,0:0:0:0:
502,85,56320,1,2,1:2:0:0:
499,116,56408,1,8,0:0:0:0:
495,145,56496,1,0,1:0:0:0:
341,261,56673,2,0,P|330:211|325:169,1,88.1999973083497,8|2,0:0|1:2,0:0:0:0:
182,31,57026,6,0,P|107:7|27:58,1,176.399994616699,2|8,1:2|0:0,0:0:0:0:
98,224,57555,1,2,0:0:0:0:
170,59,57732,1,2,1:2:0:0:
0,148,57908,1,0,1:0:0:0:
225,220,58085,1,12,0:0:0:0:
28,55,58261,1,0,1:0:0:0:
49,291,58438,5,8,1:2:0:0:
75,307,58526,1,8,0:0:0:0:
106,310,58614,1,0,2:0:0:0:
136,301,58702,1,8,0:0:0:0:
159,280,58790,1,8,1:3:0:0:
206,29,58967,1,8,0:0:0:0:
206,29,59055,1,8,0:0:0:0:
206,29,59144,5,14,1:2:0:0:
228,58,59232,1,8,0:0:0:0:
265,72,59320,1,8,0:0:0:0:
304,65,59408,1,8,0:0:0:0:
334,38,59497,1,10,1:2:0:0:
373,5,59585,1,8,0:0:0:0:
425,0,59673,1,8,0:0:0:0:
471,23,59761,1,8,0:0:0:0:
503,61,59849,6,0,B|492:158|484:256,1,193.200003684998,4|10,1:0|0:0,0:0:0:0:
351,384,60379,1,0,1:0:0:0:
351,384,60467,1,8,0:0:0:0:
351,384,60555,1,0,1:0:0:0:
209,291,60732,1,0,1:0:0:0:
390,199,60908,2,0,P|385:155|369:97,1,96.6000018424988,10|0,0:0|1:0,0:0:0:0:
302,80,61173,1,8,0:0:0:0:
302,80,61261,6,0,P|259:99|204:102,1,96.6000018424988,2|0,1:2|1:0,0:0:0:0:
78,0,61614,1,10,0:0:0:0:
11,162,61791,1,2,1:2:0:0:
17,197,61879,1,8,0:0:0:0:
23,233,61967,1,0,1:0:0:0:
29,269,62055,1,8,0:0:0:0:
35,304,62143,1,0,1:0:0:0:
140,107,62320,1,10,0:0:0:0:
111,339,62497,1,0,1:0:0:0:
111,339,62585,1,8,0:0:0:0:
111,339,62673,6,0,P|77:375|11:380,1,96.6000018424988,2|0,1:2|1:0,0:0:0:0:
224,200,63026,2,0,P|272:211|309:266,1,96.6000018424988,8|2,0:0|1:2,0:0:0:0:
323,287,63291,1,8,0:0:0:0:
323,287,63379,1,0,1:0:0:0:
130,362,63555,1,0,1:0:0:0:
124,113,63732,1,8,0:0:0:0:
233,286,63908,1,2,1:2:0:0:
233,286,63997,1,8,0:0:0:0:
233,286,64085,5,2,1:2:0:0:
269,63,64261,1,0,1:0:0:0:
84,194,64438,1,8,0:0:0:0:
339,258,64614,1,2,1:2:0:0:
151,92,64791,2,0,P|78:99|-3:116,2,144.900002763748,2|2|10,1:2|0:0|0:0,0:0:0:0:
337,183,65497,5,6,1:2:0:0:
239,22,65673,1,0,1:0:0:0:
134,196,65849,2,0,L|144:303,1,96.6000018424988,8|0,0:0|1:2,0:0:0:0:
130,378,66114,1,8,0:0:0:0:
130,378,66202,2,0,P|54:334|-15:343,2,144.900002763748,2|2|2,1:2|0:0|1:2,0:0:0:0:
379,199,66908,5,2,1:2:0:0:
214,315,67085,1,0,1:0:0:0:
443,330,67261,1,10,0:0:0:0:
237,191,67438,2,0,P|185:177|134:196,1,96.6000018424988,2|0,1:2|1:0,0:0:0:0:
331,353,67791,2,0,P|377:364|424:353,1,96.6000018424988,2|8,1:2|0:0,0:0:0:0:
293,109,68144,1,2,1:2:0:0:
293,109,68232,1,8,0:0:0:0:
293,109,68320,6,0,P|276:192|264:310,1,193.200003684998,6|8,1:2|0:0,0:0:0:0:
391,169,68849,1,2,1:2:0:0:
442,317,69026,1,2,1:2:0:0:
510,134,69202,1,0,1:0:0:0:
332,243,69379,1,8,0:0:0:0:
417,80,69555,1,0,1:0:0:0:
484,326,69732,5,12,0:0:0:0:
243,69,69908,1,0,1:0:0:0:
332,338,70085,1,8,0:0:0:0:
498,58,70261,1,0,1:0:0:0:
295,231,70438,5,10,1:2:0:0:
262,251,70526,1,8,0:3:0:0:
224,244,70614,1,8,0:3:0:0:
205,212,70702,1,8,0:3:0:0:
205,180,70791,1,0,1:2:0:0:
224,159,70879,1,4,0:3:0:0:
249,146,70967,1,4,0:3:0:0:
276,141,71055,1,4,0:3:0:0:
303,143,71144,6,0,B|381:149|346:214|440:232,1,151.199995385742,4|2,1:0|1:2,0:0:0:0:
498,168,71673,2,0,P|505:130|487:82,1,75.5999976928712,2|0,0:0|1:0,0:0:0:0:
408,25,72026,2,0,P|398:69|389:121,1,75.5999976928712,2|0,0:0|1:0,0:0:0:0:
386,215,72379,1,2,0:0:0:0:
300,77,72555,6,0,P|276:147|292:235,1,151.199995385742,0|0,1:0|1:0,0:0:0:0:
203,299,73085,1,2,0:0:0:0:
158,182,73261,2,0,P|98:160|32:174,2,113.399996539307,2|2|2,1:2|0:0|0:0,0:0:0:0:
265,94,73967,6,0,B|343:111|339:41|418:60,1,151.199995385742,2|2,1:2|1:2,0:0:0:0:
504,14,74497,2,0,P|495:56|487:107,1,75.5999976928712,2|0,0:0|1:0,0:0:0:0:
407,206,74849,2,0,P|398:164|389:123,1,75.5999976928712,2|0,0:0|1:0,0:0:0:0:
289,25,75202,1,2,0:0:0:0:
137,238,75379,5,14,0:0:0:0:
86,70,75555,1,0,1:0:0:0:
282,156,75732,1,2,1:2:0:0:
154,317,75908,6,0,B|82:330|92:273|31:286,1,126,14|0,0:0|0:0,0:0:0:0:
16,195,76261,2,0,B|88:208|78:151|139:164,1,126,14|0,0:0|0:0,0:0:0:0:
225,239,76614,1,10,0:0:0:0:
225,239,76702,1,8,0:0:0:0:
225,239,76791,1,4,1:0:0:0:
296,105,76967,6,0,P|228:140|146:121,1,142.800002723694,0|0,1:0|1:0,0:0:0:0:
40,53,77497,2,0,L|29:145,1,71.4000013618469,8|2,3:2|0:0,0:0:0:0:
3,240,77849,1,0,3:0:0:0:
140,338,78026,1,8,0:0:0:0:
140,338,78114,1,8,0:0:0:0:
140,338,78202,5,2,1:2:0:0:
202,226,78379,2,0,P|270:199|343:228,1,142.800002723694,8|0,0:0|1:0,0:0:0:0:
396,314,78908,1,10,3:2:0:0:
448,199,79085,1,8,0:0:0:0:
270,283,79261,1,10,3:2:0:0:
457,374,79438,1,8,0:0:0:0:
333,219,79614,1,2,0:0:0:0:
293,188,80849,6,2,L|300:156,3,19.32000002948
217,103,82085,6,0,L|161:110,1,42,10|8,0:0|0:0,0:0:0:0:
299,223,82253,2,0,L|340:217,1,42,10|8,0:0|0:0,0:0:0:0:
194,25,82432,6,0,L|81:39,1,100.799996923828,4|0,1:0|1:0,0:0:0:0:
181,222,82785,1,8,0:0:0:0:
302,86,82961,1,0,1:0:0:0:
302,86,83049,1,8,0:0:0:0:
302,86,83138,1,0,1:0:0:0:
388,264,83314,1,2,1:2:0:0:
405,67,83491,1,8,0:0:0:0:
247,180,83667,1,0,1:2:0:0:
485,275,83843,6,0,P|477:209|468:165,1,100.799996923828,2|0,1:2|1:0,0:0:0:0:
285,91,84196,2,0,P|274:141|268:201,1,100.799996923828,10|0,0:0|1:0,0:0:0:0:
355,362,84549,1,2,1:2:0:0:
175,254,84726,1,0,1:0:0:0:
383,156,84902,2,0,P|450:145|491:145,1,100.799996923828,10|4,0:0|0:3,0:0:0:0:
198,22,85255,6,0,P|156:3|108:0,1,92.4000028198243,14|0,0:0|1:0,0:0:0:0:
203,177,85608,1,8,0:0:0:0:
361,0,85784,1,2,1:2:0:0:
398,278,85961,5,10,0:0:0:0:
277,117,86137,1,0,1:0:0:0:
506,186,86314,1,8,0:0:0:0:
224,330,86490,1,2,1:2:0:0:
356,67,86667,6,0,P|380:143|386:179,1,92.4000028198243,14|0,0:0|1:0,0:0:0:0:
314,321,87020,1,8,0:0:0:0:
161,110,87196,1,2,1:2:0:0:
9,376,87373,1,12,0:0:0:0:
255,223,87549,5,10,0:0:0:0:
212,208,87637,1,8,0:0:0:0:
170,194,87725,1,10,0:0:0:0:
128,184,87813,1,8,0:0:0:0:
86,174,87901,1,10,0:0:0:0:
43,166,87990,1,8,0:0:0:0:
0,160,88078,1,6,1:2:0:0:
