osu file format v14

[General]
AudioFilename: audio.mp3
AudioLeadIn: 0
PreviewTime: 36814
Countdown: 0
SampleSet: Soft
StackLeniency: 0.7
Mode: 0
LetterboxInBreaks: 0
WidescreenStoryboard: 1

[Editor]
Bookmarks: 48549,53843,88079,89843
DistanceSpacing: 1
BeatDivisor: 4
GridSize: 4
TimelineZoom: 2.499999

[Metadata]
Title:Hajimari no Sokudo (TV Size)
TitleUnicode:はじまりの速度 (TV Size)
Artist:Sangatsu no Phantasia
ArtistUnicode:三月のパンタシア
Creator:SupaV
Version:Nyukai's Normal
Source:キズナイーバー
Tags:kiznaiver j-pop jpop anime ending ed -_afifakilie_- afifakilie fluffy hair inyuschan lushifer nyukai nyu-chan unranked_mapper unranked mapper uta waifuiscute wenect wenet japanese pop j-rock jrock rock
BeatmapID:3428939
BeatmapSetID:1531850

[Difficulty]
HPDrainRate:4
CircleSize:3
OverallDifficulty:4
ApproachRate:5.5
SliderMultiplier:1.1
SliderTickRate:1

[Events]
//Background and Video events
Video,380,"hajimari.m4v"
0,0,"nori.jpg",0,0
//Break Periods
2,79814,80960
//Storyboard Layer 0 (Background)
//Storyboard Layer 1 (Fail)
//Storyboard Layer 2 (Pass)
//Storyboard Layer 3 (Foreground)
//Storyboard Layer 4 (Overlay)
//Storyboard Sound Samples

[TimingPoints]
564,352.941176470588,4,2,1,40,1,0
564,-100,4,2,1,40,0,0
10093,333.333333333333,4,2,1,40,1,0
10426,361.44578313253,4,2,1,40,1,0
10787,326.086956521739,4,2,1,40,1,0
11113,394.736842105263,4,2,1,40,1,0
11850,352.941176470588,4,2,1,50,1,0
11850,-100,4,2,1,50,0,0
12202,-100,4,2,4,50,0,0
17320,-100,4,2,1,50,0,0
17849,-100,4,2,4,50,0,0
19600,-100,4,2,4,50,0,0
19614,-100,4,2,1,50,0,0
20320,-100,4,2,1,60,0,0
23130,-100,4,2,1,60,0,0
25085,-100,4,2,2,60,0,0
25614,-100,4,2,1,60,0,0
28777,-100,4,2,1,60,0,0
29143,-100,4,2,2,60,0,0
31600,-100,4,2,2,60,0,0
31614,-100,4,2,1,60,0,0
34085,-100,4,2,3,60,0,0
34424,-100,4,2,3,60,0,0
34437,-100,4,2,1,60,0,0
34614,-100,4,2,1,45,0,0
34790,-100,4,2,1,50,0,0
34967,-100,4,2,1,55,0,0
35143,-100,4,2,1,60,0,0
35320,-100,4,2,1,65,0,0
35496,-100,4,2,1,70,0,0
35937,-100,4,2,1,60,0,0
36202,-100,4,2,1,70,0,0
36290,-100,4,2,1,60,0,0
36555,-100,4,2,1,70,0,0
36732,-100,4,2,1,60,0,0
36908,-100,4,2,1,70,0,0
36996,-100,4,2,1,60,0,0
37261,-100,4,2,2,70,0,1
37437,-100,4,2,1,70,0,1
47849,-100,4,2,2,70,0,1
47937,-100,4,2,1,60,0,1
48202,-100,4,2,1,70,0,1
48290,-100,4,2,1,60,0,1
48541,-100,4,2,1,60,0,1
48555,-100,4,2,1,70,0,1
59143,-100,4,2,2,70,0,1
59232,-100,4,2,1,60,0,1
59496,-100,4,2,1,70,0,1
59585,-100,4,2,1,60,0,1
59835,-100,4,2,1,60,0,1
59849,-100,4,2,1,70,0,1
69732,-100,4,2,2,70,0,1
69908,-100,4,2,1,70,0,1
70437,-100,4,2,1,60,0,1
70614,-100,4,2,1,55,0,1
70790,-100,4,2,1,50,0,1
70967,-100,4,2,1,45,0,1
71144,-100,4,2,1,60,0,0
75379,-100,4,2,1,70,0,0
75908,-100,4,2,3,70,0,0
76790,-100,4,2,1,60,0,0
77143,-100,4,2,2,60,0,0
79614,-100,4,2,1,50,0,0
82085,337.078651685393,4,2,1,60,1,0
82085,-100,4,2,1,60,0,0
82432,352.941176470588,4,2,1,60,1,0
85255,-100,4,2,1,60,0,0
87539,-100,4,2,1,60,0,0
88079,-100,4,2,1,60,0,0
89490,-100,4,2,1,5,0,0

[Colours]
Combo1 : 44,90,186
Combo2 : 146,184,243
SliderBorder : 44,90,186
SliderTrackOverride : 207,227,255

[HitObjects]
256,193,564,5,0,0:0:0:0:
300,104,916,2,0,L|360:104,1,55,0|2,0:0|0:0,0:0:0:0:
412,104,1269,2,0,P|468:104|520:148,1,110,2|0,0:0|0:0,0:0:0:0:
488,232,1975,2,0,P|432:232|380:188,1,110,2|2,0:0|0:0,0:0:0:0:
332,200,2505,2,0,L|244:304,1,110,2|2,0:0|0:0,0:0:0:0:
192,356,3211,1,2,0:0:0:0:
96,76,4269,5,2,0:0:0:0:
148,91,4446,2,0,L|206:111,1,55,2|2,0:0|0:0,0:0:0:0:
255,125,4799,1,0,0:0:0:0:
344,172,5152,1,0,0:0:0:0:
428,224,5505,2,0,P|451:271|427:319,1,110,2|2,0:0|0:0,0:0:0:0:
332,352,6211,5,0,0:0:0:0:
184,332,6740,2,0,P|128:332|76:284,1,110,2|2,0:0|0:0,0:0:0:0:
64,208,7446,1,2,0:0:0:0:
64,208,7622,2,0,P|120:208|172:256,1,110,2|2,0:0|0:0,0:0:0:0:
204,208,8152,2,0,L|272:96,1,110,2|2,0:0|0:0,0:0:0:0:
360,148,8858,1,2,0:0:0:0:
360,148,9034,6,0,L|302:242,1,110,2|0,0:0|0:0,0:0:0:0:
264,276,9563,1,2,0:0:0:0:
264,276,9740,2,0,P|217:299|169:275,1,110,2|0,0:0|0:0,0:0:0:0:
104,192,10426,2,0,L|164:96,1,110,2|2,0:0|0:0,0:0:0:0:
256,28,11113,2,0,P|308:28|360:72,1,110,2|6,0:0|0:0,0:0:0:0:
388,164,11850,5,4,0:0:0:0:
416,268,12202,1,2,3:2:0:0:
344,352,12555,1,2,3:2:0:0:
256,288,12908,1,2,3:2:0:0:
168,352,13261,2,0,L|124:236,1,110,0|0,3:0|3:0,0:0:0:0:
84,148,13967,1,2,3:2:0:0:
52,44,14320,2,0,L|112:44,1,55,0|2,3:0|0:0,0:0:0:0:
164,44,14673,5,2,3:2:0:0:
260,96,15026,2,0,P|300:96|324:76,1,55,2|2,3:2|0:0,0:0:0:0:
364,64,15379,2,0,B|411:41|411:41|463:65,1,110,0|2,3:0|3:2,0:0:0:0:
464,176,16085,2,0,B|416:198|416:198|364:174,1,110,0|0,3:0|3:0,0:0:0:0:
256,160,16791,1,2,3:2:0:0:
147,174,17144,2,0,L|104:232,1,55,2|2,3:2|0:0,0:0:0:0:
84,260,17497,5,0,1:0:0:0:
168,332,17849,2,0,P|220:332|272:288,1,110,2|0,3:2|3:0,0:0:0:0:
336,216,18555,1,2,3:2:0:0:
256,140,18908,2,0,P|204:140|152:184,1,110,2|6,3:2|3:2,0:0:0:0:
132,280,19614,2,0,L|204:336,1,55,8|10,0:0|0:0,0:0:0:0:
232,312,19967,2,0,L|304:368,1,55,8|10,1:2|0:0,0:0:0:0:
332,344,20320,5,4,1:2:0:0:
416,272,20673,2,0,B|416:228|416:228|432:204|432:204|432:156,1,110,10|0,0:0|1:0,0:0:0:0:
372,72,21379,1,10,0:0:0:0:
304,160,21732,2,0,B|256:182|256:182|204:158,1,110,2|10,1:2|0:0,0:0:0:0:
140,72,22438,2,0,L|140:16,2,55,2|8|10,1:2|0:0|1:2,0:0:0:0:
48,133,23144,6,0,P|47:184|86:226,1,110,6|10,1:2|0:0,0:0:0:0:
136,248,23673,2,0,P|183:271|230:247,1,110,0|2,1:0|1:2,0:0:0:0:
256,196,24202,1,10,0:0:0:0:
348,136,24555,2,0,P|395:112|442:136,1,110,0|8,1:0|0:0,0:0:0:0:
442,247,25261,2,0,P|395:271|348:248,1,110,2|12,1:2|0:0,0:0:0:0:
292,244,25791,1,2,1:2:0:0:
292,244,25967,6,0,B|248:244|248:244|224:260|224:260|176:260,1,110,2|10,1:2|0:0,0:0:0:0:
148,224,26497,2,0,L|100:116,1,110,2|2,1:2|1:2,0:0:0:0:
76,76,27026,1,10,0:0:0:0:
184,56,27379,2,0,B|228:56|228:56|252:40|252:40|300:40,1,110,0|8,1:0|0:0,0:0:0:0:
392,76,28085,1,2,1:2:0:0:
392,188,28438,1,4,1:3:0:0:
392,300,28791,6,0,P|368:336|304:336,1,110,4|2,1:0|3:2,0:0:0:0:
224,280,29497,1,10,3:2:0:0:
156,212,29849,2,0,L|112:156,1,55,2|8,3:2|0:0,0:0:0:0:
96,132,30202,1,2,1:2:0:0:
96,132,30379,2,0,B|128:88|188:88|188:88|260:88,1,165,8|10,0:0|3:2,0:0:0:0:
344,104,31261,1,10,3:2:0:0:
432,144,31614,6,0,P|456:191|432:238,1,110,4|8,1:0|0:0,0:0:0:0:
352,312,32320,1,2,1:2:0:0:
256,260,32673,1,8,0:0:0:0:
160,312,33026,2,0,P|135:264|160:217,1,110,2|8,1:2|0:0,0:0:0:0:
208,192,33555,2,0,P|232:144|207:97,1,110,2|0,1:2|1:0,0:0:0:0:
160,68,34085,1,14,0:0:0:0:
256,16,34438,6,0,L|384:16,1,110,6|10,1:2|1:2,0:0:0:0:
412,44,34967,1,10,0:0:0:0:
484,128,35320,1,10,0:0:0:0:
412,212,35673,1,10,0:0:0:0:
412,212,35849,2,0,L|324:320,1,110,12|10,1:2|1:2,0:0:0:0:
256,368,36555,1,12,1:2:0:0:
168,300,36908,1,10,1:2:0:0:
256,236,37261,6,0,B|272:180|240:180|256:124,1,110,4|10,1:0|0:0,0:0:0:0:
216,80,37791,2,0,B|163:65|163:97|107:81,1,110,2|0,1:2|1:0,0:0:0:0:
52,56,38319,1,10,0:0:0:0:
24,172,38673,1,2,1:2:0:0:
116,260,39026,1,10,0:0:0:0:
116,260,39202,2,0,B|160:292|160:292|220:292,1,110,2|0,1:2|1:0,0:0:0:0:
256,248,39732,1,10,0:0:0:0:
364,192,40085,6,0,B|408:160|408:160|468:160,1,110,2|8,1:2|0:0,0:0:0:0:
496,220,40614,1,2,1:2:0:0:
496,220,40791,2,0,P|496:276|460:324,1,110,0|8,1:0|0:0,0:0:0:0:
410,342,41320,1,2,1:2:0:0:
352,360,41497,1,2,1:2:0:0:
236,320,41849,2,0,L|156:320,1,55,8|2,0:0|1:2,0:0:0:0:
120,312,42202,2,0,B|104:276|104:276|108:236|108:236|92:192,1,110,2|10,1:2|0:0,0:0:0:0:
105,146,42732,1,8,0:0:0:0:
124,88,42908,6,0,B|168:88|168:88|196:72|196:72|264:72,1,110,6|10,1:2|0:0,0:0:0:0:
292,80,43438,1,2,1:2:0:0:
400,132,43791,2,0,L|476:168,1,55,2|10,1:2|0:0,0:0:0:0:
500,176,44144,1,2,1:2:0:0:
500,176,44320,2,0,B|500:232|500:232|472:280,1,110,0|10,1:0|0:0,0:0:0:0:
416,304,44849,1,2,1:2:0:0:
295,297,45202,2,0,L|249:242,1,55,2|8,1:2|0:0,0:0:0:0:
228,204,45555,1,2,1:2:0:0:
204,148,45732,6,0,P|179:100|204:53,1,110,2|8,1:2|0:0,0:0:0:0:
256,24,46261,1,2,1:2:0:0:
309,53,46438,2,0,P|332:101|308:148,1,110,2|8,1:2|0:0,0:0:0:0:
252,256,47144,1,6,1:2:0:0:
360,312,47497,1,10,0:0:0:0:
416,204,47849,1,14,1:2:0:0:
307,148,48202,2,0,L|235:100,1,55,10|8,1:2|0:0,0:0:0:0:
212,84,48555,6,0,P|164:60|117:85,1,110,4|10,1:0|0:0,0:0:0:0:
84,136,49085,2,0,L|124:252,1,110,2|2,1:2|1:2,0:0:0:0:
240,284,49791,1,2,1:2:0:0:
240,284,49967,2,0,L|204:180,1,110,0|10,1:0|0:0,0:0:0:0:
208,120,50497,2,0,P|255:95|302:119,1,110,2|0,1:2|1:0,0:0:0:0:
340,168,51026,2,0,L|404:240,1,55,8|2,0:0|1:2,0:0:0:0:
416,256,51379,5,2,1:2:0:0:
332,344,51732,1,10,0:0:0:0:
332,344,51908,2,0,P|276:344|236:304,1,110,2|2,1:2|1:2,0:0:0:0:
188,204,52614,1,2,1:2:0:0:
188,204,52791,2,0,B|164:152|164:152|187:105,1,110,0|10,1:0|0:0,0:0:0:0:
220,60,53320,1,2,1:2:0:0:
256,20,53497,1,0,1:0:0:0:
368,60,53849,2,0,L|412:104,1,55,8|10,0:0|0:0,0:0:0:0:
444,144,54202,6,0,P|467:191|442:238,1,110,4|10,1:2|0:0,0:0:0:0:
388,268,54732,2,0,B|348:268|348:268|324:280|324:280|268:280,1,110,2|2,1:2|1:2,0:0:0:0:
224,296,55261,1,10,0:0:0:0:
140,208,55614,2,0,B|140:168|140:168|128:144|128:144|128:88,1,110,0|8,1:0|0:0,0:0:0:0:
188,80,56144,1,2,1:2:0:0:
188,80,56320,1,2,1:2:0:0:
292,18,56673,2,0,L|347:18,1,55,8|2,0:0|1:2,0:0:0:0:
404,40,57026,6,0,P|456:40|504:88,1,110,2|8,1:2|0:0,0:0:0:0:
496,132,57555,1,2,0:0:0:0:
496,132,57732,2,0,L|456:260,1,110,2|12,1:2|0:0,0:0:0:0:
344,256,58438,2,0,L|376:151,1,110,8|8,1:2|1:3,0:0:0:0:
312,48,59144,1,14,1:2:0:0:
232,140,59497,1,10,1:2:0:0:
156,232,59849,6,0,P|196:276|252:276,1,110,4|10,1:0|0:0,0:0:0:0:
300,300,60379,2,0,B|353:315|353:283|409:299,1,110,0|0,1:0|1:0,0:0:0:0:
456,332,60907,1,10,0:0:0:0:
480,212,61261,1,2,1:2:0:0:
400,132,61614,1,10,0:0:0:0:
400,132,61791,2,0,B|356:100|356:100|296:100,1,110,2|0,1:2|1:0,0:0:0:0:
256,144,62320,1,10,0:0:0:0:
152,204,62673,6,0,B|108:236|108:236|48:236,1,110,2|8,1:2|0:0,0:0:0:0:
8,204,63202,1,2,1:2:0:0:
8,204,63379,2,0,P|7:150|38:105,1,110,0|8,1:0|0:0,0:0:0:0:
88,68,63908,1,2,1:2:0:0:
140,48,64085,1,2,1:2:0:0:
256,76,64438,2,0,L|336:76,1,55,8|2,0:0|1:2,0:0:0:0:
372,88,64791,2,0,B|388:124|388:124|384:164|384:164|400:208,1,110,2|8,1:2|0:0,0:0:0:0:
392,252,65320,1,10,0:0:0:0:
392,312,65497,6,0,B|348:312|348:312|320:328|320:328|252:328,1,110,6|8,1:2|0:0,0:0:0:0:
165,320,66202,2,0,L|186:226,2,82.5,2|2|2,1:2|0:0|1:2,0:0:0:0:
105,306,66908,2,0,P|64:282|67:223,1,110,2|10,1:2|0:0,0:0:0:0:
103,176,67438,1,2,1:2:0:0:
205,112,67791,2,0,L|246:162,1,55,2|8,1:2|0:0,0:0:0:0:
278,201,68144,1,2,1:2:0:0:
308,252,68320,6,0,P|333:300|308:347,1,110,6|8,1:2|0:0,0:0:0:0:
256,376,68849,1,2,1:2:0:0:
203,347,69026,2,0,P|180:299|204:252,1,110,2|8,1:2|0:0,0:0:0:0:
256,144,69732,1,12,0:0:0:0:
148,92,70085,1,8,0:0:0:0:
96,200,70438,1,10,1:2:0:0:
204,251,70791,2,0,L|276:299,1,55,0|4,1:2|0:3,0:0:0:0:
308,304,71144,6,0,P|372:304|416:252,1,110,4|2,1:0|1:2,0:0:0:0:
428,232,71673,2,0,L|456:108,1,110,2|2,0:0|0:0,0:0:0:0:
364,92,72379,1,2,0:0:0:0:
364,92,72555,2,0,L|339:199,1,110,0|0,1:0|1:0,0:0:0:0:
328,248,73085,1,2,0:0:0:0:
328,248,73261,1,2,1:2:0:0:
232,276,73614,1,0,1:0:0:0:
136,304,73967,6,0,B|112:252|112:252|112:188,1,110,2|2,1:2|1:2,0:0:0:0:
108,148,74497,2,0,L|240:128,1,110,2|2,0:0|0:0,0:0:0:0:
208,36,75202,1,2,0:0:0:0:
208,36,75379,2,0,L|99:52,1,110,14|2,0:0|1:2,0:0:0:0:
52,64,75908,1,14,0:0:0:0:
108,148,76261,1,14,0:0:0:0:
176,244,76614,5,10,0:0:0:0:
176,244,76791,2,0,P|244:244|316:148,1,165,4|0,1:0|1:0,0:0:0:0:
368,172,77497,1,8,3:2:0:0:
368,172,77673,2,0,L|300:64,1,110,2|8,0:0|0:0,0:0:0:0:
276,32,78202,1,2,1:2:0:0:
196,108,78555,1,0,3:0:0:0:
108,172,78908,2,0,L|60:220,1,55,10|8,3:2|0:0,0:0:0:0:
96,260,79261,2,0,L|48:308,1,55,10|8,3:2|0:0,0:0:0:0:
84,348,79614,5,2,0:0:0:0:
444,196,82085,5,10,0:0:0:0:
352,136,82432,2,0,P|256:88|160:136,1,220,4|0,1:0|1:0,0:0:0:0:
112,152,83314,1,2,1:2:0:0:
112,152,83490,1,8,0:0:0:0:
161,249,83843,2,0,L|256:336,1,110,2|10,1:2|0:0,0:0:0:0:
340,276,84549,1,2,1:2:0:0:
412,192,84902,1,10,0:0:0:0:
340,108,85255,6,0,P|276:108|232:60,1,110,14|8,0:0|0:0,0:0:0:0:
192,52,85784,1,2,1:2:0:0:
192,52,85961,2,0,P|128:52|84:100,1,110,10|8,0:0|0:0,0:0:0:0:
64,124,86490,1,2,1:2:0:0:
64,124,86667,1,14,0:0:0:0:
128,212,87020,2,0,L|184:268,1,55,8|2,0:0|1:2,0:0:0:0:
209,285,87373,2,0,B|256:308|256:308|308:284,1,110,12|10,0:0|0:0,0:0:0:0:
372,192,88079,5,6,1:2:0:0:
