osu file format v14

[General]
AudioFilename: audio.mp3
AudioLeadIn: 0
PreviewTime: 36814
Countdown: 0
SampleSet: Soft
StackLeniency: 0.7
Mode: 0
LetterboxInBreaks: 0
WidescreenStoryboard: 1

[Editor]
Bookmarks: 88079,89874
DistanceSpacing: 0.6
BeatDivisor: 4
GridSize: 16
TimelineZoom: 1.4

[Metadata]
Title:Hajimari no Sokudo (TV Size)
TitleUnicode:はじまりの速度 (TV Size)
Artist:Sangatsu no Phantasia
ArtistUnicode:三月のパンタシア
Creator:SupaV
Version:Hard
Source:キズナイーバー
Tags:kiznaiver j-pop jpop anime ending ed -_afifakilie_- afifakilie fluffy hair inyuschan lushifer nyukai nyu-chan unranked_mapper unranked mapper uta waifuiscute wenect wenet japanese pop j-rock jrock rock
BeatmapID:3396199
BeatmapSetID:1531850

[Difficulty]
HPDrainRate:4.5
CircleSize:3.8
OverallDifficulty:6
ApproachRate:8
SliderMultiplier:1.32
SliderTickRate:1

[Events]
//Background and Video events
0,0,"wallpaper.jpg",0,0
Video,380,"hajimari.m4v"
//Break Periods
2,79814,81335
//Storyboard Layer 0 (Background)
//Storyboard Layer 1 (Fail)
//Storyboard Layer 2 (Pass)
//Storyboard Layer 3 (Foreground)
//Storyboard Layer 4 (Overlay)
//Storyboard Sound Samples

[TimingPoints]
564,352.941176470588,4,2,1,40,1,0
564,-142.857142857143,4,2,1,40,0,0
10093,333.333333333333,4,2,1,40,1,0
10093,-125,4,2,1,40,0,0
10426,361.44578313253,4,2,1,40,1,0
10426,-100,4,2,1,40,0,0
10787,326.086956521739,4,2,1,40,1,0
11113,394.736842105263,4,2,1,40,1,0
11850,352.941176470588,4,2,1,50,1,0
11850,-100,4,2,1,50,0,0
12202,-100,4,2,4,50,0,0
17320,-100,4,2,1,50,0,0
17849,-100,4,2,4,50,0,0
19614,-100,4,2,1,50,0,0
20320,-100,4,2,1,60,0,0
25085,-100,4,2,2,60,0,0
25614,-100,4,2,1,60,0,0
28791,-111.111111111111,4,2,1,60,0,0
29143,-111.111111111111,4,2,2,60,0,0
31614,-100,4,2,1,60,0,0
34085,-100,4,2,3,60,0,0
34437,-100,4,2,1,60,0,0
34614,-100,4,2,1,45,0,0
34790,-100,4,2,1,50,0,0
34967,-100,4,2,1,55,0,0
35143,-100,4,2,1,60,0,0
35320,-100,4,2,1,65,0,0
35496,-100,4,2,1,70,0,0
35937,-100,4,2,1,60,0,0
36202,-100,4,2,1,70,0,0
36290,-100,4,2,1,60,0,0
36555,-100,4,2,1,70,0,0
36732,-100,4,2,1,60,0,0
36908,-100,4,2,1,70,0,0
36996,-100,4,2,1,60,0,0
37261,-83.3333333333333,4,2,2,70,0,1
37437,-83.3333333333333,4,2,1,70,0,1
47144,-83.3333333333333,4,2,1,70,0,1
47849,-83.3333333333333,4,2,2,70,0,1
47937,-83.3333333333333,4,2,1,60,0,1
48202,-83.3333333333333,4,2,1,70,0,1
48290,-83.3333333333333,4,2,1,60,0,1
48555,-100,4,2,1,70,0,0
59143,-100,4,2,2,70,0,0
59232,-100,4,2,1,60,0,0
59496,-100,4,2,1,70,0,0
59585,-100,4,2,1,60,0,0
59849,-83.3333333333333,4,2,1,70,0,1
69732,-90.9090909090909,4,2,2,70,0,1
69908,-90.9090909090909,4,2,1,70,0,1
70437,-90.9090909090909,4,2,1,60,0,1
70614,-90.9090909090909,4,2,1,55,0,0
70790,-90.9090909090909,4,2,1,50,0,0
70967,-90.9090909090909,4,2,1,45,0,0
71144,-111.111111111111,4,2,1,60,0,0
75379,-100,4,2,1,70,0,0
75908,-100,4,2,3,70,0,0
76791,-111.111111111111,4,2,1,60,0,0
77143,-111.111111111111,4,2,2,60,0,0
79614,-111.111111111111,4,2,1,50,0,0
82085,337.078651685393,4,2,1,60,1,0
82085,-100,4,2,1,60,0,0
82432,352.941176470588,4,2,1,60,1,0
85255,-83.3333333333333,4,2,1,60,0,0
86490,-83.3333333333333,4,2,1,60,0,0
87196,-83.3333333333333,4,2,1,60,0,0
87549,-83.3333333333333,4,2,1,60,0,0
89490,-83.3333333333333,4,2,1,5,0,0

[Colours]
Combo1 : 255,131,121
Combo2 : 251,29,4
Combo3 : 178,205,250
Combo4 : 102,129,184

[HitObjects]
67,168,564,6,0,P|73:196|83:228,2,46.1999985900879
140,110,1093,1,2,0:0:0:0:
140,110,1269,2,0,P|143:69|149:26,2,69.2999978851319,2|2|2,0:0|0:0|0:0,0:0:0:0:
179,193,1975,2,0,P|220:216|281:197,1,92.3999971801759,2|2,0:0|0:0,0:0:0:0:
339,155,2505,1,2,0:0:0:0:
313,338,2858,1,2,0:0:0:0:
483,266,3211,6,0,P|506:164|460:84,1,184.799994360352,2|0,0:0|0:0,0:0:0:0:
309,7,4269,2,0,P|304:37|304:60,1,46.1999985900879,2|2,0:0|0:0,0:0:0:0:
365,121,4622,2,0,P|301:97|223:106,1,138.599995770264,2|0,0:0|0:0,0:0:0:0:
68,16,5505,1,2,0:0:0:0:
232,102,5858,6,0,P|225:163|217:248,1,138.599995770264,2|0,0:0|0:0,0:0:0:0:
86,369,6740,2,0,P|43:359|21:308,2,92.3999971801759,2|2|2,0:0|0:0|0:0,0:0:0:0:
100,277,7622,2,0,P|92:217|86:166,1,92.3999971801759,2|2,0:0|0:0,0:0:0:0:
35,108,8152,2,0,P|63:91|90:90,1,46.1999985900879,2|0,0:0|0:0,0:0:0:0:
159,128,8505,1,2,0:0:0:0:
296,4,8858,1,2,0:0:0:0:
296,4,9034,6,0,B|288:66|280:147,1,138.599995770264,2|2,0:0|0:0,0:0:0:0:
347,205,9740,1,2,0:0:0:0:
183,357,10093,1,0,0:0:0:0:
340,260,10426,6,0,P|349:197|363:128,1,132,2|2,0:0|0:0,0:0:0:0:
224,42,11113,1,2,0:0:0:0:
323,13,11310,1,0,3:0:0:0:
323,13,11409,1,0,3:0:0:0:
323,13,11507,2,0,P|358:-4|400:8,1,66,6|0,0:0|0:0,0:0:0:0:
468,43,11850,5,4,0:0:0:0:
315,168,12202,2,0,P|326:234|338:311,2,132,2|2|2,3:2|3:2|3:2,0:0:0:0:
199,6,13261,2,0,P|137:2|96:67,1,132,0|0,3:0|3:0,0:0:0:0:
143,147,13791,1,2,0:0:0:0:
143,147,13967,2,0,P|196:138|268:131,2,99,2|2|2,3:2|0:0|0:0,0:0:0:0:
87,64,14673,6,0,P|59:88|43:137,1,66,2|2,3:2|0:0,0:0:0:0:
4,205,15026,1,2,3:2:0:0:
4,205,15202,2,0,P|14:273|29:362,1,132,2|2,0:0|0:0,0:0:0:0:
114,377,15732,2,0,P|156:371|198:366,1,66,2|0,3:2|0:0,0:0:0:0:
277,382,16085,2,0,P|296:311|252:247,1,132,0|0,3:0|3:0,0:0:0:0:
196,78,16791,2,0,P|227:61|272:71,1,66,2|0,3:2|0:0,0:0:0:0:
344,15,17144,2,0,P|338:56|333:97,1,66,2|2,3:2|0:0,0:0:0:0:
412,142,17497,2,0,P|422:206|436:287,1,132,0|2,1:0|3:2,0:0:0:0:
406,370,18026,5,0,0:0:0:0:
406,370,18202,2,0,P|370:359|331:354,1,66,0|0,3:0|0:0,0:0:0:0:
282,275,18555,2,0,P|248:279|205:293,1,66,2|0,3:2|0:0,0:0:0:0:
128,332,18908,1,2,3:2:0:0:
2,179,19261,2,0,P|8:216|16:268,1,66,6|2,3:2|0:0,0:0:0:0:
111,254,19614,2,0,L|117:214,3,33,8|8|10|8,0:0|0:0|0:0|0:0,0:0:0:0:
94,176,19967,2,0,L|85:125,3,33,8|8|10|8,1:2|0:0|0:0|0:0,0:0:0:0:
94,93,20320,6,0,P|72:30|3:35,2,132,4|10|0,1:2|0:0|1:0,0:0:0:0:
182,149,21202,1,0,1:0:0:0:
182,149,21379,2,0,P|218:139|267:136,1,66,10|0,0:0|0:0,0:0:0:0:
331,84,21732,6,0,P|397:79|428:156,2,132,2|10|2,1:2|0:0|1:2,0:0:0:0:
246,135,22614,1,8,0:0:0:0:
246,135,22702,1,8,0:0:0:0:
246,135,22791,2,0,L|245:191,3,33,10|8|8|8,1:2|0:0|0:0|0:0,0:0:0:0:
208,201,23144,6,0,P|224:259|230:352,1,132,6|10,1:2|0:0,0:0:0:0:
316,380,23673,2,0,P|351:367|403:370,1,66,0|0,1:0|1:0,0:0:0:0:
443,290,24026,1,2,1:2:0:0:
443,290,24202,2,0,P|416:276|365:269,1,66,10|0,0:0|1:0,0:0:0:0:
303,207,24555,6,0,P|339:144|405:147,1,132,0|8,1:0|0:0,0:0:0:0:
490,177,25085,1,6,0:0:0:0:
490,177,25261,2,0,P|498:104|504:18,1,132,2|12,1:2|0:0,0:0:0:0:
416,27,25791,1,2,1:2:0:0:
416,27,25879,1,8,0:0:0:0:
416,27,25967,6,0,P|379:73|398:148,1,132,2|10,1:2|0:0,0:0:0:0:
386,240,26497,2,0,P|352:231|314:226,1,66,2|0,1:2|1:0,0:0:0:0:
226,251,26849,1,2,1:2:0:0:
154,182,27026,6,0,P|94:188|74:266,1,132,10|0,0:0|1:0,0:0:0:0:
112,337,27555,1,0,1:0:0:0:
200,292,27732,2,0,P|240:301|285:304,1,66,8|0,0:0|1:0,0:0:0:0:
307,338,27997,1,8,0:0:0:0:
307,338,28085,1,2,1:2:0:0:
400,306,28261,1,8,0:3:0:0:
465,380,28438,1,4,1:3:0:0:
483,366,28791,6,0,P|501:309|472:234,1,118.799996374512,4|2,1:0|3:2,0:0:0:0:
398,214,29320,1,0,1:0:0:0:
398,214,29497,2,0,P|404:151|413:70,1,118.799996374512,10|2,3:2|3:2,0:0:0:0:
471,15,30026,2,0,L|515:8,2,29.699999093628,8|8|2,0:0|0:0|1:2,0:0:0:0:
370,30,30379,1,8,0:0:0:0:
169,3,30732,1,0,1:0:0:0:
79,49,30908,2,0,P|95:113|97:186,1,118.799996374512,10|10,3:2|3:2,0:0:0:0:
36,247,31438,1,8,0:0:0:0:
36,247,31526,1,8,0:0:0:0:
36,247,31614,6,0,P|100:272|171:230,1,132,4|8,1:0|0:0,0:0:0:0:
234,186,32144,1,0,1:0:0:0:
234,186,32232,1,8,0:0:0:0:
234,186,32320,2,0,P|239:140|247:96,1,66,2|0,1:2|1:0,0:0:0:0:
284,30,32673,2,0,P|320:17|366:40,1,66,8|0,0:0|0:0,0:0:0:0:
445,30,33026,6,0,P|426:102|418:181,1,132,2|8,1:2|0:0,0:0:0:0:
490,242,33555,1,2,1:2:0:0:
490,242,33644,1,8,0:0:0:0:
490,242,33732,2,0,P|465:259|414:270,1,66,0|0,1:0|1:0,0:0:0:0:
345,320,34085,2,0,P|380:361|413:367,1,66,14|0,0:0|0:0,0:0:0:0:
488,353,34438,5,6,1:2:0:0:
338,223,34791,2,0,P|327:184|314:137,1,66,10|10,1:2|0:0,0:0:0:0:
234,108,35144,2,0,P|221:148|215:187,1,66,8|10,1:2|0:0,0:0:0:0:
247,265,35497,1,8,1:2:0:0:
247,265,35673,1,10,0:0:0:0:
163,317,35849,5,12,1:2:0:0:
77,266,36026,1,8,0:0:0:0:
77,266,36114,1,8,0:0:0:0:
77,266,36202,2,0,L|90:209,3,33,10|8|10|8,1:2|0:0|0:0|0:0,0:0:0:0:
116,195,36555,1,12,1:2:0:0:
49,136,36732,5,8,0:0:0:0:
49,136,36820,1,8,0:0:0:0:
49,136,36908,2,0,L|39:104,3,33,10|8|8|8,1:2|0:0|0:0|0:0,0:0:0:0:
42,52,37261,6,0,P|122:25|203:36,1,158.399995166016,4|10,1:0|0:0,0:0:0:0:
302,14,37791,1,2,1:2:0:0:
302,14,37879,1,8,0:0:0:0:
302,14,37967,2,0,P|293:59|289:99,1,79.1999975830079,0|0,1:0|1:0,0:0:0:0:
329,187,38320,2,0,P|371:178|421:170,1,79.1999975830079,10|0,0:0|1:0,0:0:0:0:
469,253,38673,6,0,P|391:268|292:285,1,158.399995166016,2|10,1:2|0:0,0:0:0:0:
225,250,39202,1,2,1:2:0:0:
225,250,39291,1,8,0:0:0:0:
225,250,39379,2,0,P|234:292|245:332,1,79.1999975830079,0|0,1:0|1:0,0:0:0:0:
154,379,39732,2,0,P|113:377|84:323,1,79.1999975830079,10|0,0:0|1:0,0:0:0:0:
43,336,39997,1,8,0:0:0:0:
43,336,40085,6,0,B|36:265|36:265|45:252|45:252|41:177,1,158.399995166016,2|8,1:2|0:0,0:0:0:0:
6,83,40614,1,2,1:2:0:0:
101,122,40791,2,0,P|148:127|178:89,1,79.1999975830079,0|0,1:0|1:0,0:0:0:0:
241,33,41144,2,0,P|255:72|270:126,1,79.1999975830079,8|2,0:0|1:2,0:0:0:0:
345,174,41497,6,0,P|284:213|183:173,1,158.399995166016,2|8,1:2|0:0,0:0:0:0:
114,154,42026,1,2,1:2:0:0:
114,154,42202,2,0,P|119:193|126:236,1,79.1999975830079,2|0,1:2|1:0,0:0:0:0:
160,329,42555,2,0,P|203:336|258:295,1,79.1999975830079,10|8,0:0|0:0,0:0:0:0:
290,321,42820,1,8,0:0:0:0:
290,321,42908,6,0,B|328:306|356:342|356:342|386:382|441:365,1,158.399995166016,6|10,1:2|0:0,0:0:0:0:
505,297,43438,2,0,P|498:243|492:200,1,79.1999975830079,2|0,1:2|1:0,0:0:0:0:
510,116,43791,1,2,1:2:0:0:
438,50,43967,1,10,0:0:0:0:
438,50,44144,6,0,P|381:91|283:68,1,158.399995166016,2|0,1:2|1:0,0:0:0:0:
203,49,44673,1,10,0:0:0:0:
203,49,44849,2,0,P|211:89|220:139,1,79.1999975830079,2|0,1:2|1:0,0:0:0:0:
278,210,45202,2,0,P|271:252|265:294,1,79.1999975830079,2|8,1:2|0:0,0:0:0:0:
190,357,45555,1,2,1:2:0:0:
190,357,45644,1,8,0:0:0:0:
190,357,45732,6,0,P|130:372|86:296,1,158.399995166016,2|8,1:2|0:0,0:0:0:0:
31,223,46261,1,2,1:2:0:0:
31,223,46349,1,8,0:0:0:0:
31,223,46438,2,0,P|73:215|119:211,1,79.1999975830079,2|0,1:2|1:0,0:0:0:0:
202,255,46791,2,0,P|208:214|214:172,1,79.1999975830079,8|0,0:0|1:0,0:0:0:0:
257,87,47144,6,0,P|291:66|346:80,1,79.1999975830079,6|0,1:2|1:0,0:0:0:0:
382,157,47497,2,0,P|345:171|302:158,1,79.1999975830079,10|0,0:0|0:0,0:0:0:0:
205,168,47849,2,0,P|199:191|193:222,3,39.5999987915039,14|8|8|8,1:2|0:0|0:0|0:0,0:0:0:0:
175,254,48202,2,0,P|182:270|189:295,3,39.5999987915039,10|8|8|8,1:2|0:0|0:0|0:0,0:0:0:0:
228,322,48555,6,0,P|283:373|341:356,1,132,4|10,1:0|0:0,0:0:0:0:
439,382,49085,1,2,1:2:0:0:
439,382,49173,1,8,0:0:0:0:
439,382,49261,2,0,P|445:338|451:292,1,66,0|2,1:0|1:2,0:0:0:0:
510,239,49614,2,0,P|502:192|493:151,1,66,8|2,0:0|1:2,0:0:0:0:
473,137,49879,1,8,0:0:0:0:
473,137,49967,6,0,P|498:60|454:15,1,132,0|10,1:0|0:0,0:0:0:0:
374,1,50497,1,2,1:2:0:0:
299,68,50673,2,0,P|305:106|310:147,1,66,0|0,1:0|1:0,0:0:0:0:
345,225,51026,2,0,P|303:235|261:217,1,66,8|2,0:0|1:2,0:0:0:0:
203,168,51379,6,0,P|193:233|178:325,1,132,2|10,1:2|0:0,0:0:0:0:
118,374,51908,1,2,1:2:0:0:
118,374,51997,1,8,0:0:0:0:
118,374,52085,2,0,P|78:375|44:342,1,66,0|2,1:0|1:2,0:0:0:0:
8,281,52438,5,8,0:0:0:0:
8,281,52614,2,0,P|16:250|29:199,1,66,2|0,1:2|1:0,0:0:0:0:
12,122,52967,1,2,1:2:0:0:
12,122,53144,2,0,P|54:116|105:110,1,66,10|2,0:0|1:2,0:0:0:0:
135,35,53497,1,0,1:0:0:0:
135,35,53585,1,8,0:0:0:0:
135,35,53673,1,0,1:0:0:0:
230,58,53849,2,0,P|261:43|310:61,1,66,8|10,0:0|0:0,0:0:0:0:
336,78,54114,1,8,0:0:0:0:
336,78,54202,6,0,B|366:94|399:68|399:68|434:41|479:66,1,132,4|10,1:2|0:0,0:0:0:0:
508,155,54732,1,2,1:2:0:0:
508,155,54820,1,8,0:0:0:0:
508,155,54908,2,0,P|466:151|429:148,1,66,0|2,1:0|1:2,0:0:0:0:
390,233,55261,2,0,L|465:228,1,66,10|0,0:0|1:0,0:0:0:0:
502,258,55526,1,8,0:0:0:0:
502,258,55614,6,0,P|515:289|495:339,1,66,0|0,1:0|1:0,0:0:0:0:
431,381,55967,1,8,0:0:0:0:
343,360,56143,1,2,1:2:0:0:
343,360,56231,1,8,0:0:0:0:
343,360,56320,2,0,P|326:331|333:276,1,66,2|0,1:2|1:0,0:0:0:0:
396,231,56672,1,8,0:0:0:0:
480,302,56848,1,2,1:2:0:0:
480,302,56937,1,8,0:0:0:0:
480,302,57025,6,0,B|487:245|487:245|497:233|497:233|505:171,1,132,2|8,1:2|0:0,0:0:0:0:
502,74,57555,1,2,0:0:0:0:
408,40,57732,2,0,P|413:79|423:126,1,66,2|0,1:2|1:0,0:0:0:0:
336,161,58085,2,0,P|299:169|260:144,1,66,12|0,0:0|1:0,0:0:0:0:
243,127,58349,1,0,1:0:0:0:
243,127,58438,5,8,1:2:0:0:
187,210,58614,1,0,2:0:0:0:
187,210,58702,1,8,0:0:0:0:
187,210,58791,2,0,P|176:244|195:280,1,66,8|8,1:3|0:0,0:0:0:0:
247,349,59144,2,0,L|289:338,3,33,14|8|8|8,1:2|0:0|0:0|0:0,0:0:0:0:
320,368,59497,2,0,L|363:378,3,33,10|8|8|8,1:2|0:0|0:0|0:0,0:0:0:0:
403,372,59849,6,0,P|475:369|489:279,1,158.399995166016,4|10,1:0|0:0,0:0:0:0:
475,204,60379,1,0,1:0:0:0:
475,204,60467,1,8,0:0:0:0:
475,204,60555,2,0,P|436:181|389:192,1,79.1999975830079,0|0,1:0|1:0,0:0:0:0:
306,217,60908,2,0,P|316:174|328:128,1,79.1999975830079,10|0,0:0|1:0,0:0:0:0:
353,40,61261,6,0,B|312:21|277:49|277:49|241:80|188:51,1,158.399995166016,2|10,1:2|0:0,0:0:0:0:
119,18,61791,1,2,1:2:0:0:
119,18,61879,1,8,0:0:0:0:
119,18,61967,2,0,P|75:6|20:34,1,79.1999975830079,0|0,1:0|1:0,0:0:0:0:
0,112,62320,2,0,P|6:158|14:212,1,79.1999975830079,10|0,0:0|1:0,0:0:0:0:
9,246,62585,1,8,0:0:0:0:
9,246,62673,6,0,B|39:277|81:250|81:250|126:223|166:257,1,158.399995166016,2|8,1:2|0:0,0:0:0:0:
253,217,63202,1,2,1:2:0:0:
328,287,63379,2,0,P|322:326|315:369,1,79.1999975830079,0|0,1:0|1:0,0:0:0:0:
418,359,63732,2,0,P|427:313|437:263,1,79.1999975830079,8|2,0:0|1:2,0:0:0:0:
509,211,64085,6,0,P|439:177|348:220,1,158.399995166016,2|8,1:2|0:0,0:0:0:0:
270,206,64614,1,2,1:2:0:0:
270,206,64702,1,8,0:0:0:0:
270,206,64791,2,0,P|229:182|173:194,1,79.1999975830079,2|0,1:2|1:0,0:0:0:0:
120,249,65144,2,0,P|109:202|96:146,1,79.1999975830079,8|10,0:0|0:0,0:0:0:0:
62,147,65408,1,8,0:0:0:0:
62,147,65497,6,0,P|31:78|91:14,1,158.399995166016,6|8,1:2|0:0,0:0:0:0:
181,62,66026,1,0,1:2:0:0:
181,62,66114,1,8,0:0:0:0:
181,62,66202,2,0,P|225:54|270:46,1,79.1999975830079,2|0,1:2|1:0,0:0:0:0:
346,2,66555,2,0,P|359:34|342:98,1,79.1999975830079,8|2,0:0|1:2,0:0:0:0:
397,172,66908,6,0,P|318:162|226:150,1,158.399995166016,2|10,1:2|0:0,0:0:0:0:
155,110,67438,1,2,1:2:0:0:
155,110,67526,1,8,0:0:0:0:
155,110,67614,2,0,P|160:152|168:197,1,79.1999975830079,0|2,1:0|1:2,0:0:0:0:
199,286,67967,2,0,P|161:294|113:276,1,79.1999975830079,8|2,0:0|1:2,0:0:0:0:
89,250,68232,1,8,0:0:0:0:
89,250,68320,6,0,P|29:258|24:351,1,158.399995166016,6|8,1:2|0:0,0:0:0:0:
111,383,68849,1,2,1:2:0:0:
196,324,69026,2,0,P|244:313|292:302,1,79.1999975830079,2|0,1:2|1:0,0:0:0:0:
357,246,69379,2,0,P|375:280|361:346,1,79.1999975830079,8|0,0:0|1:0,0:0:0:0:
453,371,69732,5,12,0:0:0:0:
508,295,69908,1,0,1:0:0:0:
437,231,70085,1,8,0:0:0:0:
496,160,70261,1,0,1:0:0:0:
496,160,70349,1,8,0:0:0:0:
496,160,70438,2,0,L|505:105,3,36.3000011077881,10|8|8|8,1:2|0:3|0:3|0:3,0:0:0:0:
467,91,70791,2,0,L|460:55,3,36.3000011077881,0|4|4|4,1:2|0:3|0:3|0:3,0:0:0:0:
432,12,71144,6,0,P|371:19|306:26,1,118.799996374512,4|2,1:0|1:2,0:0:0:0:
251,104,71673,2,0,P|220:98|187:94,1,59.3999981872559,2|0,0:0|1:0,0:0:0:0:
125,18,72026,2,0,P|95:12|52:34,1,59.3999981872559,2|0,0:0|1:0,0:0:0:0:
9,102,72379,6,0,P|21:180|38:295,1,178.199994561768,2|0,0:0|1:0,0:0:0:0:
114,350,73085,1,2,0:0:0:0:
114,350,73261,2,0,P|158:364|204:333,2,89.0999972808839,2|2|2,1:2|0:0|0:0,0:0:0:0:
152,256,73967,6,0,P|218:239|284:234,1,118.799996374512,2|2,1:2|1:2,0:0:0:0:
366,206,74497,2,0,P|359:242|352:286,1,59.3999981872559,2|0,0:0|1:0,0:0:0:0:
412,347,74849,1,2,0:0:0:0:
512,201,75202,1,2,0:0:0:0:
512,201,75379,6,0,P|514:163|493:130,1,66,14|0,0:0|1:0,0:0:0:0:
432,67,75732,1,2,1:2:0:0:
343,111,75908,2,0,P|307:106|262:100,1,66,14|0,0:0|1:0,0:0:0:0:
208,173,76261,2,0,P|168:179|129:149,1,66,14|0,0:0|0:0,0:0:0:0:
67,126,76614,1,10,0:0:0:0:
67,126,76702,1,8,0:0:0:0:
67,126,76791,5,4,1:0:0:0:
4,204,76967,2,0,P|15:257|26:339,1,118.799996374512,0|0,1:0|1:0,0:0:0:0:
106,381,77497,2,0,P|157:339|221:357,1,118.799996374512,8|0,3:2|3:0,0:0:0:0:
307,384,78026,1,8,0:0:0:0:
307,384,78114,1,8,0:0:0:0:
307,384,78202,5,2,1:2:0:0:
371,306,78379,2,0,P|384:246|333:190,1,118.799996374512,8|0,0:0|1:0,0:0:0:0:
255,222,78908,2,0,P|245:184|237:148,1,59.3999981872559,10|8,3:2|0:0,0:0:0:0:
152,113,79261,2,0,P|162:75|170:39,1,59.3999981872559,10|8,3:2|0:0,0:0:0:0:
252,2,79614,5,2,0:0:0:0:
509,0,82085,6,0,P|502:17|496:36,3,33,10|8|10|8,0:0|0:0|0:0|0:0,0:0:0:0:
456,65,82432,6,0,P|468:128|475:207,1,132,4|8,1:0|0:0,0:0:0:0:
444,292,82961,1,0,1:0:0:0:
444,292,83049,1,8,0:0:0:0:
444,292,83138,1,0,1:0:0:0:
374,229,83314,1,2,1:2:0:0:
293,287,83490,1,8,0:0:0:0:
293,287,83667,1,0,1:2:0:0:
206,238,83843,6,0,P|169:233|123:226,1,66,2|0,1:2|1:0,0:0:0:0:
51,273,84196,2,0,P|38:236|49:192,1,66,10|0,0:0|1:0,0:0:0:0:
6,117,84549,2,0,P|49:109|95:99,1,66,2|0,1:2|1:0,0:0:0:0:
148,42,84902,2,0,P|167:82|160:128,1,66,10|4,0:0|0:3,0:0:0:0:
201,200,85255,6,0,B|233:221|274:191|274:191|319:159|368:188,1,158.399995166016,14|8,0:0|0:0,0:0:0:0:
430,251,85784,1,2,1:2:0:0:
430,251,85961,2,0,P|439:203|453:150,1,79.1999975830079,10|0,0:0|1:0,0:0:0:0:
374,99,86314,1,8,0:0:0:0:
452,32,86490,5,2,1:2:0:0:
452,32,86667,2,0,P|382:-5|299:31,1,158.399995166016,14|8,0:0|0:0,0:0:0:0:
263,110,87196,1,2,1:2:0:0:
180,47,87373,1,12,0:0:0:0:
131,140,87549,1,10,0:0:0:0:
131,140,87637,1,8,0:0:0:0:
131,140,87726,2,0,P|136:164|146:202,3,39.5999987915039,10|8|10|8,0:0|0:0|0:0|0:0,0:0:0:0:
117,225,88079,5,6,1:2:0:0:
