osu file format v14

[General]
AudioFilename: audio.mp3
AudioLeadIn: 0
PreviewTime: 36814
Countdown: 0
SampleSet: Soft
StackLeniency: 0.6
Mode: 0
LetterboxInBreaks: 0
WidescreenStoryboard: 1

[Editor]
Bookmarks: 40079,45726,55608,57020,62667,68314,79608,85778,85952,86475,86651,87180,87359,88079,89694
DistanceSpacing: 0.6
BeatDivisor: 4
GridSize: 4
TimelineZoom: 1.4

[Metadata]
Title:Hajimari no Sokudo (TV Size)
TitleUnicode:はじまりの速度 (TV Size)
Artist:Sangatsu no Phantasia
ArtistUnicode:三月のパンタシア
Creator:SupaV
Version:Connection
Source:キズナイーバー
Tags:kiznaiver j-pop jpop anime ending ed -_afifakilie_- afifakilie fluffy hair inyuschan lushifer nyukai nyu-chan unranked_mapper unranked mapper uta waifuiscute wenect wenet japanese pop j-rock jrock rock
BeatmapID:3396198
BeatmapSetID:1531850

[Difficulty]
HPDrainRate:5.6
CircleSize:4.2
OverallDifficulty:8.8
ApproachRate:9.3
SliderMultiplier:1.73
SliderTickRate:1

[Events]
//Background and Video events
0,0,"wallpaper.jpg",0,0
Video,380,"hajimari.m4v"
//Break Periods
//Storyboard Layer 0 (Background)
//Storyboard Layer 1 (Fail)
//Storyboard Layer 2 (Pass)
//Storyboard Layer 3 (Foreground)
//Storyboard Layer 4 (Overlay)
//Storyboard Sound Samples

[TimingPoints]
564,352.941176470588,4,2,1,40,1,0
564,-181.818181818182,4,2,1,40,0,0
10093,333.333333333333,4,2,1,40,1,0
10093,-181.818181818182,4,2,1,40,0,0
10426,361.44578313253,4,2,1,40,1,0
10426,-133.333333333333,4,2,1,40,0,0
10787,326.086956521739,4,2,1,40,1,0
10787,-138.888888888889,4,2,1,40,0,0
11113,394.736842105263,4,2,1,40,1,0
11113,-121.951219512195,4,2,1,40,0,0
11850,352.941176470588,4,2,1,50,1,0
11850,-111.111111111111,4,2,1,50,0,0
12202,-111.111111111111,4,2,4,50,0,0
17320,-111.111111111111,4,2,1,50,0,0
17849,-111.111111111111,4,2,4,50,0,0
19261,-100,4,2,4,50,0,0
19526,-100,4,2,4,50,0,0
19614,-111.111111111111,4,2,1,50,0,0
20320,-100,4,2,1,60,0,0
24555,-90.9090909090909,4,2,1,60,0,0
25085,-90.9090909090909,4,2,2,60,0,0
25261,-100,4,2,2,60,0,0
25526,-100,4,2,2,60,0,0
25614,-100,4,2,1,60,0,0
28085,-111.111111111111,4,2,1,60,0,0
28791,-142.857142857143,4,2,1,60,0,0
29143,-142.857142857143,4,2,2,60,0,0
31614,-100,4,2,1,60,0,0
34085,-100,4,2,3,60,0,0
34437,-100,4,2,1,60,0,0
34614,-100,4,2,1,45,0,0
34790,-100,4,2,1,50,0,0
34967,-100,4,2,1,55,0,0
35143,-100,4,2,1,60,0,0
35320,-100,4,2,1,65,0,0
35496,-100,4,2,1,70,0,0
35849,-90.9090909090909,4,2,1,70,0,0
35937,-90.9090909090909,4,2,1,60,0,0
36202,-90.9090909090909,4,2,1,70,0,0
36290,-90.9090909090909,4,2,1,60,0,0
36555,-90.9090909090909,4,2,1,70,0,0
36732,-90.9090909090909,4,2,1,60,0,0
36908,-90.9090909090909,4,2,1,70,0,0
36996,-90.9090909090909,4,2,1,60,0,0
37261,-71.4285714285714,4,2,2,70,0,1
37437,-71.4285714285714,4,2,1,70,0,1
37614,-76.9230769230769,4,2,1,70,0,1
38673,-71.4285714285714,4,2,1,70,0,1
39026,-76.9230769230769,4,2,1,70,0,1
39732,-100,4,2,1,70,0,1
40085,-66.6666666666667,4,2,1,70,0,1
40438,-76.9230769230769,4,2,1,70,0,1
42555,-100,4,2,1,70,0,1
42908,-71.4285714285714,4,2,1,70,0,1
43261,-76.9230769230769,4,2,1,70,0,1
44320,-71.4285714285714,4,2,1,70,0,1
44673,-76.9230769230769,4,2,1,70,0,1
45202,-83.3333333333333,4,2,1,70,0,1
45732,-66.6666666666667,4,2,1,70,0,1
46261,-76.9230769230769,4,2,1,70,0,1
47497,-90.9090909090909,4,2,1,70,0,1
47761,-90.9090909090909,4,2,1,70,0,1
47849,-90.9090909090909,4,2,2,70,0,1
47937,-90.9090909090909,4,2,1,60,0,1
48202,-90.9090909090909,4,2,1,70,0,1
48290,-90.9090909090909,4,2,1,60,0,1
48555,-83.3333333333333,4,2,1,70,0,0
48908,-90.9090909090909,4,2,1,70,0,0
51379,-83.3333333333333,4,2,1,70,0,0
51908,-90.9090909090909,4,2,1,70,0,0
54202,-83.3333333333333,4,2,1,70,0,0
54555,-90.9090909090909,4,2,1,70,0,0
55614,-83.3333333333333,4,2,1,70,0,0
56144,-90.9090909090909,4,2,1,70,0,0
56320,-86.9565217391304,4,2,1,70,0,0
57026,-76.9230769230769,4,2,1,70,0,0
58438,-90.9090909090909,4,2,1,70,0,0
59143,-90.9090909090909,4,2,2,70,0,0
59232,-90.9090909090909,4,2,1,60,0,0
59496,-90.9090909090909,4,2,1,70,0,0
59585,-90.9090909090909,4,2,1,60,0,0
59849,-71.4285714285714,4,2,1,70,0,1
60202,-76.9230769230769,4,2,1,70,0,1
60908,-100,4,2,1,70,0,1
61261,-71.4285714285714,4,2,1,70,0,1
61614,-76.9230769230769,4,2,1,70,0,1
62673,-66.6666666666667,4,2,1,70,0,1
63202,-76.9230769230769,4,2,1,70,0,1
66908,-66.6666666666667,4,2,1,70,0,1
67261,-76.9230769230769,4,2,1,70,0,1
68320,-66.6666666666667,4,2,1,70,0,1
68673,-76.9230769230769,4,2,1,70,0,1
69732,-83.3333333333333,4,2,2,70,0,1
69908,-83.3333333333333,4,2,1,70,0,1
70438,-100,4,2,1,60,0,0
70614,-100,4,2,1,55,0,0
70790,-100,4,2,1,50,0,0
70967,-100,4,2,1,45,0,0
71144,-125,4,2,1,60,0,0
75379,-83.3333333333333,4,2,1,70,0,1
75908,-83.3333333333333,4,2,3,70,0,1
76791,-100,4,2,1,60,0,0
77143,-100,4,2,2,60,0,0
79614,-100,4,2,1,50,0,0
80849,-83.3333333333333,4,2,1,50,0,0
82085,337.078651685393,4,2,1,60,1,0
82085,-100,4,2,1,60,0,0
82432,352.941176470588,4,2,1,60,1,0
82432,-90.9090909090909,4,2,1,60,0,0
85255,-76.9230769230769,4,2,1,60,0,1
86475,-76.9230769230769,4,2,1,60,0,1
87180,-76.9230769230769,4,2,1,60,0,1
87549,-66.6666666666667,4,2,1,60,0,0
88079,-200,4,2,1,60,0,0
89490,-200,4,2,1,5,0,0
89694,-166.666666666667,4,2,1,5,0,0

[Colours]
Combo1 : 255,131,121
Combo2 : 251,29,4
Combo3 : 178,205,250
Combo4 : 102,129,184

[HitObjects]
486,60,564,6,0,L|493:1,2,47.5750014518738
405,54,1093,1,2,0:0:0:0:
405,54,1269,2,0,P|369:48|334:44,2,71.3625021778107,2|2|2,0:0|0:0|0:0,0:0:0:0:
459,138,1975,6,0,P|408:146|343:150,1,95.1500029037476,2|2,0:0|0:0,0:0:0:0:
295,203,2505,2,0,P|276:175|289:105,2,95.1500029037476,2|2|2,0:0|0:0|0:0,0:0:0:0:
398,234,3387,6,0,P|391:265|387:292,1,47.5750014518738
474,335,3740,2,0,P|480:366|485:393,2,47.5750014518738
368,270,4269,5,2,0:0:0:0:
285,306,4446,1,2,0:0:0:0:
216,240,4622,2,0,P|190:235|107:221,1,95.1500029037476,2|0,0:0|0:0,0:0:0:0:
40,229,5152,2,0,P|40:205|60:171,1,47.5750014518738
71,50,5505,2,0,P|77:73|82:96,1,47.5750014518738,2|0,0:0|0:0,0:0:0:0:
164,184,5858,2,0,P|168:160|173:137,1,47.5750014518738,2|0,0:0|0:0,0:0:0:0:
283,37,6211,6,0,P|290:88|300:152,1,95.1500029037476
356,199,6740,2,0,P|397:176|457:194,2,95.1500029037476,2|2|2,0:0|0:0|0:0,0:0:0:0:
288,295,7622,6,0,P|249:321|189:307,1,95.1500029037476,2|2,0:0|0:0,0:0:0:0:
114,288,8152,2,0,P|127:254|148:235,1,47.5750014518738,2|0,0:0|0:0,0:0:0:0:
200,186,8505,2,0,P|222:214|228:241,1,47.5750014518738,2|0,0:0|0:0,0:0:0:0:
202,315,8858,1,2,0:0:0:0:
116,223,9034,6,0,P|65:216|17:209,1,95.1500029037476,2|0,0:0|0:0,0:0:0:0:
0,358,9563,1,2,0:0:0:0:
0,358,9740,2,0,P|31:353|110:338,1,95.1500029037476,2|0,0:0|0:0,0:0:0:0:
237,315,10259,1,0,0:0:0:0:
237,315,10343,1,0,0:0:0:0:
237,315,10426,6,0,P|243:279|251:235,1,64.8750024747849,2|0,0:0|0:0,0:0:0:0:
345,202,10787,2,0,P|337:168|324:118,1,62.2800015205079,2|0,0:0|0:0,0:0:0:0:
218,113,11113,2,0,P|226:78|232:37,1,70.9300010823059,2|0,0:0|3:0,0:0:0:0:
252,15,11409,1,0,3:0:0:0:
252,15,11507,2,0,P|286:7|324:37,1,70.9300010823059,6|0,0:0|0:0,0:0:0:0:
450,106,11850,6,0,P|472:61|458:23,1,77.8499976242066,4|0,0:0|0:0,0:0:0:0:
356,13,12202,2,0,P|333:53|345:95,1,77.8499976242066,2|0,3:2|0:0,0:0:0:0:
414,195,12555,2,0,P|408:243|402:286,1,77.8499976242066,2|0,3:2|0:0,0:0:0:0:
282,324,12908,2,0,P|276:285|271:246,1,77.8499976242066,2|0,3:2|0:0,0:0:0:0:
173,111,13261,6,0,P|117:99|67:179,1,155.699995248413,0|0,3:0|3:0,0:0:0:0:
159,259,13791,1,2,0:0:0:0:
159,259,13967,2,0,L|181:388,2,116.77499643631,2|2|2,3:2|0:0|0:0,0:0:0:0:
296,200,14673,5,2,3:2:0:0:
153,120,14849,1,2,0:0:0:0:
286,240,15026,1,2,3:2:0:0:
163,82,15202,2,0,P|170:44|177:6,1,77.8499976242066,2|0,0:0|3:0,0:0:0:0:
0,96,15555,1,2,0:0:0:0:
0,96,15732,2,0,P|7:133|14:171,1,77.8499976242066,2|0,3:2|0:0,0:0:0:0:
110,270,16085,6,0,P|150:265|180:228,1,77.8499976242066,0|0,3:0|0:0,0:0:0:0:
232,149,16438,2,0,P|191:143|125:135,1,77.8499976242066,0|0,3:0|0:0,0:0:0:0:
69,36,16791,2,0,P|154:25|248:18,1,155.699995248413,2|2,3:2|3:2,0:0:0:0:
337,130,17320,1,2,0:0:0:0:
337,130,17408,1,0,0:0:0:0:
337,130,17497,6,0,P|343:88|350:39,1,77.8499976242066,0|2,1:0|0:0,0:0:0:0:
463,4,17849,2,0,P|473:77|486:167,1,155.699995248413,2|0,3:2|3:0,0:0:0:0:
512,263,18379,1,0,0:0:0:0:
377,204,18555,2,0,P|369:268|361:340,1,116.77499643631,2|0,3:2|0:0,0:0:0:0:
338,353,18908,6,0,P|298:358|256:315,1,77.8499976242066,2|0,3:2|0:0,0:0:0:0:
109,267,19261,2,0,B|166:259|166:259|174:253|174:253|237:245,1,129.75,6|0,3:2|0:0,0:0:0:0:
312,201,19614,5,8,0:0:0:0:
343,177,19702,1,8,0:0:0:0:
360,139,19790,1,10,0:0:0:0:
358,101,19878,1,8,0:0:0:0:
334,70,19966,1,8,1:2:0:0:
299,58,20054,1,8,0:0:0:0:
260,69,20143,1,10,0:0:0:0:
236,98,20231,1,8,0:0:0:0:
232,136,20320,6,0,P|283:128|332:118,1,86.5,4|2,1:2|1:2,0:0:0:0:
433,9,20673,2,0,P|489:35|473:145,1,173,10|0,0:0|1:0,0:0:0:0:
397,213,21202,1,0,1:0:0:0:
397,213,21379,2,0,P|349:206|296:198,1,86.5,10|0,0:0|0:0,0:0:0:0:
185,261,21732,6,0,P|176:219|203:177,1,86.5,2|0,1:2|1:0,0:0:0:0:
317,121,22085,1,10,0:0:0:0:
258,21,22261,1,0,1:0:0:0:
258,21,22349,1,8,2:0:0:0:
258,21,22438,6,0,L|210:13,1,43.25,2|0,1:2|0:0,0:0:0:0:
119,118,22614,2,0,L|166:111,1,43.25,8|8,0:0|0:0,0:0:0:0:
47,0,22791,1,10,1:2:0:0:
16,30,22879,1,8,0:0:0:0:
0,70,22967,1,8,0:0:0:0:
2,113,23055,1,8,0:0:0:0:
19,152,23144,6,0,P|67:211|158:185,1,173,6|10,1:2|0:0,0:0:0:0:
240,67,23673,1,0,1:0:0:0:
240,67,23761,1,8,0:0:0:0:
240,67,23849,1,0,1:0:0:0:
268,236,24026,1,2,1:2:0:0:
381,132,24202,2,0,P|336:125|269:115,1,86.5,10|0,0:0|1:0,0:0:0:0:
148,13,24555,6,0,B|160:74|160:74|139:133|139:133|163:221,1,190.300005807495,0|8,1:0|0:0,0:0:0:0:
296,140,25085,1,6,0:0:0:0:
161,223,25261,2,0,P|154:271|148:335,1,86.5,2|4,1:2|1:2,0:0:0:0:
168,349,25526,2,0,L|229:339,1,43.25,2|12,0:0|0:0,0:0:0:0:
352,376,25791,1,2,1:2:0:0:
352,376,25879,1,8,0:0:0:0:
352,376,25967,6,0,B|340:315|340:315|355:269|355:269|338:194,1,173,2|10,1:2|0:0,0:0:0:0:
385,79,26497,1,2,1:2:0:0:
385,79,26585,1,8,0:0:0:0:
385,79,26673,1,0,1:0:0:0:
466,221,26849,1,2,1:2:0:0:
293,129,27026,2,0,P|338:120|401:108,1,86.5,10|0,0:0|0:0,0:0:0:0:
501,10,27379,5,0,1:0:0:0:
461,109,27555,1,0,1:0:0:0:
377,27,27732,1,8,0:0:0:0:
271,161,27908,1,0,1:0:0:0:
271,161,27997,1,8,0:0:0:0:
271,161,28085,2,0,P|277:204|284:246,1,77.8499976242066,2|8,1:2|0:3,0:0:0:0:
176,121,28438,2,0,P|182:82|187:44,1,77.8499976242066,4|0,1:3|0:0,0:0:0:0:
90,201,28791,5,4,1:0:0:0:
90,201,29144,2,0,P|86:236|82:277,1,60.5499981521607,2|0,3:2|1:0,0:0:0:0:
0,115,29497,2,0,P|20:155|94:162,1,121.099996304321,10|2,3:2|3:2,0:0:0:0:
176,121,30026,1,8,0:0:0:0:
176,121,30114,1,8,0:0:0:0:
176,121,30202,1,2,1:2:0:0:
83,261,30379,1,8,0:0:0:0:
83,261,30732,5,0,1:0:0:0:
170,366,30908,1,10,3:2:0:0:
72,245,31085,5,0,1:0:0:0:
180,381,31261,1,10,3:2:0:0:
13,371,31438,1,8,0:0:0:0:
13,371,31526,1,8,0:0:0:0:
13,371,31614,6,0,B|53:386|87:337|87:337|118:290|171:308,1,173,4|8,1:0|0:0,0:0:0:0:
274,375,32144,1,0,1:0:0:0:
274,375,32232,1,8,0:0:0:0:
274,375,32320,1,2,1:2:0:0:
374,251,32497,1,0,1:0:0:0:
207,200,32673,2,0,L|227:303,1,86.5,8|0,0:0|0:0,0:0:0:0:
400,380,33026,5,2,1:2:0:0:
214,310,33202,1,0,1:0:0:0:
412,236,33379,1,8,0:0:0:0:
261,137,33555,1,2,1:2:0:0:
261,137,33644,1,8,0:0:0:0:
261,137,33732,1,0,1:0:0:0:
304,336,33908,1,0,1:0:0:0:
458,149,34085,2,0,P|449:198|441:254,1,86.5,14|0,0:0|0:0,0:0:0:0:
505,371,34438,5,6,1:2:0:0:
505,371,34791,5,10,1:2:0:0:
443,234,34967,1,10,0:0:0:0:
327,349,35144,1,8,1:2:0:0:
361,116,35320,1,10,0:0:0:0:
212,286,35497,1,8,1:2:0:0:
119,22,35673,1,10,0:0:0:0:
115,296,35849,5,12,1:2:0:0:
287,168,36026,1,8,0:0:0:0:
274,132,36114,1,8,0:0:0:0:
248,104,36202,1,10,1:2:0:0:
212,92,36290,1,8,0:0:0:0:
174,95,36379,2,0,P|146:100|114:106,1,47.5750014518738,10|8,0:0|0:0,0:0:0:0:
0,32,36555,5,12,1:2:0:0:
77,270,36732,1,8,0:0:0:0:
115,296,36820,1,8,0:0:0:0:
162,294,36908,1,10,1:2:0:0:
197,262,36996,1,8,0:0:0:0:
207,215,37084,1,8,0:0:0:0:
175,178,37173,1,8,0:0:0:0:
132,155,37261,6,0,P|76:142|-11:129,1,121.099996304321,4|0,1:0|1:0,0:0:0:0:
253,22,37614,1,10,0:0:0:0:
391,103,37791,1,2,1:2:0:0:
391,103,37879,1,8,0:0:0:0:
391,103,37967,2,0,P|380:163|371:227,1,112.449994852448,0|0,1:0|1:0,0:0:0:0:
292,370,38320,2,0,P|238:310|152:335,1,168.674992278672,10|8,0:0|0:0,0:0:0:0:
107,384,38673,6,0,P|99:312|91:239,1,121.099996304321,2|0,1:2|1:0,0:0:0:0:
0,101,39026,1,10,0:0:0:0:
134,202,39202,1,2,1:2:0:0:
177,212,39290,1,8,0:0:0:0:
220,201,39378,1,0,1:0:0:0:
246,165,39466,1,8,0:0:0:0:
249,120,39554,1,0,1:0:0:0:
139,14,39732,2,0,P|152:63|163:112,1,86.5,10|0,0:0|1:0,0:0:0:0:
246,165,39997,1,8,0:0:0:0:
246,165,40085,6,0,B|300:189|341:131|341:131|368:144|368:144|413:82|492:122,1,259.50000989914,2|8,1:2|0:0,0:0:0:0:
512,256,40614,2,0,P|507:283|504:311,1,56.2249974262239,2|8,1:2|0:0,0:0:0:0:
356,382,40791,2,0,P|351:349|345:311,1,56.2249974262239,0|0,1:0|0:0,0:0:0:0:
308,252,40967,1,0,1:0:0:0:
512,379,41144,1,8,0:0:0:0:
387,161,41320,1,2,1:2:0:0:
387,161,41408,1,8,0:0:0:0:
387,161,41497,6,0,P|379:189|373:223,1,56.2249974262239,2|8,1:2|0:0,0:0:0:0:
299,384,41673,1,0,1:0:0:0:
227,159,41849,1,8,0:0:0:0:
418,350,42026,6,0,L|354:342,1,56.2249974262239,2|8,1:2|0:0,0:0:0:0:
253,279,42202,2,0,L|197:285,1,56.2249974262239,2|8,1:2|0:0,0:0:0:0:
108,374,42379,1,0,1:0:0:0:
7,225,42555,2,0,P|57:218|108:213,1,86.5,10|8,0:0|0:0,0:0:0:0:
156,268,42820,1,8,0:0:0:0:
156,268,42908,6,0,P|176:207|135:137,1,121.099996304321,6|0,1:2|1:0,0:0:0:0:
7,75,43261,1,10,0:0:0:0:
203,94,43438,1,2,1:2:0:0:
203,94,43526,1,8,0:0:0:0:
203,94,43614,1,0,1:0:0:0:
85,0,43791,1,2,1:2:0:0:
156,156,43967,1,10,0:0:0:0:
314,0,44144,1,2,1:2:0:0:
314,0,44232,1,8,0:0:0:0:
314,0,44320,6,0,P|304:67|295:142,1,121.099996304321,0|0,1:0|1:0,0:0:0:0:
180,246,44673,1,10,0:0:0:0:
342,360,44849,1,2,1:2:0:0:
382,379,44937,1,8,0:0:0:0:
426,379,45025,1,0,1:0:0:0:
464,355,45113,1,8,0:0:0:0:
483,318,45202,2,0,P|470:266|454:200,1,103.799996832275,2|8,1:2|0:0,0:0:0:0:
425,45,45555,1,2,1:2:0:0:
425,45,45644,1,8,0:0:0:0:
425,45,45732,6,0,B|438:7|490:1|490:1|534:58|515:128|457:167,1,259.50000989914,2|8,1:2|0:0,0:0:0:0:
312,132,46261,2,0,P|284:137|256:143,1,56.2249974262239,2|8,1:2|0:0,0:0:0:0:
173,0,46438,2,0,P|205:6|243:14,1,56.2249974262239,2|0,1:2|0:0,0:0:0:0:
341,155,46614,1,0,1:0:0:0:
402,28,46791,1,8,0:0:0:0:
338,237,46967,1,0,1:0:0:0:
338,237,47055,1,8,0:0:0:0:
338,237,47144,6,0,P|280:227|215:216,1,112.449994852448,6|0,1:2|1:0,0:0:0:0:
123,52,47497,2,0,B|131:117|131:117|124:127|124:127|134:196,1,142.725004355621,10|8,0:0|0:0,0:0:0:0:
145,267,47849,5,14,1:2:0:0:
152,313,47937,1,8,0:0:0:0:
132,355,48025,1,8,0:0:0:0:
91,377,48113,1,8,0:0:0:0:
45,372,48201,1,10,1:2:0:0:
10,340,48290,1,8,0:0:0:0:
0,295,48378,1,8,0:0:0:0:
19,252,48466,1,8,0:0:0:0:
59,227,48555,6,0,P|52:284|44:353,1,103.799996832275,4|0,1:0|1:0,0:0:0:0:
226,310,48908,1,10,0:0:0:0:
124,182,49085,2,0,L|141:253,1,47.5750014518738,2|8,1:2|0:0,0:0:0:0:
204,382,49261,1,0,1:0:0:0:
204,382,49349,1,8,0:0:0:0:
204,382,49438,2,0,P|264:379|294:334,1,95.1500029037476,2|8,1:2|0:0,0:0:0:0:
396,245,49791,1,2,1:2:0:0:
396,245,49879,1,8,0:0:0:0:
396,245,49967,6,0,L|276:230,1,95.1500029037476,0|0,1:0|1:0,0:0:0:0:
161,153,50320,1,10,0:0:0:0:
280,28,50497,1,2,1:2:0:0:
284,60,50585,1,8,0:0:0:0:
288,93,50673,1,0,1:0:0:0:
293,126,50761,1,8,0:0:0:0:
297,159,50849,1,0,1:0:0:0:
115,92,51026,2,0,P|157:76|219:108,1,95.1500029037476,8|2,0:0|1:2,0:0:0:0:
221,175,51291,1,8,0:0:0:0:
221,175,51379,6,0,P|226:228|235:292,1,103.799996832275,2|0,1:2|1:0,0:0:0:0:
322,134,51732,1,10,0:0:0:0:
452,202,51908,2,0,L|461:155,1,47.5750014518738,2|8,1:2|0:0,0:0:0:0:
333,21,52085,1,0,1:0:0:0:
333,21,52173,1,8,0:0:0:0:
333,21,52261,2,0,P|341:75|351:140,1,95.1500029037476,2|8,1:2|0:0,0:0:0:0:
501,236,52614,1,2,1:2:0:0:
501,236,52702,1,8,0:0:0:0:
501,236,52791,5,0,1:0:0:0:
291,322,52967,1,2,1:2:0:0:
384,126,53144,1,10,0:0:0:0:
422,363,53320,1,2,1:2:0:0:
388,359,53408,1,8,0:0:0:0:
355,355,53496,1,0,1:0:0:0:
322,351,53584,1,8,0:0:0:0:
289,348,53672,1,0,1:0:0:0:
221,175,53849,1,8,0:0:0:0:
116,368,54026,1,10,0:0:0:0:
116,368,54114,1,8,0:0:0:0:
116,368,54202,6,0,P|121:314|130:250,1,103.799996832275,4|0,1:2|1:0,0:0:0:0:
62,130,54555,1,10,0:0:0:0:
221,175,54732,2,0,P|216:145|207:102,1,47.5750014518738,2|8,1:2|0:0,0:0:0:0:
72,23,54908,1,0,1:0:0:0:
72,23,54997,1,8,0:0:0:0:
72,23,55085,1,2,1:2:0:0:
4,188,55261,1,10,0:0:0:0:
193,100,55438,1,0,1:0:0:0:
193,100,55526,1,8,0:0:0:0:
193,100,55614,6,0,B|231:122|271:79|271:79|293:95|293:95|332:54|388:83,1,207.599993664551,0|8,1:0|0:0,0:0:0:0:
505,54,56144,2,0,P|509:29|513:7,1,47.5750014518738,2|8,1:2|0:0,0:0:0:0:
380,111,56320,2,0,P|390:160|402:224,1,99.4750018973351,2|0,1:2|1:0,0:0:0:0:
462,245,56585,2,0,P|447:267|416:285,1,49.7375009486675,2|8,0:0|0:0,0:0:0:0:
245,218,56849,1,2,1:2:0:0:
245,218,56938,1,8,0:0:0:0:
245,218,57026,6,0,B|280:384|280:384|281:344|322:313,1,224.899989704895,2|8,1:2|0:0,0:0:0:0:
397,176,57555,1,2,0:0:0:0:
179,173,57732,5,2,1:2:0:0:
353,274,57908,1,0,1:0:0:0:
327,87,58085,5,12,0:0:0:0:
261,345,58261,1,0,1:0:0:0:
261,345,58349,1,0,1:0:0:0:
261,345,58438,6,0,P|224:340|182:335,1,47.5750014518738,8|8,1:2|0:0,0:0:0:0:
109,369,58614,1,0,2:0:0:0:
109,369,58702,1,8,0:0:0:0:
109,369,58791,1,8,1:3:0:0:
60,198,58967,1,8,0:0:0:0:
79,207,59055,1,8,0:0:0:0:
98,214,59144,5,14,1:2:0:0:
141,195,59232,1,8,0:0:0:0:
167,155,59320,1,8,0:0:0:0:
168,107,59408,1,8,0:0:0:0:
152,61,59497,1,10,1:2:0:0:
115,30,59585,1,8,0:0:0:0:
67,24,59673,1,8,0:0:0:0:
24,45,59761,1,8,0:0:0:0:
4,95,59849,6,0,P|37:139|112:115,1,121.099996304321,4|0,1:0|1:0,0:0:0:0:
221,0,60202,1,10,0:0:0:0:
355,156,60379,1,0,1:0:0:0:
360,117,60467,1,8,0:0:0:0:
366,78,60555,1,0,1:0:0:0:
372,39,60643,1,8,0:0:0:0:
378,0,60731,1,0,1:0:0:0:
270,116,60908,2,0,P|278:167|283:215,1,86.5,10|0,0:0|1:0,0:0:0:0:
349,242,61173,1,8,0:0:0:0:
349,242,61261,6,0,P|295:282|217:246,1,121.099996304321,2|0,1:2|1:0,0:0:0:0:
135,156,61614,1,10,0:0:0:0:
0,375,61791,1,2,1:2:0:0:
39,370,61879,1,8,0:0:0:0:
78,365,61967,1,0,1:0:0:0:
117,360,62055,1,8,0:0:0:0:
156,355,62143,1,0,1:0:0:0:
247,223,62320,1,10,0:0:0:0:
52,163,62497,1,0,1:0:0:0:
52,163,62585,1,8,0:0:0:0:
52,163,62673,6,0,B|1:133|-19:63|24:6|24:6|83:13|89:54,1,259.50000989914,2|8,1:2|0:0,0:0:0:0:
229,182,63202,2,0,P|194:183|161:158,1,56.2249974262239,2|8,1:2|0:0,0:0:0:0:
189,22,63379,2,0,P|219:8|258:22,1,56.2249974262239,0|8,1:0|0:0,0:0:0:0:
382,137,63555,1,0,1:0:0:0:
172,96,63732,1,8,0:0:0:0:
412,7,63908,6,0,L|404:80,1,56.2249974262239,2|8,1:2|0:0,0:0:0:0:
313,177,64085,2,0,L|326:259,1,56.2249974262239,2|8,1:2|0:0,0:0:0:0:
421,363,64261,1,0,1:0:0:0:
231,194,64438,1,8,0:0:0:0:
317,384,64614,2,0,L|329:320,1,56.2249974262239,2|8,1:2|0:0,0:0:0:0:
508,200,64791,6,0,P|449:191|376:180,1,112.449994852448,2|0,1:2|1:0,0:0:0:0:
319,213,65055,2,0,P|311:187|318:139,1,56.2249974262239,2|8,0:0|0:0,0:0:0:0:
404,0,65320,1,10,0:0:0:0:
404,0,65408,1,8,0:0:0:0:
404,0,65497,5,6,1:2:0:0:
227,16,65673,1,0,1:0:0:0:
396,183,65849,1,8,0:0:0:0:
163,126,66026,1,0,1:2:0:0:
163,126,66114,1,8,0:0:0:0:
163,126,66202,2,0,L|227:117,1,56.2249974262239,2|8,1:2|0:0,0:0:0:0:
249,246,66379,2,0,P|190:239|107:230,1,112.449994852448,0|8,1:0|0:0,0:0:0:0:
15,365,66732,1,2,1:2:0:0:
15,365,66820,1,8,0:0:0:0:
15,365,66908,6,0,P|72:381|124:329,1,129.75000494957,2|0,1:2|1:0,0:0:0:0:
193,199,67261,1,10,0:0:0:0:
58,305,67438,1,2,1:2:0:0:
58,305,67526,1,8,0:0:0:0:
58,305,67614,1,0,1:0:0:0:
164,170,67791,2,0,P|154:112|144:45,1,112.449994852448,2|8,1:2|0:0,0:0:0:0:
362,206,68144,1,2,1:2:0:0:
362,206,68232,1,8,0:0:0:0:
362,206,68320,6,0,B|347:286|332:386|332:386|351:339|396:326,1,259.50000989914,6|8,1:2|0:0,0:0:0:0:
509,223,68849,1,2,1:2:0:0:
343,76,69026,2,0,P|316:140|347:193,1,112.449994852448,2|0,1:2|1:0,0:0:0:0:
453,310,69379,1,8,0:0:0:0:
249,246,69555,1,0,1:0:0:0:
470,108,69732,5,12,0:0:0:0:
364,297,69908,1,0,1:0:0:0:
283,34,70085,1,8,0:0:0:0:
175,227,70261,2,0,L|159:161,1,51.8999984161377,0|8,1:0|0:0,0:0:0:0:
106,18,70438,5,10,1:2:0:0:
81,10,70526,1,8,0:3:0:0:
55,12,70614,1,8,0:3:0:0:
31,23,70702,1,8,0:3:0:0:
14,42,70790,1,0,1:2:0:0:
3,65,70879,1,4,0:3:0:0:
1,90,70967,1,4,0:3:0:0:
8,114,71055,1,4,0:3:0:0:
19,143,71144,6,0,P|38:215|48:288,1,138.4,4|2,1:0|1:2,0:0:0:0:
114,368,71673,2,0,P|152:362|190:358,1,69.2,2|0,0:0|1:0,0:0:0:0:
259,313,72026,2,0,P|297:318|335:323,1,69.2,2|0,0:0|1:0,0:0:0:0:
414,379,72379,1,2,0:0:0:0:
414,379,72555,6,0,P|445:304|421:248,1,138.4,0|0,1:0|1:0,0:0:0:0:
330,166,73085,1,2,0:0:0:0:
330,166,73261,2,0,P|321:222|312:290,2,103.8,2|2|2,1:2|0:0|0:0,0:0:0:0:
386,98,73967,6,0,P|326:75|256:113,1,138.4,2|2,1:2|1:2,0:0:0:0:
189,179,74497,2,0,P|196:212|204:246,1,69.2,2|0,0:0|1:0,0:0:0:0:
100,122,74849,2,0,P|107:88|115:54,1,69.2,2|0,0:0|1:0,0:0:0:0:
4,197,75202,1,2,0:0:0:0:
187,326,75379,6,0,P|231:327|278:279,1,103.799996832275,14|0,0:0|1:0,0:0:0:0:
170,138,75732,1,2,1:2:0:0:
2,282,75908,2,0,P|12:338|23:403,1,103.799996832275,14|0,0:0|1:0,0:0:0:0:
204,246,76261,2,0,P|212:197|225:130,1,103.799996832275,14|0,0:0|0:0,0:0:0:0:
88,39,76614,1,10,0:0:0:0:
88,39,76702,1,8,0:0:0:0:
88,39,76791,6,0,P|157:32|269:22,1,173,4|0,1:0|3:0,0:0:0:0:
365,73,77320,1,0,1:0:0:0:
365,73,77497,1,8,3:2:0:0:
494,0,77673,2,0,P|486:49|476:111,1,86.5,2|0,0:0|3:0,0:0:0:0:
367,177,78026,1,8,0:0:0:0:
367,177,78114,1,8,0:0:0:0:
367,177,78202,5,2,1:2:0:0:
479,209,78379,2,0,P|512:278|455:352,1,173,8|0,0:0|1:0,0:0:0:0:
330,305,78908,5,10,3:2:0:0:
448,367,79085,1,8,0:0:0:0:
298,290,79261,5,10,3:2:0:0:
473,378,79438,1,8,0:0:0:0:
392,152,79614,5,2,0:0:0:0:
40,76,80849,6,2,L|48:41,2,34.5999989440918,2|2|2,0:0|0:0|0:0,0:0:0:0:
28,11,81026,1,2,0:0:0:0:
395,22,82085,5,10,0:0:0:0:
441,14,82169,1,8,0:0:0:0:
483,35,82253,1,10,0:0:0:0:
506,75,82337,1,8,0:0:0:0:
502,122,82432,5,4,1:0:0:0:
313,149,82608,1,0,1:0:0:0:
512,264,82784,1,8,0:0:0:0:
428,103,82961,1,0,1:0:0:0:
428,103,83049,1,8,0:0:0:0:
428,103,83137,1,0,1:0:0:0:
327,278,83314,5,2,1:2:0:0:
276,159,83490,1,8,0:0:0:0:
193,266,83667,1,0,1:2:0:0:
377,201,83843,5,2,1:2:0:0:
140,175,84020,1,0,1:0:0:0:
327,55,84196,2,0,L|310:163,1,95.1500029037476,10|0,0:0|1:0,0:0:0:0:
193,266,84549,5,2,1:2:0:0:
378,344,84726,1,0,1:0:0:0:
244,151,84902,2,0,P|204:134|147:157,1,95.1500029037476,10|4,0:0|0:3,0:0:0:0:
160,355,85255,5,14,0:0:0:0:
44,164,85432,1,0,1:0:0:0:
0,384,85608,1,8,0:0:0:0:
224,238,85784,1,2,1:2:0:0:
0,35,85961,5,10,0:0:0:0:
206,97,86137,1,0,1:0:0:0:
0,231,86314,1,8,0:0:0:0:
218,13,86490,1,2,1:2:0:0:
362,332,86667,5,14,0:0:0:0:
319,162,86843,1,0,1:0:0:0:
187,293,87020,1,8,0:0:0:0:
453,145,87196,1,2,1:2:0:0:
138,0,87373,5,12,0:0:0:0:
0,272,87549,1,10,0:0:0:0:
46,260,87637,1,8,0:0:0:0:
89,280,87726,1,10,0:0:0:0:
120,315,87814,1,8,0:0:0:0:
149,356,87902,1,10,0:0:0:0:
192,379,87990,1,8,0:0:0:0:
240,367,88079,6,0,B|308:342|364:272|345:173|284:143|191:163|179:242|221:287,1,389.25,6|0,1:2|0:0,0:0:0:0:
