osu file format v14

[General]
AudioFilename: audio.mp3
AudioLeadIn: 0
PreviewTime: 36814
Countdown: 0
SampleSet: Soft
StackLeniency: 0.3
Mode: 0
LetterboxInBreaks: 0
WidescreenStoryboard: 1

[Editor]
Bookmarks: 33373,58873,88079,89694
DistanceSpacing: 0.7
BeatDivisor: 4
GridSize: 32
TimelineZoom: 1.9

[Metadata]
Title:Hajimari no Sokudo (TV Size)
TitleUnicode:はじまりの速度 (TV Size)
Artist:Sangatsu no Phantasia
ArtistUnicode:三月のパンタシア
Creator:SupaV
Version:AfifAkilie's Insane
Source:キズナイーバー
Tags:kiznaiver j-pop jpop anime ending ed -_afifakilie_- afifakilie fluffy hair inyuschan lushifer nyukai nyu-chan unranked_mapper unranked mapper uta waifuiscute wenect wenet japanese pop j-rock jrock rock
BeatmapID:3491557
BeatmapSetID:1531850

[Difficulty]
HPDrainRate:5
CircleSize:4
OverallDifficulty:8
ApproachRate:9
SliderMultiplier:1.66
SliderTickRate:1

[Events]
//Background and Video events
0,0,"wallpaper.jpg",0,0
Video,380,"hajimari.m4v"
//Break Periods
2,79967,81026
//Storyboard Layer 0 (Background)
//Storyboard Layer 1 (Fail)
//Storyboard Layer 2 (Pass)
//Storyboard Layer 3 (Foreground)
//Storyboard Layer 4 (Overlay)
//Storyboard Sound Samples

[TimingPoints]
564,352.941176470588,4,2,1,40,1,0
564,-166.666666666667,4,2,1,40,0,0
10093,333.333333333333,4,2,1,40,1,0
10426,361.44578313253,4,2,1,40,1,0
10426,-125,4,2,1,40,0,0
10787,326.086956521739,4,2,1,40,1,0
11113,394.736842105263,4,2,1,40,1,0
11507,-166.666666666667,4,2,1,40,0,0
11850,352.941176470588,4,2,1,50,1,0
11850,-142.857142857143,4,2,1,50,0,0
12202,-142.857142857143,4,2,4,50,0,0
17320,-142.857142857143,4,2,1,50,0,0
17849,-142.857142857143,4,2,4,50,0,0
19614,-125,4,2,1,50,0,0
20320,-100,4,2,1,60,0,0
25085,-100,4,2,2,60,0,0
25614,-100,4,2,1,60,0,0
28791,-125,4,2,1,60,0,0
29143,-125,4,2,2,60,0,0
31614,-125,4,2,1,60,0,0
34085,-125,4,2,3,60,0,0
34438,-111.111111111111,4,2,1,60,0,0
34614,-111.111111111111,4,2,1,45,0,0
34790,-111.111111111111,4,2,1,50,0,0
34967,-111.111111111111,4,2,1,55,0,0
35143,-111.111111111111,4,2,1,60,0,0
35320,-111.111111111111,4,2,1,65,0,0
35496,-111.111111111111,4,2,1,70,0,0
35849,-100,4,2,1,70,0,0
35937,-100,4,2,1,60,0,0
36202,-100,4,2,1,70,0,0
36290,-100,4,2,1,60,0,0
36555,-100,4,2,1,70,0,0
36732,-100,4,2,1,60,0,0
36908,-100,4,2,1,70,0,0
36996,-100,4,2,1,60,0,0
37261,-83.3333333333333,4,2,2,70,0,0
37437,-83.3333333333333,4,2,1,70,0,0
47849,-83.3333333333333,4,2,2,70,0,0
47937,-83.3333333333333,4,2,1,60,0,0
48202,-83.3333333333333,4,2,1,70,0,0
48290,-83.3333333333333,4,2,1,60,0,0
48555,-83.3333333333333,4,2,1,70,0,0
59143,-83.3333333333333,4,2,2,70,0,0
59232,-83.3333333333333,4,2,1,60,0,0
59496,-83.3333333333333,4,2,1,70,0,0
59585,-83.3333333333333,4,2,1,60,0,0
59849,-83.3333333333333,4,2,1,70,0,0
63202,-83.3333333333333,4,2,1,70,0,0
63291,-83.3333333333333,4,2,1,70,0,0
63379,-83.3333333333333,4,2,1,70,0,0
63468,-83.3333333333333,4,2,1,70,0,0
63555,-83.3333333333333,4,2,1,70,0,0
63908,-83.3333333333333,4,2,1,70,0,0
63997,-83.3333333333333,4,2,1,70,0,0
64085,-83.3333333333333,4,2,1,70,0,0
64174,-83.3333333333333,4,2,1,70,0,0
64261,-83.3333333333333,4,2,1,70,0,0
64614,-83.3333333333333,4,2,1,70,0,0
64703,-83.3333333333333,4,2,1,70,0,0
64791,-83.3333333333333,4,2,1,70,0,0
64880,-83.3333333333333,4,2,1,70,0,0
64967,-83.3333333333333,4,2,1,70,0,0
69732,-83.3333333333333,4,2,2,70,0,0
69908,-83.3333333333333,4,2,1,70,0,0
70437,-83.3333333333333,4,2,1,60,0,0
70614,-83.3333333333333,4,2,1,55,0,0
70790,-83.3333333333333,4,2,1,50,0,0
70967,-83.3333333333333,4,2,1,45,0,0
71144,-100,4,2,1,60,0,0
75379,-100,4,2,1,70,0,0
75908,-100,4,2,3,70,0,0
76790,-100,4,2,1,60,0,0
77143,-100,4,2,2,60,0,0
79614,-100,4,2,1,50,0,0
82085,337.078651685393,4,2,1,60,1,0
82432,352.941176470588,4,2,1,60,1,0
85255,-83.3333333333333,4,2,1,60,0,0
86490,-83.3333333333333,4,2,1,60,0,0
87196,-83.3333333333333,4,2,1,60,0,0
87549,-83.3333333333333,4,2,1,60,0,0
88078,-250,4,2,1,60,0,0
89490,-250,4,2,1,5,0,0

[Colours]
Combo1 : 255,131,121
Combo2 : 251,29,4
Combo3 : 178,205,250
Combo4 : 102,129,184

[HitObjects]
0,338,564,6,0,P|10:365|22:399,1,49.7999984802247
88,350,916,2,0,P|79:326|70:303,1,49.7999984802247,0|2,0:0|0:0,0:0:0:0:
160,297,1269,2,0,P|188:318|241:321,2,74.699997720337,2|2|2,0:0|0:0|0:0,0:0:0:0:
174,190,1975,2,0,P|223:191|264:219,1,99.5999969604493,2|2,0:0|0:0,0:0:0:0:
306,295,2505,2,0,P|333:285|368:281,1,49.7999984802247,2|0,0:0|0:0,0:0:0:0:
448,175,2858,2,0,P|442:203|428:235,1,49.7999984802247,2|0,0:0|0:0,0:0:0:0:
480,357,3211,5,2,0:0:0:0:
480,357,3387,2,0,P|458:337|437:309,1,49.7999984802247
353,282,3740,2,0,P|358:253|372:221,1,49.7999984802247
448,175,4093,1,0,0:0:0:0:
352,101,4269,1,2,0:0:0:0:
352,101,4446,2,0,P|360:124|364:149,1,49.7999984802247,2|2,0:0|0:0,0:0:0:0:
262,84,4799,6,0,P|270:60|279:37,1,49.7999984802247
209,3,5152,2,0,P|199:26|191:49,1,49.7999984802247
71,106,5505,2,0,P|100:102|125:83,1,49.7999984802247,2|0,0:0|0:0,0:0:0:0:
85,12,5858,2,0,P|56:16|31:35,1,49.7999984802247,2|0,0:0|0:0,0:0:0:0:
0,169,6211,1,0,0:0:0:0:
0,169,6387,2,0,P|9:201|16:234,1,49.7999984802247
97,253,6740,2,0,P|123:245|160:240,1,49.7999984802247,2|2,0:0|0:0,0:0:0:0:
165,328,7093,2,0,P|139:336|102:341,1,49.7999984802247,2|0,0:0|0:0,0:0:0:0:
232,384,7446,5,2,0:0:0:0:
232,384,7622,2,0,P|290:378|325:339,1,99.5999969604493,2|2,0:0|0:0,0:0:0:0:
261,255,8152,2,0,P|252:299|244:322,1,49.7999984802247,2|0,0:0|0:0,0:0:0:0:
403,362,8505,2,0,P|396:337|392:313,1,49.7999984802247,2|0,0:0|0:0,0:0:0:0:
512,257,8858,5,2,0:0:0:0:
512,257,9034,2,0,P|463:255|424:225,1,99.5999969604493,2|0,0:0|0:0,0:0:0:0:
319,140,9563,1,2,0:0:0:0:
319,140,9740,2,0,P|334:194|347:255,1,99.5999969604493,2|0,0:0|0:0,0:0:0:0:
490,176,10259,5,0,0:0:0:0:
490,176,10343,1,0,0:0:0:0:
490,176,10426,2,0,P|504:137|513:108,1,66.4,2|0,0:0|0:0,0:0:0:0:
431,27,10787,2,0,P|471:19|522:10,1,83,2|0,0:0|0:0,0:0:0:0:
403,105,11113,2,0,P|372:91|348:42,1,83,2|0,0:0|3:0,0:0:0:0:
292,0,11409,1,0,3:0:0:0:
292,0,11507,2,0,P|279:16|274:66,1,49.7999984802247,6|0,0:0|0:0,0:0:0:0:
148,19,11850,6,0,P|103:12|45:1,1,87.1499973403931,4|0,0:0|0:0,0:0:0:0:
13,9,12202,2,0,P|32:41|41:71,1,58.0999982269288,2|0,3:2|0:0,0:0:0:0:
167,100,12555,2,0,P|129:100|99:93,1,58.0999982269288,2|0,3:2|0:0,0:0:0:0:
11,187,12908,2,0,P|29:154|50:131,1,58.0999982269288,2|0,3:2|0:0,0:0:0:0:
234,148,13261,2,0,P|249:183|261:219,1,58.0999982269288,0|0,3:0|0:0,0:0:0:0:
179,234,13614,2,0,P|168:207|157:181,1,58.0999982269288,0|2,3:0|0:0,0:0:0:0:
335,226,13967,2,0,P|374:245|429:232,2,87.1499973403931,2|2|2,3:2|0:0|0:0,0:0:0:0:
256,201,14673,5,2,3:2:0:0:
179,234,14849,1,2,0:0:0:0:
168,317,15026,1,2,3:2:0:0:
168,317,15202,2,0,P|190:348|201:383,1,58.0999982269288,2|0,0:0|3:0,0:0:0:0:
327,268,15555,1,2,0:0:0:0:
327,268,15731,2,0,P|305:299|294:334,1,58.0999982269288,2|0,3:2|0:0,0:0:0:0:
256,201,16085,6,0,P|232:169|209:151,1,58.0999982269288,0|0,3:0|0:0,0:0:0:0:
348,175,16438,2,0,P|363:138|367:109,1,58.0999982269288,0|0,3:0|0:0,0:0:0:0:
416,241,16791,2,0,P|454:236|482:225,1,58.0999982269288,2|0,3:2|0:0,0:0:0:0:
327,268,17144,1,2,3:2:0:0:
257,201,17320,1,2,0:0:0:0:
257,201,17497,2,0,P|205:187|137:171,1,116.199996453858,0|2,1:0|3:2,0:0:0:0:
85,104,18026,1,0,0:0:0:0:
14,159,18202,2,0,P|6:193|-4:228,1,58.0999982269288,0|0,3:0|0:0,0:0:0:0:
94,278,18555,6,0,P|85:250|80:221,1,58.0999982269288,2|0,3:2|0:0,0:0:0:0:
0,338,18908,2,0,P|56:351|120:368,1,116.199996453858,2|6,3:2|3:2,0:0:0:0:
112,365,19614,1,8,0:0:0:0:
194,291,19791,1,10,0:0:0:0:
194,291,19879,1,8,0:0:0:0:
194,291,19967,2,0,P|184:259|181:241,1,33.2,8|8,1:2|0:0,0:0:0:0:
256,349,20144,2,0,P|250:364|246:380,1,33.2,10|8,0:0|0:0,0:0:0:0:
99,285,20320,5,4,1:2:0:0:
241,196,20497,1,2,1:2:0:0:
94,116,20673,2,0,P|114:159|128:202,1,83,10|0,0:0|1:0,0:0:0:0:
195,129,20938,1,8,0:0:0:0:
195,129,21026,2,0,P|208:89|226:52,1,83,0|0,1:0|1:0,0:0:0:0:
15,120,21379,6,0,P|71:127|106:104,1,83,10|0,0:0|0:0,0:0:0:0:
304,48,21732,2,0,P|248:41|213:64,1,83,2|0,1:2|1:0,0:0:0:0:
241,196,22085,2,0,P|297:203|332:180,1,83,10|0,0:0|1:0,0:0:0:0:
512,89,22438,1,2,1:2:0:0:
410,23,22614,1,8,0:0:0:0:
347,122,22791,1,10,1:2:0:0:
347,122,22879,1,8,0:0:0:0:
347,122,22967,1,8,0:0:0:0:
347,122,23055,1,8,0:0:0:0:
347,122,23144,5,6,1:2:0:0:
429,102,23320,1,0,1:0:0:0:
511,181,23497,2,0,P|497:232|489:277,1,83,10|0,0:0|1:0,0:0:0:0:
484,269,23761,1,8,0:0:0:0:
484,269,23849,1,0,1:0:0:0:
393,253,24026,1,2,1:2:0:0:
313,364,24202,2,0,P|272:372|232:383,1,83,10|0,0:0|1:0,0:0:0:0:
85,294,24555,5,0,1:0:0:0:
182,300,24732,1,0,1:0:0:0:
106,384,24908,1,8,0:0:0:0:
0,341,25085,1,6,0:0:0:0:
84,293,25261,2,0,P|93:232|113:173,2,124.5,2|2|2,1:2|0:0|1:2,0:0:0:0:
0,105,25967,2,0,P|19:145|29:188,1,83,2|0,1:2|1:0,0:0:0:0:
173,228,26320,2,0,P|193:192|221:161,1,83,10|2,0:0|1:2,0:0:0:0:
233,160,26585,5,8,0:0:0:0:
233,160,26673,1,0,1:0:0:0:
113,172,26849,1,2,1:2:0:0:
48,38,27026,2,0,P|88:27|125:9,1,83,10|0,0:0|0:0,0:0:0:0:
256,76,27379,1,0,1:0:0:0:
169,85,27555,1,0,1:0:0:0:
366,21,27732,2,0,P|347:61|337:104,1,83,8|0,0:0|1:0,0:0:0:0:
343,111,27997,5,8,0:0:0:0:
343,111,28085,1,2,1:2:0:0:
431,111,28261,1,8,0:3:0:0:
512,152,28438,1,4,1:3:0:0:
512,169,28791,6,0,B|467:180|467:180|446:210|446:210|394:225,1,132.8,4|2,1:0|3:2,0:0:0:0:
283,328,29320,1,0,1:0:0:0:
213,290,29497,2,0,P|269:246|340:273,1,132.8,10|2,3:2|3:2,0:0:0:0:
166,369,30026,1,8,0:0:0:0:
166,369,30114,1,8,0:0:0:0:
166,369,30202,1,2,1:2:0:0:
79,330,30379,2,0,P|66:284|54:249,1,66.4,8|0,0:0|3:0,0:0:0:0:
92,158,30732,5,0,1:0:0:0:
191,189,30908,2,0,P|157:222|133:250,1,66.4,10|0,3:2|1:0,0:0:0:0:
0,193,31261,1,10,3:2:0:0:
88,68,31438,1,8,0:0:0:0:
88,68,31526,1,8,0:0:0:0:
88,68,31614,2,0,P|164:91|236:105,1,132.8,4|8,1:0|0:0,0:0:0:0:
328,188,32144,5,0,1:0:0:0:
328,188,32232,1,8,0:0:0:0:
328,188,32320,1,2,1:2:0:0:
397,82,32497,1,0,1:0:0:0:
289,0,32673,2,0,P|299:41|308:88,1,66.4,8|0,0:0|0:0,0:0:0:0:
413,171,33026,5,2,1:2:0:0:
473,35,33202,1,0,1:0:0:0:
328,188,33379,2,0,P|318:229|309:276,1,66.4,8|2,0:0|1:2,0:0:0:0:
317,266,33644,1,8,0:0:0:0:
317,266,33732,1,0,1:0:0:0:
171,256,33908,1,0,1:0:0:0:
44,335,34085,1,14,0:0:0:0:
45,318,34438,5,6,1:2:0:0:
0,193,34614,1,8,0:0:0:0:
124,148,34791,1,10,1:2:0:0:
169,272,34967,1,10,0:0:0:0:
84,232,35144,5,8,1:2:0:0:
261,92,35320,1,10,0:0:0:0:
270,202,35497,1,8,1:2:0:0:
43,109,35673,1,10,0:0:0:0:
151,33,35849,5,12,1:2:0:0:
152,175,36026,2,0,P|147:157|138:130,2,41.5,8|8|10,0:0|0:0|1:2,0:0:0:0:
233,172,36290,1,8,0:0:0:0:
256,176,36378,1,10,0:0:0:0:
280,180,36467,1,8,0:0:0:0:
303,184,36555,2,0,P|296:210|287:233,1,41.5,12|0,1:2|0:0,0:0:0:0:
372,245,36732,2,0,P|377:224|383:205,1,41.5,8|8,0:0|0:0,0:0:0:0:
512,320,36908,5,10,1:2:0:0:
471,311,36996,1,8,0:0:0:0:
434,317,37084,1,8,0:0:0:0:
399,335,37172,1,8,0:0:0:0:
373,363,37261,6,0,B|302:344|302:344|276:302|276:302|192:280,1,199.199993920899,4|10,1:0|0:0,0:0:0:0:
108,384,37791,1,2,1:2:0:0:
108,384,37879,1,8,0:0:0:0:
108,384,37967,1,0,1:0:0:0:
40,247,38144,1,0,1:0:0:0:
150,184,38320,2,0,P|133:237|124:291,1,99.5999969604493,10|0,0:0|1:0,0:0:0:0:
0,131,38673,6,0,P|63:68|162:113,1,199.199993920899,2|10,1:2|0:0,0:0:0:0:
237,209,39202,1,2,1:2:0:0:
237,209,39291,1,8,0:0:0:0:
237,209,39379,1,0,1:0:0:0:
317,64,39555,1,0,1:0:0:0:
215,0,39732,2,0,P|232:53|241:107,1,99.5999969604493,10|0,0:0|1:0,0:0:0:0:
318,152,39997,5,8,0:0:0:0:
318,152,40085,2,0,B|389:171|389:171|415:213|415:213|499:235,1,199.199993920899,2|8,1:2|0:0,0:0:0:0:
337,241,40614,2,0,P|329:270|322:300,1,49.7999984802247,2|8,1:2|0:0,0:0:0:0:
471,143,40791,2,0,P|465:118|458:94,1,49.7999984802247,0|0,1:0|0:0,0:0:0:0:
399,187,40967,1,0,1:0:0:0:
455,326,41144,2,0,P|471:269|493:221,1,99.5999969604493,8|2,0:0|1:2,0:0:0:0:
376,82,41497,5,2,1:2:0:0:
376,82,41585,1,8,0:0:0:0:
376,82,41673,1,0,1:0:0:0:
253,214,41849,2,0,P|237:157|215:109,1,99.5999969604493,8|2,0:0|1:2,0:0:0:0:
280,1,42202,1,2,1:2:0:0:
280,1,42291,1,8,0:0:0:0:
280,1,42379,1,0,1:0:0:0:
376,82,42555,1,10,0:0:0:0:
220,120,42732,5,8,0:0:0:0:
220,120,42820,1,8,0:0:0:0:
220,120,42908,2,0,B|149:139|149:139|123:181|123:181|39:203,1,199.199993920899,6|10,1:2|0:0,0:0:0:0:
209,214,43438,1,2,1:2:0:0:
209,214,43526,1,8,0:0:0:0:
209,214,43614,1,0,1:0:0:0:
71,116,43791,1,2,1:2:0:0:
26,284,43967,2,0,P|83:300|131:322,1,99.5999969604493,10|2,0:0|1:2,0:0:0:0:
324,251,44320,5,0,1:0:0:0:
209,214,44497,1,0,1:0:0:0:
284,384,44673,2,0,P|268:327|246:279,1,99.5999969604493,10|2,0:0|1:2,0:0:0:0:
324,251,44938,1,8,0:0:0:0:
324,251,45026,2,0,P|349:269|382:275,1,49.7999984802247,0|8,1:0|0:0,0:0:0:0:
400,196,45202,2,0,P|375:178|342:172,1,49.7999984802247,2|0,1:2|0:0,0:0:0:0:
421,366,45379,2,0,P|437:309|459:261,1,99.5999969604493,8|2,0:0|1:2,0:0:0:0:
323,98,45732,6,0,B|252:117|252:117|226:159|226:159|142:181,1,199.199993920899,2|8,1:2|0:0,0:0:0:0:
0,98,46261,1,2,1:2:0:0:
0,98,46349,1,8,0:0:0:0:
0,98,46438,1,2,1:2:0:0:
112,48,46614,1,0,1:0:0:0:
152,178,46791,2,0,P|161:227|168:296,1,99.5999969604493,8|0,0:0|1:0,0:0:0:0:
17,342,47144,6,0,P|60:354|108:323,1,99.5999969604493,6|0,1:2|1:0,0:0:0:0:
184,94,47497,2,0,P|151:125|154:182,1,99.5999969604493,10|0,0:0|0:0,0:0:0:0:
244,261,47849,1,14,1:2:0:0:
244,261,47938,1,8,0:0:0:0:
244,261,48026,2,0,P|277:269|302:284,1,49.7999984802247,8|8,0:0|0:0,0:0:0:0:
346,88,48202,1,10,1:2:0:0:
346,88,48291,1,8,0:0:0:0:
346,88,48379,2,0,P|313:96|288:111,1,49.7999984802247,8|8,0:0|0:0,0:0:0:0:
369,237,48555,6,0,P|462:249|512:169,1,199.199993920899,4|10,1:0|0:0,0:0:0:0:
412,10,49085,1,2,1:2:0:0:
412,10,49173,1,8,0:0:0:0:
412,10,49261,1,0,1:0:0:0:
300,104,49438,1,2,1:2:0:0:
427,172,49614,2,0,P|449:121|484:77,1,99.5999969604493,8|2,0:0|1:2,0:0:0:0:
315,13,49967,6,0,B|244:32|244:32|218:74|218:74|134:96,1,199.199993920899,0|10,1:0|0:0,0:0:0:0:
0,21,50497,1,2,1:2:0:0:
0,21,50585,1,8,0:0:0:0:
0,21,50673,2,0,P|23:5|63:2,1,49.7999984802247,0|8,1:0|0:0,0:0:0:0:
67,74,50849,2,0,P|44:90|4:93,1,49.7999984802247,0|0,1:0|0:0,0:0:0:0:
144,93,51026,2,0,P|136:137|130:195,1,99.5999969604493,8|2,0:0|1:2,0:0:0:0:
0,300,51379,5,2,1:2:0:0:
43,184,51555,1,0,1:0:0:0:
201,233,51732,1,10,0:0:0:0:
102,366,51908,1,2,1:2:0:0:
102,366,51997,1,8,0:0:0:0:
102,366,52085,2,0,P|94:314|82:264,1,99.5999969604493,0|2,1:0|1:2,0:0:0:0:
219,135,52438,2,0,P|207:183|200:232,1,99.5999969604493,8|2,0:0|1:2,0:0:0:0:
210,245,52702,5,8,0:0:0:0:
210,245,52791,1,0,1:0:0:0:
302,381,52967,1,2,1:2:0:0:
406,266,53144,1,10,0:0:0:0:
290,202,53320,1,2,1:2:0:0:
290,202,53408,1,8,0:0:0:0:
290,202,53497,1,0,1:0:0:0:
285,298,53673,1,0,1:0:0:0:
429,363,53849,1,8,0:0:0:0:
446,173,54026,5,10,0:0:0:0:
446,173,54114,1,8,0:0:0:0:
446,173,54202,2,0,P|358:136|289:201,1,199.199993920899,4|10,1:2|0:0,0:0:0:0:
208,347,54732,1,2,1:2:0:0:
208,347,54820,1,8,0:0:0:0:
208,347,54908,2,0,P|179:364|149:372,1,49.7999984802247,0|8,1:0|0:0,0:0:0:0:
128,290,55085,2,0,P|157:273|187:265,1,49.7999984802247,2|0,1:2|0:0,0:0:0:0:
59,384,55261,2,0,P|42:312|-1:192,1,199.199993920899,10|0,0:0|1:0,0:0:0:0:
128,81,55791,1,0,1:0:0:0:
211,195,55967,1,8,0:0:0:0:
79,180,56144,5,2,1:2:0:0:
79,180,56232,1,8,0:0:0:0:
79,180,56320,2,0,P|63:146|6:34,2,149.399995440674,2|2|2,1:2|0:0|1:2,0:0:0:0:
234,273,57026,2,0,B|305:254|305:254|331:212|331:212|415:190,1,199.199993920899,2|8,1:2|0:0,0:0:0:0:
512,58,57555,1,2,0:0:0:0:
512,267,57732,1,2,1:2:0:0:
319,178,57908,1,0,1:0:0:0:
428,96,58085,2,0,P|412:146|403:223,1,99.5999969604493,12|0,0:0|1:0,0:0:0:0:
353,384,58438,6,0,P|348:363|335:332,1,49.7999984802247,8|8,1:2|0:0,0:0:0:0:
292,264,58614,1,0,2:0:0:0:
161,338,58791,1,8,1:3:0:0:
161,338,58879,1,2,2:0:0:0:
161,338,58967,2,0,P|150:361|143:385,1,49.7999984802247,8|8,0:0|0:0,0:0:0:0:
16,310,59144,2,0,P|9:287|0:264,3,49.7999984802247,14|8|8|8,1:2|0:0|0:0|0:0,0:0:0:0:
103,272,59497,1,10,1:2:0:0:
134,257,59585,1,8,0:0:0:0:
169,253,59673,1,8,0:0:0:0:
203,258,59761,1,8,0:0:0:0:
234,273,59849,6,0,P|327:285|377:205,1,199.199993920899,4|10,1:0|0:0,0:0:0:0:
351,71,60379,1,0,1:0:0:0:
351,71,60467,1,8,0:0:0:0:
351,71,60555,1,0,1:0:0:0:
196,175,60732,1,0,1:0:0:0:
290,206,60908,2,0,P|277:148|267:101,1,99.5999969604493,10|0,0:0|1:0,0:0:0:0:
263,97,61173,5,8,0:0:0:0:
262,99,61261,1,2,1:2:0:0:
103,162,61438,1,0,1:0:0:0:
169,340,61614,1,10,0:0:0:0:
232,272,61791,1,2,1:2:0:0:
232,272,61879,1,8,0:0:0:0:
232,272,61967,2,0,P|197:259|162:256,1,49.7999984802247,0|8,1:0|0:0,0:0:0:0:
169,340,62144,2,0,P|204:353|239:356,1,49.7999984802247,0|0,1:0|0:0,0:0:0:0:
85,384,62320,6,0,P|57:287|17:196,1,199.199993920899,10|2,0:0|1:2,0:0:0:0:
73,46,62849,1,0,1:0:0:0:
193,136,63026,1,8,0:0:0:0:
99,121,63202,2,0,P|95:148|93:181,1,49.7999984802247,2|8,1:2|0:0,0:0:0:0:
111,198,63379,2,0,P|113:173|117:149,1,49.7999984802247,0|8,1:0|0:0,0:0:0:0:
161,55,63555,5,0,1:0:0:0:
283,145,63732,1,8,0:0:0:0:
197,262,63908,2,0,P|198:237|202:212,1,49.7999984802247,2|8,1:2|0:0,0:0:0:0:
193,136,64085,2,0,P|189:163|187:196,1,49.7999984802247,2|8,1:2|0:0,0:0:0:0:
257,321,64261,5,0,1:0:0:0:
369,154,64438,1,8,0:0:0:0:
283,145,64614,2,0,P|279:172|277:205,1,49.7999984802247,2|8,1:2|0:0,0:0:0:0:
336,295,64791,2,0,P|337:270|341:245,1,49.7999984802247,2|8,1:2|0:0,0:0:0:0:
456,165,64967,1,0,1:0:0:0:
512,308,65144,1,8,0:0:0:0:
388,374,65320,5,10,0:0:0:0:
388,374,65408,1,8,0:0:0:0:
388,374,65497,2,0,B|317:355|317:355|291:313|291:313|217:293,1,199.199993920899,6|8,1:2|0:0,0:0:0:0:
39,310,66026,1,0,1:2:0:0:
108,250,66202,2,0,P|127:320|93:384,2,149.399995440674,2|2|2,1:2|0:0|1:2,0:0:0:0:
0,157,66908,2,0,P|93:169|143:89,1,199.199993920899,2|10,1:2|0:0,0:0:0:0:
25,1,67438,2,0,P|45:50|60:98,1,99.5999969604493,2|0,1:2|1:0,0:0:0:0:
193,211,67791,2,0,P|208:163|227:117,1,99.5999969604493,2|8,1:2|0:0,0:0:0:0:
143,88,68144,5,2,1:2:0:0:
321,148,68320,1,6,1:2:0:0:
361,33,68497,1,0,1:0:0:0:
226,117,68673,2,0,P|232:166|243:215,1,99.5999969604493,8|2,0:0|1:2,0:0:0:0:
374,324,69026,1,2,1:2:0:0:
438,179,69202,1,0,1:0:0:0:
271,304,69379,2,0,P|221:310|172:321,1,99.5999969604493,8|0,0:0|1:0,0:0:0:0:
27,349,69732,5,12,0:0:0:0:
147,174,69908,1,0,1:0:0:0:
173,321,70085,5,8,0:0:0:0:
0,201,70261,1,0,1:0:0:0:
86,260,70438,5,10,1:2:0:0:
86,260,70526,1,8,0:3:0:0:
86,260,70614,2,0,P|93:302|100:330,1,49.7999984802247,8|8,0:3|0:3,0:0:0:0:
172,320,70791,5,0,1:2:0:0:
199,325,70879,1,4,0:3:0:0:
226,331,70967,1,4,0:3:0:0:
253,337,71055,1,4,0:3:0:0:
281,344,71144,6,0,P|342:303|445:298,1,166,4|2,1:0|1:2,0:0:0:0:
512,155,71673,2,0,P|490:187|484:235,1,83,2|0,0:0|1:0,0:0:0:0:
304,204,72026,2,0,P|334:232|351:270,1,83,2|0,0:0|1:0,0:0:0:0:
457,74,72379,2,0,P|392:120|300:103,1,166,2|0,0:0|0:0,0:0:0:0:
310,110,72908,1,0,1:0:0:0:
176,4,73085,5,2,0:0:0:0:
176,4,73261,2,0,P|196:70|213:141,2,124.5,2|2|2,1:2|0:0|0:0,0:0:0:0:
281,211,73967,2,0,P|260:277|243:348,1,124.5,2|0,1:2|0:0,0:0:0:0:
170,365,74320,1,2,1:2:0:0:
170,365,74497,2,0,P|129:385|82:381,1,83,2|0,0:0|1:0,0:0:0:0:
71,295,74849,2,0,P|111:274|158:278,1,83,2|0,0:0|1:0,0:0:0:0:
284,379,75202,5,2,0:0:0:0:
370,228,75379,1,14,0:0:0:0:
210,123,75555,1,0,1:0:0:0:
147,274,75732,1,2,1:2:0:0:
235,275,75908,2,0,P|301:294|402:346,1,166,14|14,0:0|0:0,0:0:0:0:
509,180,76614,5,10,0:0:0:0:
509,180,76702,1,8,0:0:0:0:
509,180,76791,2,0,P|431:172|366:236,1,166,4|0,1:0|3:0,0:0:0:0:
369,227,77320,1,0,1:0:0:0:
178,103,77497,2,0,P|256:95|321:159,1,166,8|0,3:2|3:0,0:0:0:0:
374,320,78026,5,8,0:0:0:0:
374,320,78114,1,8,0:0:0:0:
374,320,78202,1,2,1:2:0:0:
456,255,78379,2,0,P|478:167|513:92,1,166,8|0,0:0|1:0,0:0:0:0:
391,0,78908,5,10,3:2:0:0:
263,100,79085,1,8,0:0:0:0:
366,225,79261,1,10,3:2:0:0:
491,122,79438,1,8,0:0:0:0:
377,111,79614,1,2,0:0:0:0:
380,112,82085,5,10,0:0:0:0:
351,114,82169,1,8,0:0:0:0:
322,117,82253,1,10,0:0:0:0:
293,120,82337,1,8,0:0:0:0:
264,123,82432,2,0,P|253:176|247:221,1,83,4|0,1:0|1:0,0:0:0:0:
158,298,82785,2,0,P|151:256|142:216,1,83,8|0,0:0|1:0,0:0:0:0:
140,209,83049,5,8,0:0:0:0:
140,209,83137,1,0,1:0:0:0:
242,289,83314,1,2,1:2:0:0:
108,366,83490,1,8,0:0:0:0:
158,298,83667,1,0,1:2:0:0:
262,372,83843,6,0,P|307:350|328:307,1,83,2|0,1:2|1:0,0:0:0:0:
270,128,84196,2,0,P|246:172|254:219,1,83,10|0,0:0|1:0,0:0:0:0:
406,329,84549,2,0,P|401:288|378:255,1,83,2|0,1:2|1:0,0:0:0:0:
176,245,84902,2,0,P|202:276|242:289,1,83,10|4,0:0|0:3,0:0:0:0:
464,226,85255,5,14,0:0:0:0:
305,53,85432,1,0,1:0:0:0:
242,289,85608,1,8,0:0:0:0:
365,156,85784,6,0,P|339:134|307:129,1,49.7999984802247,2|0,1:2|0:0,0:0:0:0:
305,53,85961,2,0,P|273:64|253:89,1,49.7999984802247,10|0,0:0|0:0,0:0:0:0:
248,157,86137,1,0,1:0:0:0:
388,62,86314,1,8,0:0:0:0:
189,57,86490,6,0,P|183:89|194:119,1,49.7999984802247,2|0,1:2|0:0,0:0:0:0:
129,160,86667,2,0,P|154:181|186:186,1,49.7999984802247,14|0,0:0|0:0,0:0:0:0:
248,157,86843,1,0,1:0:0:0:
96,84,87020,1,8,0:0:0:0:
191,259,87196,6,0,P|222:247|242:222,1,49.7999984802247,2|0,1:2|0:0,0:0:0:0:
310,259,87373,2,0,P|315:226|304:196,1,49.7999984802247,12|0,0:0|0:0,0:0:0:0:
248,157,87549,1,10,0:0:0:0:
218,162,87637,1,8,0:0:0:0:
189,168,87726,1,10,0:0:0:0:
160,175,87814,1,8,0:0:0:0:
131,182,87902,1,10,0:0:0:0:
102,190,87990,1,8,0:0:0:0:
73,198,88079,1,6,1:2:0:0:
