osu file format v14

[General]
AudioFilename: audio.mp3
AudioLeadIn: 0
PreviewTime: 179786
Countdown: 1
SampleSet: Soft
StackLeniency: 0.7
Mode: 0
LetterboxInBreaks: 0
WidescreenStoryboard: 0

[Editor]
DistanceSpacing: 1.2
BeatDivisor: 4
GridSize: 32
TimelineZoom: 1.7

[Metadata]
Title:Hajimari no Sokudo
TitleUnicode:はじまりの速度
Artist:Sangatsu no Phantasia
ArtistUnicode:三月のパンタシア
Creator:Rishe
Version:Emotion
Source:キズナイーバー
Tags:キズナイーバー Kiznaiver anime ending kill me lol
BeatmapID:999703
BeatmapSetID:467212

[Difficulty]
HPDrainRate:5
CircleSize:4
OverallDifficulty:8
ApproachRate:9.2
SliderMultiplier:1.6
SliderTickRate:1

[Events]
//Background and Video events
0,0,"5.jpg",0,0
//Break Periods
2,195780,204892
2,224015,234363
//Storyboard Layer 0 (Background)
//Storyboard Layer 1 (Fail)
//Storyboard Layer 2 (Pass)
//Storyboard Layer 3 (Foreground)
//Storyboard Sound Samples

[TimingPoints]
757,352.941176470588,4,2,1,40,1,0
757,-166.666666666667,4,2,2,60,0,0
933,-166.666666666667,4,2,1,20,0,0
1109,-166.666666666667,4,2,1,20,0,0
12051,-142.857142857143,4,2,2,60,0,0
12227,-142.857142857143,4,2,2,20,0,0
12404,-142.857142857143,4,2,1,20,0,0
16286,-142.857142857143,4,2,1,40,0,0
17698,-125,4,2,1,40,0,0
20521,-125,4,2,1,10,0,0
20874,-125,4,2,1,15,0,0
21227,-125,4,2,1,20,0,0
21580,-125,4,2,1,25,0,0
21933,-125,4,2,2,40,0,0
23345,-125,4,2,1,20,0,0
28550,-125,4,2,1,5,0,0
28639,-125,4,2,1,20,0,0
29962,-125,4,2,1,5,0,0
30050,-125,4,2,1,20,0,0
34286,-125,4,2,1,40,0,0
34639,-125,4,2,2,40,0,0
34992,-125,4,2,1,30,0,0
43109,-111.111111111111,4,2,1,30,0,0
48756,-111.111111111111,4,2,2,40,0,0
48933,-111.111111111111,4,2,1,35,0,0
50874,-125,4,2,1,35,0,0
51580,-133.333333333333,4,2,1,35,0,0
53697,-117.647058823529,4,2,1,40,0,0
54050,-105.263157894737,4,2,1,45,0,0
57139,-105.263157894737,4,2,1,5,0,0
57227,-105.263157894737,4,2,1,45,0,0
57580,-105.263157894737,4,2,1,35,0,0
57933,-105.263157894737,4,2,1,45,0,0
58286,-105.263157894737,4,2,1,55,0,0
58639,-105.263157894737,4,2,1,15,0,0
58992,-105.263157894737,4,2,1,20,0,0
59344,-105.263157894737,4,2,1,25,0,0
59697,-105.263157894737,4,2,1,30,0,0
60050,-90.9090909090909,4,2,2,60,0,0
60403,-90.9090909090909,4,2,1,60,0,1
81051,-90.9090909090909,4,2,1,60,0,0
82639,-90.9090909090909,4,2,2,60,0,0
82817,-90.9090909090909,4,2,1,60,0,1
93933,-111.111111111111,4,2,2,60,0,0
94286,-111.111111111111,4,2,1,60,0,0
102403,-111.111111111111,4,2,2,60,0,0
102492,-111.111111111111,4,2,1,60,0,0
105227,-111.111111111111,4,2,2,60,0,0
105404,-111.111111111111,4,2,1,60,0,0
108051,-111.111111111111,4,2,1,70,0,0
110874,-111.111111111111,4,2,2,70,0,0
110962,-111.111111111111,4,2,1,45,0,0
139109,-153.846153846154,4,2,2,45,0,0
139815,-133.333333333333,4,2,2,45,0,0
140698,-133.333333333333,4,2,1,45,0,0
141933,-117.647058823529,4,2,1,45,0,0
144756,-117.647058823529,4,2,1,50,0,0
145109,-117.647058823529,4,2,1,55,0,0
145462,-117.647058823529,4,2,1,60,0,0
145815,-117.647058823529,4,2,1,65,0,0
146168,-117.647058823529,4,2,1,70,0,0
146521,-117.647058823529,4,2,1,70,0,0
146874,-100,4,2,1,70,0,0
147227,-66.6666666666667,4,2,1,70,0,0
147580,-86.9565217391304,4,2,2,70,0,1
147933,-90.9090909090909,4,2,1,60,0,1
158874,-100,4,2,1,50,0,0
161609,-100,4,2,1,5,0,0
161698,-100,4,2,1,50,0,0
163639,-90.9090909090909,4,2,1,50,0,0
163992,-83.3333333333333,4,2,1,50,0,0
164521,-100,4,2,1,50,0,1
170168,-100,4,2,1,50,0,0
171580,-111.111111111111,4,2,1,50,0,0
171933,-125,4,2,1,45,0,0
172286,-142.857142857143,4,2,1,40,0,0
172639,-166.666666666667,4,2,1,35,0,0
173159,-100,4,2,1,35,0,0
173521,-111.111111111111,4,2,1,35,0,0
173874,-125,4,2,1,35,0,0
174227,-142.857142857143,4,2,1,35,0,0
174580,-166.666666666667,4,2,1,35,0,0
174933,-133.333333333333,4,2,1,50,0,0
178109,-142.857142857143,4,2,1,50,0,0
180756,-100,4,2,1,65,0,0
187109,-95.2380952380952,4,2,1,50,0,0
195580,-166.666666666667,4,2,2,50,0,0
205815,-166.666666666667,4,2,1,50,0,0
212521,-125,4,2,1,50,0,0
218168,-133.333333333333,4,2,1,50,0,0
220815,-117.647058823529,4,2,1,50,0,0
221345,-117.647058823529,4,2,1,55,0,0
221698,-117.647058823529,4,2,1,60,0,0
222051,-117.647058823529,4,2,1,65,0,0
222404,-117.647058823529,4,2,1,70,0,0
222756,-117.647058823529,4,2,1,75,0,0
223109,-117.647058823529,4,2,1,80,0,0
223462,-117.647058823529,4,2,1,85,0,0
223815,-166.666666666667,4,2,2,90,0,0
234933,-166.666666666667,4,2,2,30,0,0
235109,-166.666666666667,4,2,2,55,0,0
235462,-166.666666666667,4,2,1,30,0,0
236521,-166.666666666667,4,2,2,30,0,0
236874,-166.666666666667,4,2,1,30,0,0
240404,-117.647058823529,4,2,2,45,0,0
240933,-117.647058823529,4,2,1,45,0,0
246404,-90.9090909090909,4,2,2,70,0,1
246756,-90.9090909090909,4,2,1,70,0,1
254874,-90.9090909090909,4,2,2,70,0,1
255227,-90.9090909090909,4,2,1,70,0,1
257698,-125,4,2,1,45,0,0
266168,-125,4,2,2,70,0,0
268286,-125,4,2,1,45,0,0
268992,-125,4,2,2,75,0,0

[HitObjects]
161,137,758,6,0,L|150:204,2,47.9999985351563,2|0|0,0:0|0:0|0:0,0:0:0:0:
232,75,1287,1,2,0:0:0:0:
232,75,1640,1,2,0:0:0:0:
304,167,1816,1,2,0:0:0:0:
400,102,1993,1,2,0:0:0:0:
352,246,2169,6,0,P|303:259|252:243,1,95.9999970703126,2|0,0:0|0:0,0:0:0:0:
452,183,2875,2,0,L|441:297,1,95.9999970703126,2|0,0:0|0:0,0:0:0:0:
289,183,3581,2,0,L|302:75,1,95.9999970703126,2|0,0:0|0:0,0:0:0:0:
296,87,4110,1,2,0:0:0:0:
204,141,4463,6,0,B|143:145,2,47.9999985351563,2|0|2,0:0|0:0|0:0,0:0:0:0:
183,236,4993,2,0,L|278:229,1,95.9999970703126,2|0,0:0|0:0,0:0:0:0:
216,328,5522,2,0,L|113:336,1,95.9999970703126,2|0,0:0|0:0,0:0:0:0:
51,253,6405,6,0,L|116:249,1,47.9999985351563,2|0,0:0|0:0,0:0:0:0:
151,176,6757,1,2,0:0:0:0:
115,100,6934,1,2,0:0:0:0:
47,179,7287,1,2,0:0:0:0:
123,223,7463,1,2,0:0:0:0:
191,172,7640,1,2,0:0:0:0:
257,229,7816,6,0,L|253:332,1,95.9999970703126,2|0,0:0|0:0,0:0:0:0:
393,356,8522,2,0,L|398:245,1,95.9999970703126,2|0,0:0|0:0,0:0:0:0:
307,151,9228,2,0,P|262:176|202:174,1,95.9999970703126,2|0,0:0|0:0,0:0:0:0:
160,96,9757,1,2,0:0:0:0:
247,46,10110,6,0,L|243:112,1,47.9999985351563,2|0,0:0|0:0,0:0:0:0:
316,175,10463,1,0,0:0:0:0:
207,268,10640,2,0,P|265:248|317:258,1,95.9999970703126,2|0,0:0|0:0,0:0:0:0:
384,302,11169,1,0,0:0:0:0:
384,302,11257,1,0,0:0:0:0:
384,302,11346,2,0,L|387:197,1,95.9999970703126,2|0,0:0|0:0,0:0:0:0:
380,88,12052,6,0,P|350:102|323:102,2,55.9999982910157,2|0|0,0:0|0:0|0:0,0:0:0:0:
333,22,12581,2,0,L|206:26,1,111.999996582031,2|0,0:0|0:0,0:0:0:0:
139,101,13110,1,2,0:0:0:0:
216,167,13287,1,2,0:0:0:0:
110,217,13463,2,0,B|97:281|97:281|108:335,1,111.999996582031,2|0,0:0|0:0,0:0:0:0:
290,329,13993,5,0,0:0:0:0:
290,329,14081,1,0,0:0:0:0:
290,329,14169,2,0,B|299:283|299:283|286:219,1,111.999996582031,2|0,0:0|0:0,0:0:0:0:
195,123,14875,2,0,L|195:237,1,111.999996582031,2|0,0:0|0:0,0:0:0:0:
84,264,15405,1,2,0:0:0:0:
259,346,15757,5,0,0:0:0:0:
360,229,15934,1,0,0:0:0:0:
199,175,16110,1,0,0:0:0:0:
199,175,16199,1,0,0:0:0:0:
199,175,16287,1,8,0:0:0:0:
334,313,16463,5,0,0:0:0:0:
269,129,16640,1,8,0:0:0:0:
202,299,16816,5,0,0:0:0:0:
425,209,16993,1,8,0:0:0:0:
258,105,17169,1,0,0:0:0:0:
260,127,17257,1,0,0:0:0:0:
262,149,17345,1,8,0:0:0:0:
264,171,17433,1,0,0:0:0:0:
267,194,17521,1,0,0:0:0:0:
269,216,17610,1,0,0:0:0:0:
274,239,17699,2,0,B|312:224|356:219|356:219|395:225|412:245,1,128,8|0,0:0|0:0,0:0:0:0:
451,315,18228,5,0,0:0:0:0:
180,350,18405,2,0,P|133:287|140:225,1,128,8|0,0:0|0:0,0:0:0:0:
288,49,18934,1,0,0:0:0:0:
288,49,19022,1,0,0:0:0:0:
288,49,19110,2,0,L|436:35,1,128,8|0,0:0|0:0,0:0:0:0:
278,213,19640,1,0,0:0:0:0:
141,101,19816,1,8,0:0:0:0:
141,101,19905,1,0,0:0:0:0:
141,101,19993,2,0,L|144:46,1,32,2|0,0:0|0:0,0:0:0:0:
278,31,20169,6,0,L|275:119,1,64,2|0,0:0|0:0,0:0:0:0:
273,221,20522,1,8,0:0:0:0:
258,249,20610,1,8,0:0:0:0:
234,270,20698,1,8,0:0:0:0:
205,282,20786,1,8,0:0:0:0:
173,283,20874,1,8,0:0:0:0:
143,272,20963,1,8,0:0:0:0:
119,251,21051,1,8,0:0:0:0:
103,223,21139,1,8,0:0:0:0:
99,192,21227,5,8,0:0:0:0:
100,164,21316,1,8,0:0:0:0:
125,144,21404,1,8,0:0:0:0:
153,129,21492,1,8,0:0:0:0:
184,121,21580,1,8,0:0:0:0:
216,119,21668,1,8,0:0:0:0:
248,124,21757,1,8,0:0:0:0:
278,135,21845,1,8,0:0:0:0:
305,151,21933,1,2,0:0:0:0:
203,187,23346,5,2,0:0:0:0:
134,278,23522,1,0,0:0:0:0:
217,344,23698,2,0,P|263:331|308:328,1,64,2|0,0:0|0:0,0:0:0:0:
404,270,24051,2,0,P|380:231|368:195,1,64,2|0,0:0|0:0,0:0:0:0:
508,91,24404,2,0,P|501:144|486:175,1,64,2|0,0:0|0:0,0:0:0:0:
304,336,24757,2,0,P|306:269|310:252,2,64,2|0|2,0:0|0:0|0:0,0:0:0:0:
166,231,25287,5,0,0:0:0:0:
166,231,25463,1,2,0:0:0:0:
270,138,25640,1,0,0:0:0:0:
350,235,25816,1,2,0:0:0:0:
257,339,25993,1,0,0:0:0:0:
304,150,26169,6,0,P|343:140|385:146,1,64,2|0,0:0|0:0,0:0:0:0:
192,325,26522,2,0,P|186:287|191:240,1,64,2|0,0:0|0:0,0:0:0:0:
256,132,26875,1,2,0:0:0:0:
325,232,27051,1,0,0:0:0:0:
152,202,27228,1,2,0:0:0:0:
152,202,27404,1,0,0:0:0:0:
331,89,27581,6,0,P|341:127|339:165,1,64,2|0,0:0|0:0,0:0:0:0:
212,303,27934,2,0,L|121:291,1,64,2|0,0:0|0:0,0:0:0:0:
88,121,28287,2,0,L|187:134,1,96,2|0,0:0|0:0,0:0:0:0:
236,208,28640,2,0,L|173:214,1,64,2|0,0:0|0:0,0:0:0:0:
62,224,28993,5,2,0:0:0:0:
62,224,29169,1,0,0:0:0:0:
162,354,29345,2,0,P|173:309|172:272,1,64,2|0,0:0|0:0,0:0:0:0:
74,158,29698,2,0,P|114:156|175:138,1,96,2|0,0:0|0:0,0:0:0:0:
217,76,30051,2,0,L|143:68,1,64,2|0,0:0|0:0,0:0:0:0:
292,174,30404,6,0,P|325:141|337:111,2,64,2|0|2,0:0|0:0|0:0,0:0:0:0:
195,244,30934,1,0,0:0:0:0:
195,244,31110,1,2,0:0:0:0:
229,54,31287,1,0,0:0:0:0:
330,176,31463,2,0,L|424:168,1,64,2|0,0:0|0:0,0:0:0:0:
447,71,31816,5,2,0:0:0:0:
447,71,31993,1,0,0:0:0:0:
302,181,32169,2,0,P|292:223|290:254,1,64,2|0,0:0|0:0,0:0:0:0:
472,338,32522,2,0,B|463:298|443:269|443:269,1,64,2|0,0:0|0:0,0:0:0:0:
350,170,32875,1,2,0:0:0:0:
247,324,33051,1,0,0:0:0:0:
247,324,33140,1,0,0:0:0:0:
247,324,33228,2,0,P|287:321|322:312,1,64,2|0,0:0|0:0,0:0:0:0:
437,210,33581,6,0,P|397:207|362:198,1,64,2|0,0:0|0:0,0:0:0:0:
240,89,33934,6,0,P|280:86|315:77,1,64,2|0,0:0|0:0,0:0:0:0:
408,32,34287,2,0,P|413:59|417:76,1,32,8|0,0:0|0:0,0:0:0:0:
484,112,34463,1,0,0:0:0:0:
484,112,34551,1,0,0:0:0:0:
484,112,34640,2,0,L|476:249,1,128,2|0,0:0|0:0,0:0:0:0:
401,336,35169,5,0,0:0:0:0:
306,168,35345,2,0,P|247:154|225:152,1,64,2|0,0:0|0:0,0:0:0:0:
93,299,35698,2,0,P|154:290|181:281,1,64,2|0,0:0|0:0,0:0:0:0:
231,137,36051,1,2,0:0:0:0:
231,137,36228,1,0,0:0:0:0:
288,321,36404,6,0,L|362:307,1,64,2|0,0:0|0:0,0:0:0:0:
455,184,36757,2,0,B|389:180|334:152,1,96,2|0,0:0|0:0,0:0:0:0:
304,98,37110,2,0,L|395:90,1,64,2|0,0:0|0:0,0:0:0:0:
212,193,37463,1,2,0:0:0:0:
217,43,37640,1,0,0:0:0:0:
351,81,37816,5,2,0:0:0:0:
196,138,37993,1,0,0:0:0:0:
196,138,38081,1,0,0:0:0:0:
196,138,38169,2,0,P|134:124|50:125,1,128,2|0,0:0|0:0,0:0:0:0:
183,346,38698,1,0,0:0:0:0:
183,346,38787,1,0,0:0:0:0:
183,346,38875,2,0,P|216:273|222:205,1,128,2|0,0:0|0:0,0:0:0:0:
166,101,39404,1,0,0:0:0:0:
41,239,39581,6,0,P|31:284|31:328,1,64,2|0,0:0|0:0,0:0:0:0:
249,187,39934,2,0,P|235:143|213:104,1,64,2|0,0:0|0:0,0:0:0:0:
102,331,40287,2,0,B|125:344|145:348|145:348|191:343|244:300,1,128,2|2,0:0|0:0,0:0:0:0:
269,100,40816,1,0,0:0:0:0:
269,100,40904,1,0,0:0:0:0:
269,100,40993,2,0,P|316:118|336:134,1,64,2|0,0:0|0:0,0:0:0:0:
139,250,41345,2,0,P|107:210|97:187,1,64,2|0,0:0|0:0,0:0:0:0:
289,56,41698,6,0,P|308:104|312:197,1,128,2|2,0:0|0:0,0:0:0:0:
182,316,42228,1,8,0:0:0:0:
182,316,42316,1,8,0:0:0:0:
182,316,42404,2,0,P|149:311|124:304,1,32,8|8,0:0|0:0,0:0:0:0:
102,107,42581,1,8,0:0:0:0:
102,107,42669,1,8,0:0:0:0:
102,107,42757,2,0,P|134:100|160:98,1,32,8|8,0:0|0:0,0:0:0:0:
230,233,42934,5,8,0:0:0:0:
230,233,43022,1,8,0:0:0:0:
230,233,43110,2,0,B|177:220|130:218|130:218|103:223|77:239,1,143.999995605469,0|2,0:0|0:0,0:0:0:0:
291,360,43640,1,0,0:0:0:0:
291,360,43728,1,0,0:0:0:0:
291,360,43816,2,0,P|314:329|331:274,1,71.9999978027344,2|0,0:0|0:0,0:0:0:0:
163,124,44169,6,0,P|166:165|187:204,1,71.9999978027344,2|0,0:0|0:0,0:0:0:0:
389,133,44522,2,0,P|406:85|403:51,1,71.9999978027344,2|0,0:0|0:0,0:0:0:0:
405,64,44787,1,0,0:0:0:0:
405,64,44875,1,2,0:0:0:0:
231,29,45051,1,8,0:0:0:0:
233,54,45139,1,8,0:0:0:0:
236,79,45227,1,8,0:0:0:0:
239,104,45315,1,8,0:0:0:0:
244,131,45404,6,8,L|251:186,1,35.9999989013672,8|8,0:0|0:0,0:0:0:0:
371,224,45581,2,8,L|366:188,1,35.9999989013672,10|8,0:0|0:0,0:0:0:0:
218,257,45757,2,8,L|222:292,1,35.9999989013672,8|8,0:0|0:0,0:0:0:0:
329,351,45934,2,0,P|263:321|192:325,1,143.999995605469,2|0,0:0|0:0,0:0:0:0:
93,231,46463,1,0,0:0:0:0:
93,231,46551,1,0,0:0:0:0:
93,231,46640,2,0,P|104:284|100:346,1,107.999996704102,2|0,0:0|0:0,0:0:0:0:
101,337,46993,1,2,0:0:0:0:
205,215,47169,5,0,0:0:0:0:
243,335,47345,2,0,L|329:330,1,71.9999978027344,2|0,0:0|0:0,0:0:0:0:
367,218,47698,1,2,0:0:0:0:
448,301,47875,1,0,0:0:0:0:
281,200,48051,1,2,0:0:0:0:
437,142,48228,1,0,0:0:0:0:
326,291,48404,1,2,0:0:0:0:
207,118,48581,5,0,0:0:0:0:
207,118,48669,1,0,0:0:0:0:
207,118,48757,2,0,P|191:195|186:262,1,143.999995605469,2|8,0:0|0:0,0:0:0:0:
308,335,49287,1,0,0:0:0:0:
308,335,49375,1,0,0:0:0:0:
308,335,49463,2,0,P|362:324|404:324,1,71.9999978027344,2|0,0:0|0:0,0:0:0:0:
247,160,49816,2,0,L|151:151,1,71.9999978027344,2|0,0:0|0:0,0:0:0:0:
47,328,50169,2,0,P|90:317|138:316,1,71.9999978027344,2|0,0:0|0:0,0:0:0:0:
250,227,50522,1,2,0:0:0:0:
110,83,50698,5,0,0:0:0:0:
110,83,50787,1,0,0:0:0:0:
110,83,50875,2,0,L|97:226,1,128,2|2,0:0|0:0,0:0:0:0:
191,309,51404,1,0,0:0:0:0:
338,171,51581,2,0,P|290:144|210:148,1,120.000004577637,2|2,0:0|0:0,0:0:0:0:
94,334,52110,1,0,0:0:0:0:
94,334,52198,1,0,0:0:0:0:
94,334,52287,6,0,L|223:325,1,120.000004577637,2|2,0:0|0:0,0:0:0:0:
411,157,52816,1,0,0:0:0:0:
411,157,52904,1,0,0:0:0:0:
411,157,52993,6,0,L|282:148,1,120.000004577637,2|2,0:0|0:0,0:0:0:0:
189,50,53522,1,0,0:0:0:0:
83,157,53698,2,0,P|93:201|96:245,1,68.0000012969971,2|0,0:0|0:0,0:0:0:0:
253,335,54051,2,0,P|264:285|264:258,1,75.9999979705811,2|0,0:0|0:0,0:0:0:0:
264,260,54316,1,0,0:0:0:0:
264,260,54404,1,2,0:0:0:0:
358,107,54581,5,0,0:0:0:0:
140,78,54757,1,2,0:0:0:0:
277,36,54934,1,0,0:0:0:0:
277,36,55022,1,0,0:0:0:0:
277,36,55110,1,2,0:0:0:0:
189,202,55287,1,0,0:0:0:0:
172,77,55463,5,2,0:0:0:0:
391,180,55640,1,0,0:0:0:0:
391,180,55728,1,0,0:0:0:0:
391,180,55816,1,2,0:0:0:0:
146,297,55993,5,0,0:0:0:0:
229,139,56169,1,2,0:0:0:0:
259,346,56345,5,0,0:0:0:0:
259,346,56434,1,0,0:0:0:0:
259,346,56522,1,2,0:0:0:0:
60,207,56698,1,0,0:0:0:0:
219,68,56875,2,0,P|248:115|254:192,1,113.999996955872,2|0,0:0|0:0,0:0:0:0:
237,199,57228,2,0,L|144:190,1,75.9999979705811,2|0,0:0|0:0,0:0:0:0:
63,183,57581,5,2,0:0:0:0:
182,58,57757,1,0,0:0:0:0:
176,233,57934,1,2,0:0:0:0:
88,77,58110,1,0,0:0:0:0:
238,146,58287,1,2,0:0:0:0:
63,186,58463,1,0,0:0:0:0:
247,44,58640,5,8,0:0:0:0:
256,68,58728,1,8,0:0:0:0:
259,95,58816,1,8,0:0:0:0:
256,121,58904,1,8,0:0:0:0:
247,146,58992,1,8,0:0:0:0:
232,168,59081,1,8,0:0:0:0:
212,186,59169,1,8,0:0:0:0:
189,198,59257,1,8,0:0:0:0:
163,205,59345,1,8,0:0:0:0:
319,92,59522,5,8,0:0:0:0:
363,93,59610,1,8,0:0:0:0:
405,110,59698,1,8,0:0:0:0:
438,142,59786,1,8,0:0:0:0:
457,184,59874,1,8,0:0:0:0:
460,228,59963,1,8,0:0:0:0:
452,270,60051,2,0,B|452:295|440:311|440:311|388:334|307:302,1,176.000005371094,2|2,0:0|0:0,0:0:0:0:
140,138,60581,5,0,0:0:0:0:
140,138,60669,1,0,0:0:0:0:
140,138,60757,2,0,P|114:65|113:22,1,88.000002685547,2|0,0:0|0:0,0:0:0:0:
319,29,61110,1,2,0:0:0:0:
270,247,61287,1,0,0:0:0:0:
270,247,61375,1,0,0:0:0:0:
270,247,61463,2,0,L|153:237,1,88.000002685547,2|0,0:0|0:0,0:0:0:0:
132,106,61816,5,2,0:0:0:0:
336,50,61993,1,0,0:0:0:0:
336,50,62081,1,0,0:0:0:0:
336,50,62169,2,0,P|338:105|323:148,1,88.000002685547,2|0,0:0|0:0,0:0:0:0:
160,71,62522,1,2,0:0:0:0:
100,190,62698,2,0,P|88:220|87:236,1,44.0000013427735
179,272,62875,2,0,L|4:284,1,176.000005371094,2|2,0:0|0:0,0:0:0:0:
294,118,63404,6,0,P|319:126|335:138,1,44.0000013427735
160,179,63581,2,0,P|141:89|196:25,1,176.000005371094,2|2,0:0|0:0,0:0:0:0:
413,183,64110,1,0,0:0:0:0:
413,183,64198,1,0,0:0:0:0:
413,183,64287,2,0,P|400:232|371:282,1,88.000002685547,2|0,0:0|0:0,0:0:0:0:
152,345,64640,2,0,L|257:335,1,88.000002685547,2|0,0:0|0:0,0:0:0:0:
279,335,64904,1,0,0:0:0:0:
279,335,64993,1,2,0:0:0:0:
221,88,65169,5,0,0:0:0:0:
348,187,65345,1,2,0:0:0:0:
202,263,65522,2,0,P|167:254|148:241,1,44.0000013427735
132,159,65698,2,0,L|122:341,1,176.000005371094,2|2,0:0|0:0,0:0:0:0:
369,122,66228,2,0,P|386:117|419:118,1,44.0000013427735
303,221,66404,2,0,P|266:184|256:123,2,88.000002685547,2|0|2,0:0|0:0|0:0,0:0:0:0:
448,54,66934,5,0,0:0:0:0:
448,54,67022,1,0,0:0:0:0:
448,54,67110,2,0,P|373:45|352:45,1,88.000002685547,2|0,0:0|0:0,0:0:0:0:
214,235,67463,2,0,L|310:226,2,88.000002685547,2|0|2,0:0|0:0|0:0,0:0:0:0:
59,96,67993,1,0,0:0:0:0:
59,96,68081,1,0,0:0:0:0:
59,96,68169,2,0,P|31:160|24:193,1,88.000002685547,2|0,0:0|0:0,0:0:0:0:
77,241,68434,1,0,0:0:0:0:
77,241,68522,2,0,L|257:233,1,176.000005371094,2|2,0:0|0:0,0:0:0:0:
374,158,69051,5,0,0:0:0:0:
310,318,69228,2,0,P|251:304|219:306,1,88.000002685547,2|0,0:0|0:0,0:0:0:0:
193,315,69493,1,0,0:0:0:0:
193,315,69581,1,2,0:0:0:0:
106,190,69757,1,0,0:0:0:0:
242,64,69934,2,0,P|258:111|253:169,1,88.000002685547,2|0,0:0|0:0,0:0:0:0:
23,258,70287,2,0,L|34:164,1,88.000002685547,2|0,0:0|0:0,0:0:0:0:
288,94,70640,5,2,0:0:0:0:
266,132,70728,1,0,0:0:0:0:
229,155,70816,1,0,0:0:0:0:
186,156,70904,1,0,0:0:0:0:
147,137,70992,1,2,0:0:0:0:
130,97,71081,1,0,0:0:0:0:
141,56,71169,1,0,0:0:0:0:
181,43,71257,1,0,0:0:0:0:
219,58,71345,2,0,L|320:49,1,88.000002685547,2|0,0:0|0:0,0:0:0:0:
420,31,71698,5,2,0:0:0:0:
343,220,71875,1,0,0:0:0:0:
343,220,71963,1,0,0:0:0:0:
343,220,72051,2,0,P|284:210|250:197,1,88.000002685547,2|0,0:0|0:0,0:0:0:0:
185,33,72404,1,2,0:0:0:0:
345,56,72581,2,0,P|347:78|344:107,1,44.0000013427735
147,208,72757,2,0,P|157:165|210:107,1,88.000002685547,2|0,0:0|0:0,0:0:0:0:
205,106,73022,1,0,0:0:0:0:
205,106,73110,1,2,0:0:0:0:
316,335,73287,6,0,P|264:352|255:353,1,44.0000013427735
465,138,73463,2,0,L|461:258,1,88.000002685547,2|0,0:0|0:0,0:0:0:0:
464,256,73728,1,0,0:0:0:0:
464,256,73816,1,2,0:0:0:0:
364,320,73993,1,0,0:0:0:0:
220,134,74169,2,0,B|229:325,1,176.000005371094,2|2,0:0|0:0,0:0:0:0:
406,194,74698,5,0,0:0:0:0:
406,194,74787,1,0,0:0:0:0:
406,194,74875,1,2,0:0:0:0:
255,60,75051,2,0,L|251:127,1,44.0000013427735
170,233,75228,1,2,0:0:0:0:
54,122,75404,2,0,L|58:189,1,44.0000013427735
11,279,75581,2,0,P|57:264|117:263,1,88.000002685547,2|0,0:0|0:0,0:0:0:0:
131,267,75845,1,0,0:0:0:0:
131,267,75934,1,2,0:0:0:0:
202,335,76110,6,0,L|272:323,1,44.0000013427735
336,244,76287,1,2,0:0:0:0:
303,215,76375,1,0,0:0:0:0:
261,201,76463,1,0,0:0:0:0:
218,204,76551,1,0,0:0:0:0:
178,223,76639,1,2,0:0:0:0:
352,340,76816,6,0,P|377:335|401:324,1,44.0000013427735
345,140,76993,2,0,P|310:186|301:233,1,88.000002685547,2|0,0:0|0:0,0:0:0:0:
438,218,77345,1,2,0:0:0:0:
321,54,77522,2,0,P|269:47|250:51,1,44.0000013427735
154,172,77698,2,0,L|255:154,1,88.000002685547,2|0,0:0|0:0,0:0:0:0:
202,48,78051,1,2,0:0:0:0:
47,201,78228,1,0,0:0:0:0:
47,201,78316,1,0,0:0:0:0:
47,201,78404,6,0,P|31:250|26:296,1,88.000002685547,2|0,0:0|0:0,0:0:0:0:
162,189,78757,1,2,0:0:0:0:
218,345,78934,2,0,L|279:337,1,44.0000013427735
401,268,79110,2,0,L|275:255,1,88.000002685547,2|0,0:0|0:0,0:0:0:0:
289,258,79375,1,0,0:0:0:0:
289,258,79463,1,2,0:0:0:0:
148,148,79640,6,0,P|148:107|155:91,1,44.0000013427735
262,25,79816,2,0,L|259:205,1,176.000005371094,2|2,0:0|0:0,0:0:0:0:
362,331,80345,1,0,0:0:0:0:
362,331,80434,1,0,0:0:0:0:
362,331,80522,2,0,P|423:311|457:285,1,88.000002685547,2|0,0:0|0:0,0:0:0:0:
371,125,80875,1,2,0:0:0:0:
261,325,81051,5,0,0:0:0:0:
261,325,81140,1,0,0:0:0:0:
261,325,81228,2,0,L|203:319,1,44.0000013427735,2|0,0:0|0:0,0:0:0:0:
65,218,81404,5,0,0:0:0:0:
65,218,81493,1,0,0:0:0:0:
65,218,81581,2,0,L|123:212,1,44.0000013427735,2|0,0:0|0:0,0:0:0:0:
140,210,81757,1,0,0:0:0:0:
181,196,81845,1,0,0:0:0:0:
211,164,81933,1,2,0:0:0:0:
221,122,82021,1,0,0:0:0:0:
208,80,82109,1,0,0:0:0:0:
177,50,82198,1,0,0:0:0:0:
138,40,82287,5,2,0:0:0:0:
96,49,82375,1,0,0:0:0:0:
71,84,82463,1,0,0:0:0:0:
76,127,82551,1,0,0:0:0:0:
109,155,82640,2,0,L|214:150,1,88.000002685547,2|0,0:0|0:0,0:0:0:0:
297,52,82993,1,2,0:0:0:0:
390,159,83169,6,0,P|375:185|369:202,1,44.0000013427735
286,253,83345,2,0,P|337:290|398:297,1,88.000002685547,2|0,0:0|0:0,0:0:0:0:
392,306,83610,1,0,0:0:0:0:
392,306,83698,1,2,0:0:0:0:
447,82,83875,5,0,0:0:0:0:
447,82,83963,1,0,0:0:0:0:
447,82,84051,2,0,P|397:73|343:69,1,88.000002685547,2|0,0:0|0:0,0:0:0:0:
197,131,84404,1,2,0:0:0:0:
298,269,84581,2,0,P|320:249|336:232,1,44.0000013427735
159,213,84757,2,0,P|139:269|198:379,1,176.000005371094,2|2,0:0|0:0,0:0:0:0:
403,221,85287,5,0,0:0:0:0:
403,221,85375,1,0,0:0:0:0:
403,221,85463,2,0,P|416:161|417:113,1,88.000002685547,2|0,0:0|0:0,0:0:0:0:
364,38,85816,2,0,L|319:49,1,44.0000013427735,2|0,0:0|0:0,0:0:0:0:
272,154,85993,2,0,L|204:141,1,44.0000013427735
187,49,86169,2,0,L|102:71,1,88.000002685547,2|0,0:0|0:0,0:0:0:0:
11,156,86522,5,2,0:0:0:0:
48,179,86610,1,0,0:0:0:0:
90,188,86698,1,0,0:0:0:0:
134,181,86786,1,0,0:0:0:0:
172,160,86874,1,2,0:0:0:0:
368,159,87051,6,0,P|381:184|384:207,1,44.0000013427735
247,245,87228,1,2,0:0:0:0:
256,100,87404,6,0,P|287:66|300:60,1,44.0000013427735
446,142,87581,1,2,0:0:0:0:
367,280,87757,1,0,0:0:0:0:
367,280,87845,1,0,0:0:0:0:
367,280,87934,2,0,P|294:264|258:264,1,88.000002685547,2|0,0:0|0:0,0:0:0:0:
133,42,88287,2,0,P|148:94|148:161,1,88.000002685547,2|0,0:0|0:0,0:0:0:0:
154,162,88551,1,0,0:0:0:0:
154,162,88640,1,2,0:0:0:0:
132,280,88816,6,0,P|124:301|105:318,1,44.0000013427735
0,188,88993,2,0,P|46:182|105:184,1,88.000002685547,2|0,0:0|0:0,0:0:0:0:
283,215,89345,1,2,0:0:0:0:
208,314,89522,2,0,P|191:324|160:327,1,44.0000013427735
72,350,89698,2,0,P|53:298|50:254,1,88.000002685547,2|0,0:0|0:0,0:0:0:0:
234,66,90051,2,0,P|227:124|214:165,2,88.000002685547,2|0|2,0:0|0:0|0:0,0:0:0:0:
160,278,90581,1,0,0:0:0:0:
160,278,90669,1,0,0:0:0:0:
160,278,90757,6,0,L|63:275,1,88.000002685547,2|0,0:0|0:0,0:0:0:0:
201,72,91110,1,2,0:0:0:0:
320,204,91287,2,0,P|314:239|299:257,1,44.0000013427735
154,191,91463,1,2,0:0:0:0:
282,126,91640,2,0,P|331:119|349:124,1,44.0000013427735
460,213,91816,2,0,L|349:204,1,88.000002685547,2|0,0:0|0:0,0:0:0:0:
339,206,92081,1,0,0:0:0:0:
339,206,92169,1,2,0:0:0:0:
194,313,92345,5,0,0:0:0:0:
114,175,92522,1,2,0:0:0:0:
287,145,92698,1,0,0:0:0:0:
260,261,92875,1,2,0:0:0:0:
158,90,93051,1,0,0:0:0:0:
336,55,93228,5,2,0:0:0:0:
366,86,93316,1,0,0:0:0:0:
382,126,93404,1,0,0:0:0:0:
379,170,93492,1,0,0:0:0:0:
359,209,93580,1,2,0:0:0:0:
243,301,93757,1,0,0:0:0:0:
124,165,93934,6,0,P|182:132|280:142,1,143.999995605469,2|2,0:0|0:0,0:0:0:0:
386,328,94463,1,0,0:0:0:0:
386,328,94551,1,0,0:0:0:0:
386,328,94640,2,0,L|308:337,1,71.9999978027344,2|0,0:0|0:0,0:0:0:0:
188,211,94993,1,2,0:0:0:0:
312,82,95169,1,0,0:0:0:0:
312,82,95257,1,0,0:0:0:0:
312,82,95345,2,0,B|308:137|295:172,1,71.9999978027344,2|0,0:0|0:0,0:0:0:0:
154,54,95698,1,2,0:0:0:0:
100,204,95875,6,0,P|144:188|186:187,2,71.9999978027344,0|2|0,0:0|0:0|0:0,0:0:0:0:
49,308,96404,1,2,0:0:0:0:
288,207,96581,1,0,0:0:0:0:
288,207,96669,1,0,0:0:0:0:
288,207,96757,2,0,P|279:148|261:114,1,71.9999978027344,2|0,0:0|0:0,0:0:0:0:
144,72,97110,1,2,0:0:0:0:
252,289,97287,2,0,B|288:303|341:285,2,71.9999978027344,0|2|0,0:0|0:0|0:0,0:0:0:0:
72,188,97816,5,2,0:0:0:0:
156,311,97993,1,0,0:0:0:0:
289,119,98169,1,2,0:0:0:0:
99,107,98345,5,0,0:0:0:0:
295,221,98521,1,2,0:0:0:0:
228,37,98698,5,0,0:0:0:0:
228,37,99051,1,0,0:0:0:0:
227,39,99404,1,0,0:0:0:0:
227,39,99493,1,0,0:0:0:0:
227,39,99581,2,0,B|284:29|322:36,1,71.9999978027344,2|0,0:0|0:0,0:0:0:0:
432,230,99933,2,0,B|375:240|337:233,1,71.9999978027344,2|0,0:0|0:0,0:0:0:0:
187,213,100287,6,0,P|205:279|213:376,1,143.999995605469,2|2,0:0|0:0,0:0:0:0:
17,119,100816,1,0,0:0:0:0:
17,119,100904,1,0,0:0:0:0:
17,119,100993,2,0,P|43:59|51:49,1,71.9999978027344,2|0,0:0|0:0,0:0:0:0:
290,259,101345,2,0,P|307:296|316:337,1,71.9999978027344,2|0,0:0|0:0,0:0:0:0:
99,294,101698,5,2,0:0:0:0:
103,269,101786,1,0,0:0:0:0:
107,244,101874,1,0,0:0:0:0:
111,219,101962,1,0,0:0:0:0:
116,194,102050,1,2,0:0:0:0:
149,16,102404,5,2,0:0:0:0:
264,74,103639,6,0,L|262:127,2,35.9999989013672,0|0|2,0:0|0:0|0:0,0:0:0:0:
263,72,104345,1,0,0:0:0:0:
146,160,104521,2,0,P|153:211|168:241,1,71.9999978027344,2|0,0:0|0:0,0:0:0:0:
387,329,104874,5,2,0:0:0:0:
389,303,104962,1,0,0:0:0:0:
391,278,105050,1,0,0:0:0:0:
393,253,105138,1,0,0:0:0:0:
395,227,105227,2,0,P|351:216|300:209,1,71.9999978027344,2|0,0:0|0:0,0:0:0:0:
117,338,105580,2,0,P|163:333|195:323,1,71.9999978027344,2|0,0:0|0:0,0:0:0:0:
187,325,105845,1,0,0:0:0:0:
187,325,105933,1,2,0:0:0:0:
345,151,106109,1,0,0:0:0:0:
138,248,106286,6,0,P|121:207|115:174,1,71.9999978027344,2|0,0:0|0:0,0:0:0:0:
360,28,106639,2,0,P|354:78|339:115,1,71.9999978027344,2|0,0:0|0:0,0:0:0:0:
38,85,106992,2,0,P|95:63|138:61,1,71.9999978027344,2|0,0:0|0:0,0:0:0:0:
378,224,107345,2,0,P|329:215|306:204,1,71.9999978027344,2|0,0:0|0:0,0:0:0:0:
172,64,107698,1,2,0:0:0:0:
363,89,107874,1,0,0:0:0:0:
363,89,107962,1,0,0:0:0:0:
363,89,108051,5,2,0:0:0:0:
194,186,108227,1,0,0:0:0:0:
223,7,108404,1,2,0:0:0:0:
485,279,108580,5,0,0:0:0:0:
456,100,108757,1,2,0:0:0:0:
165,365,108933,5,0,0:0:0:0:
194,186,109110,1,2,0:0:0:0:
309,336,109286,5,0,0:0:0:0:
69,300,109463,1,2,0:0:0:0:
258,123,109639,5,0,0:0:0:0:
258,123,109727,1,0,0:0:0:0:
258,123,109815,1,2,0:0:0:0:
123,194,109992,2,0,P|94:204|60:203,1,35.9999989013672
26,118,110168,1,2,0:0:0:0:
188,33,110345,2,0,P|204:48|214:66,1,35.9999989013672
271,224,110521,5,2,0:0:0:0:
269,249,110609,1,0,0:0:0:0:
267,274,110697,1,0,0:0:0:0:
265,299,110785,1,0,0:0:0:0:
263,324,110873,1,2,0:0:0:0:
117,325,111227,6,0,L|14:315,1,71.9999978027344,2|0,0:0|0:0,0:0:0:0:
76,140,111580,1,2,0:0:0:0:
254,210,111756,1,0,0:0:0:0:
254,210,111845,1,0,0:0:0:0:
254,210,111933,2,0,P|234:254|216:279,1,71.9999978027344,2|0,0:0|0:0,0:0:0:0:
63,84,112286,5,2,0:0:0:0:
213,31,112462,2,0,P|241:27|260:27,1,35.9999989013672
375,116,112639,2,0,L|366:207,1,71.9999978027344,2|0,0:0|0:0,0:0:0:0:
269,306,112992,5,2,0:0:0:0:
124,195,113168,1,0,0:0:0:0:
124,195,113256,1,0,0:0:0:0:
124,195,113345,2,0,P|137:238|140:286,1,71.9999978027344,2|0,0:0|0:0,0:0:0:0:
34,75,113698,2,0,P|79:54|116:48,1,71.9999978027344,2|0,0:0|0:0,0:0:0:0:
292,130,114051,1,2,0:0:0:0:
143,268,114227,2,0,L|145:225,1,35.9999989013672
344,196,114404,2,0,L|341:281,1,71.9999978027344,2|0,0:0|0:0,0:0:0:0:
194,356,114756,5,2,0:0:0:0:
303,119,114933,1,0,0:0:0:0:
303,119,115021,1,0,0:0:0:0:
303,119,115109,2,0,P|351:115|389:116,1,71.9999978027344,2|0,0:0|0:0,0:0:0:0:
457,339,115462,2,0,P|409:343|371:342,1,71.9999978027344,2|0,0:0|0:0,0:0:0:0:
199,200,115815,5,2,0:0:0:0:
353,74,115992,1,0,0:0:0:0:
353,74,116080,1,0,0:0:0:0:
353,74,116168,2,0,P|371:118|373:152,1,71.9999978027344,2|0,0:0|0:0,0:0:0:0:
262,263,116521,5,2,0:0:0:0:
119,128,116698,2,0,P|135:103|153:91,1,35.9999989013672
110,289,116874,2,0,P|37:270|26:263,1,71.9999978027344,2|0,0:0|0:0,0:0:0:0:
86,44,117227,1,2,0:0:0:0:
214,172,117404,1,0,0:0:0:0:
214,172,117492,1,0,0:0:0:0:
214,172,117580,1,2,0:0:0:0:
377,104,117756,6,0,L|422:98,1,35.9999989013672
361,274,117933,2,0,L|270:269,1,71.9999978027344,2|0,0:0|0:0,0:0:0:0:
151,101,118286,1,2,0:0:0:0:
59,264,118462,1,0,0:0:0:0:
59,264,118551,1,0,0:0:0:0:
59,264,118639,2,0,P|78:306|101:329,1,71.9999978027344,2|0,0:0|0:0,0:0:0:0:
294,197,118992,5,2,0:0:0:0:
140,245,119168,2,0,L|144:202,1,35.9999989013672
357,144,119345,2,0,L|352:228,1,71.9999978027344,2|0,0:0|0:0,0:0:0:0:
264,331,119698,1,2,0:0:0:0:
127,155,119874,1,0,0:0:0:0:
127,155,119962,1,0,0:0:0:0:
127,155,120051,2,0,P|145:90|161:69,1,71.9999978027344,2|0,0:0|0:0,0:0:0:0:
297,18,120404,5,2,0:0:0:0:
230,187,120580,1,0,0:0:0:0:
375,121,120756,2,0,P|434:113|475:114,1,71.9999978027344,2|0,0:0|0:0,0:0:0:0:
325,332,121109,2,0,P|267:325|246:318,1,71.9999978027344,2|0,0:0|0:0,0:0:0:0:
254,321,121374,1,0,0:0:0:0:
254,321,121462,1,2,0:0:0:0:
171,152,121639,5,0,0:0:0:0:
171,152,121727,1,0,0:0:0:0:
171,152,121815,1,2,0:0:0:0:
137,283,121992,2,0,P|104:280|94:278,1,35.9999989013672
3,101,122168,2,0,P|69:86|87:84,1,71.9999978027344,2|0,0:0|0:0,0:0:0:0:
201,346,122521,2,0,P|135:361|117:363,1,71.9999978027344,2|0,0:0|0:0,0:0:0:0:
23,194,122874,5,2,0:0:0:0:
176,96,123051,1,0,0:0:0:0:
176,96,123139,1,0,0:0:0:0:
176,96,123227,2,0,P|197:137|207:177,1,71.9999978027344,2|0,0:0|0:0,0:0:0:0:
289,290,123580,6,0,P|337:290|366:285,1,71.9999978027344,2|0,0:0|0:0,0:0:0:0:
428,183,123933,1,2,0:0:0:0:
227,350,124109,2,0,B|210:328|201:299,1,35.9999989013672
333,140,124286,2,0,L|321:245,2,71.9999978027344,2|0|2,0:0|0:0|0:0,0:0:0:0:
173,78,124815,1,0,0:0:0:0:
173,78,124904,1,0,0:0:0:0:
173,78,124992,2,0,L|161:159,1,71.9999978027344,2|0,0:0|0:0,0:0:0:0:
45,215,125345,5,2,0:0:0:0:
223,296,125521,1,0,0:0:0:0:
223,296,125609,1,0,0:0:0:0:
223,296,125698,1,2,0:0:0:0:
385,209,125874,2,0,P|407:196|417:189,1,35.9999989013672
294,23,126051,2,0,L|301:121,1,71.9999978027344,2|0,0:0|0:0,0:0:0:0:
179,154,126404,2,0,L|189:255,1,71.9999978027344,2|0,0:0|0:0,0:0:0:0:
186,225,126668,1,0,0:0:0:0:
186,225,126756,1,2,0:0:0:0:
358,166,126933,5,0,0:0:0:0:
318,336,127109,2,0,P|248:322|236:323,1,71.9999978027344,2|0,0:0|0:0,0:0:0:0:
173,345,127374,1,0,0:0:0:0:
173,345,127462,2,0,L|184:270,1,71.9999978027344,2|0,0:0|0:0,0:0:0:0:
53,72,127815,5,2,0:0:0:0:
150,156,127992,1,0,0:0:0:0:
150,156,128080,1,0,0:0:0:0:
150,156,128168,2,0,L|250:150,1,71.9999978027344,2|0,0:0|0:0,0:0:0:0:
432,197,128521,1,2,0:0:0:0:
325,50,128698,1,0,0:0:0:0:
325,50,128786,1,0,0:0:0:0:
325,50,128874,2,0,L|236:54,1,71.9999978027344,2|0,0:0|0:0,0:0:0:0:
117,291,129227,6,0,P|103:239|100:144,1,143.999995605469,2|2,0:0|0:0,0:0:0:0:
224,52,129756,1,0,0:0:0:0:
354,202,129933,2,0,P|311:224|270:230,1,71.9999978027344,2|0,0:0|0:0,0:0:0:0:
370,21,130286,2,0,L|448:35,1,71.9999978027344,2|0,0:0|0:0,0:0:0:0:
440,33,130551,1,0,0:0:0:0:
440,33,130639,1,2,0:0:0:0:
294,119,130815,5,0,0:0:0:0:
439,155,130992,1,2,0:0:0:0:
295,226,131168,1,0,0:0:0:0:
433,274,131345,1,2,0:0:0:0:
302,346,131521,1,0,0:0:0:0:
302,346,131609,1,0,0:0:0:0:
302,346,131698,2,0,L|207:331,1,71.9999978027344,2|0,0:0|0:0,0:0:0:0:
78,220,132051,5,2,0:0:0:0:
70,192,132139,1,0,0:0:0:0:
71,163,132227,1,0,0:0:0:0:
81,136,132315,1,0,0:0:0:0:
99,114,132403,1,2,0:0:0:0:
123,98,132492,1,0,0:0:0:0:
150,91,132580,1,0,0:0:0:0:
179,93,132668,1,0,0:0:0:0:
208,104,132756,5,2,0:0:0:0:
234,114,132844,1,0,0:0:0:0:
263,119,132932,1,0,0:0:0:0:
291,119,133020,1,0,0:0:0:0:
320,113,133108,1,2,0:0:0:0:
346,103,133197,1,0,0:0:0:0:
373,84,133286,5,0,0:0:0:0:
373,84,133374,1,0,0:0:0:0:
373,84,133462,2,0,L|463:79,1,71.9999978027344,2|0,0:0|0:0,0:0:0:0:
354,219,133815,1,2,0:0:0:0:
264,126,133992,2,0,L|270:88,1,35.9999989013672
475,130,134168,1,2,0:0:0:0:
406,313,134345,1,0,0:0:0:0:
406,313,134433,1,0,0:0:0:0:
406,313,134521,6,0,P|344:308|316:304,1,71.9999978027344,2|0,0:0|0:0,0:0:0:0:
162,162,134874,2,0,L|237:157,1,71.9999978027344,2|0,0:0|0:0,0:0:0:0:
182,42,135227,1,2,0:0:0:0:
40,145,135404,1,0,0:0:0:0:
40,145,135492,1,0,0:0:0:0:
40,145,135580,2,0,P|47:191|59:226,1,71.9999978027344,2|0,0:0|0:0,0:0:0:0:
267,162,135933,1,2,0:0:0:0:
129,95,136109,1,0,0:0:0:0:
189,311,136286,6,0,L|276:306,1,71.9999978027344,2|0,0:0|0:0,0:0:0:0:
411,111,136639,2,0,L|324:106,1,71.9999978027344,2|0,0:0|0:0,0:0:0:0:
147,165,136992,1,2,0:0:0:0:
241,50,137168,1,0,0:0:0:0:
392,207,137345,2,0,P|434:206|475:197,1,71.9999978027344,2|0,0:0|0:0,0:0:0:0:
463,200,137609,1,0,0:0:0:0:
463,200,137698,1,2,0:0:0:0:
311,40,137874,5,0,0:0:0:0:
308,65,137962,1,0,0:0:0:0:
306,90,138050,1,2,0:0:0:0:
304,115,138138,1,0,0:0:0:0:
302,140,138226,1,0,0:0:0:0:
281,256,138404,5,2,0:0:0:0:
247,241,138492,1,0,0:0:0:0:
212,234,138580,1,0,0:0:0:0:
176,234,138668,1,0,0:0:0:0:
141,242,138756,1,2,0:0:0:0:
360,356,138933,1,0,0:0:0:0:
360,356,139021,1,0,0:0:0:0:
360,356,139109,6,0,L|373:235,1,103.999995239258,2|0,0:0|0:0,0:0:0:0:
137,40,139639,1,0,0:0:0:0:
137,40,139727,1,0,0:0:0:0:
137,40,139815,2,0,L|150:180,1,120.000004577637,2|0,0:0|0:0,0:0:0:0:
192,270,140521,5,2,0:0:0:0:
396,228,140698,1,0,0:0:0:0:
213,124,140874,5,2,0:0:0:0:
314,342,141051,1,0,0:0:0:0:
398,128,141227,5,2,0:0:0:0:
184,227,141404,1,0,0:0:0:0:
418,300,141580,1,2,0:0:0:0:
422,270,141668,1,0,0:0:0:0:
419,240,141756,1,0,0:0:0:0:
408,213,141844,1,0,0:0:0:0:
389,189,141933,2,0,P|337:178|302:177,1,68.0000012969971,2|0,0:0|0:0,0:0:0:0:
200,222,142286,5,2,0:0:0:0:
263,360,142462,1,0,0:0:0:0:
263,360,142551,1,0,0:0:0:0:
263,360,142639,2,0,L|275:265,1,68.0000012969971,2|0,0:0|0:0,0:0:0:0:
302,78,142992,5,2,0:0:0:0:
179,184,143168,2,0,P|150:183|123:178,1,34.0000006484985
51,51,143345,2,0,L|149:55,1,68.0000012969971,2|0,0:0|0:0,0:0:0:0:
260,145,143698,1,2,0:0:0:0:
70,270,143874,1,0,0:0:0:0:
70,270,143962,1,0,0:0:0:0:
70,270,144051,2,0,P|51:224|48:195,1,68.0000012969971,2|0,0:0|0:0,0:0:0:0:
220,46,144404,6,0,L|214:141,1,68.0000012969971,2|0,0:0|0:0,0:0:0:0:
214,125,144668,1,0,0:0:0:0:
213,138,144756,5,2,0:0:0:0:
423,126,144933,1,0,0:0:0:0:
192,207,145109,5,2,0:0:0:0:
384,47,145286,1,0,0:0:0:0:
175,238,145462,5,2,0:0:0:0:
276,10,145639,1,0,0:0:0:0:
160,266,145815,5,2,0:0:0:0:
166,11,145992,1,0,0:0:0:0:
297,280,146168,5,2,0:0:0:0:
273,311,146256,1,0,0:0:0:0:
243,336,146344,1,0,0:0:0:0:
209,353,146432,1,0,0:0:0:0:
171,363,146520,1,2,0:0:0:0:
132,363,146609,1,0,0:0:0:0:
94,354,146697,1,0,0:0:0:0:
59,337,146785,1,0,0:0:0:0:
32,322,146874,6,0,L|42:282,1,40,2|0,0:0|0:0,0:0:0:0:
108,147,147051,2,0,L|116:199,1,40
98,358,147227,2,0,L|114:293,1,60.0000022888184,2|0,0:0|0:0,0:0:0:0:
177,115,147404,2,0,L|189:179,1,60.0000022888184
228,363,147580,2,0,P|323:359|419:349,1,184.000003509522,2|2,0:0|0:0,0:0:0:0:
400,136,148109,5,0,0:0:0:0:
400,136,148198,1,0,0:0:0:0:
400,136,148286,2,0,L|291:131,1,88.000002685547,2|0,0:0|0:0,0:0:0:0:
119,187,148639,1,2,0:0:0:0:
253,349,148815,1,0,0:0:0:0:
253,349,148904,1,0,0:0:0:0:
253,349,148992,2,0,P|276:300|286:257,1,88.000002685547,2|0,0:0|0:0,0:0:0:0:
100,50,149345,5,2,0:0:0:0:
239,147,149521,1,0,0:0:0:0:
239,147,149609,1,0,0:0:0:0:
239,147,149698,2,0,L|333:137,1,88.000002685547,2|0,0:0|0:0,0:0:0:0:
314,37,150051,1,2,0:0:0:0:
154,210,150227,2,0,P|155:178|152:158,1,44.0000013427735
56,62,150404,6,0,B|58:245,1,176.000005371094,2|2,0:0|0:0,0:0:0:0:
387,245,150933,6,0,P|389:221|385:197,1,44.0000013427735
301,344,151109,2,0,B|479:327,1,176.000005371094,2|2,0:0|0:0,0:0:0:0:
268,142,151639,1,0,0:0:0:0:
268,142,151727,1,0,0:0:0:0:
268,142,151815,2,0,P|192:129|158:131,1,88.000002685547,2|0,0:0|0:0,0:0:0:0:
88,325,152168,6,0,P|131:322|174:312,1,88.000002685547,2|0,0:0|0:0,0:0:0:0:
206,304,152433,1,0,0:0:0:0:
206,304,152521,1,2,0:0:0:0:
305,158,152698,1,0,0:0:0:0:
56,100,152874,1,2,0:0:0:0:
175,168,153051,6,0,L|164:126,1,44.0000013427735
228,42,153227,2,0,P|145:21|76:70,1,176.000005371094,2|2,0:0|0:0,0:0:0:0:
310,229,153756,1,0,0:0:0:0:
310,229,153845,1,0,0:0:0:0:
310,229,153933,2,0,P|353:226|397:219,2,88.000002685547,2|0|2,0:0|0:0|0:0,0:0:0:0:
160,101,154462,5,0,0:0:0:0:
338,18,154639,2,0,P|346:63|345:131,1,88.000002685547,2|0,0:0|0:0,0:0:0:0:
223,251,154992,1,2,0:0:0:0:
89,110,155168,1,0,0:0:0:0:
89,110,155256,1,0,0:0:0:0:
89,110,155345,2,0,P|148:94|196:91,1,88.000002685547,2|0,0:0|0:0,0:0:0:0:
332,167,155698,5,2,0:0:0:0:
96,337,155874,6,0,P|88:304|87:285,1,44.0000013427735
8,213,156051,2,0,P|90:183|171:214,1,176.000005371094,2|2,0:0|0:0,0:0:0:0:
211,320,156580,1,0,0:0:0:0:
58,162,156756,2,0,L|68:66,1,88.000002685547,2|0,0:0|0:0,0:0:0:0:
75,47,157021,1,0,0:0:0:0:
75,47,157109,1,2,0:0:0:0:
274,113,157286,5,0,0:0:0:0:
110,213,157462,1,2,0:0:0:0:
174,30,157639,5,0,0:0:0:0:
401,101,157815,1,2,0:0:0:0:
180,226,157992,5,0,0:0:0:0:
346,31,158168,1,2,0:0:0:0:
259,308,158345,5,0,0:0:0:0:
228,305,158433,1,0,0:0:0:0:
197,302,158521,1,2,0:0:0:0:
166,299,158609,1,0,0:0:0:0:
136,297,158697,1,0,0:0:0:0:
212,74,158874,6,0,P|299:62|398:62,1,160,2|2,0:0|0:0,0:0:0:0:
136,157,159404,1,0,0:0:0:0:
136,157,159492,1,0,0:0:0:0:
136,157,159580,2,0,P|98:98|93:72,1,80,2|0,0:0|0:0,0:0:0:0:
326,15,159933,2,0,L|320:100,1,80,2|0,0:0|0:0,0:0:0:0:
320,94,160198,1,0,0:0:0:0:
320,94,160286,1,2,0:0:0:0:
204,275,160462,5,0,0:0:0:0:
325,336,160639,1,2,0:0:0:0:
288,162,160815,5,0,0:0:0:0:
88,234,160992,1,2,0:0:0:0:
321,342,161168,1,0,0:0:0:0:
244,229,161345,6,0,L|264:103,1,120,2|0,0:0|0:0,0:0:0:0:
269,72,161698,2,0,P|202:98|167:96,1,80,2|0,0:0|0:0,0:0:0:0:
47,80,162051,5,2,0:0:0:0:
204,17,162227,1,0,0:0:0:0:
33,203,162404,5,2,0:0:0:0:
183,146,162580,1,0,0:0:0:0:
8,59,162756,1,2,0:0:0:0:
208,20,162933,1,0,0:0:0:0:
208,20,163021,1,0,0:0:0:0:
208,20,163109,2,0,P|215:65|216:121,1,80,2|0,0:0|0:0,0:0:0:0:
48,176,163462,5,2,0:0:0:0:
173,309,163639,6,0,L|184:215,1,88.000002685547,2|0,0:0|0:0,0:0:0:0:
296,365,163992,6,0,L|308:252,1,95.9999970703126,2|0,0:0|0:0,0:0:0:0:
333,44,164345,5,0,0:0:0:0:
333,44,164433,1,0,0:0:0:0:
333,44,164521,2,0,P|258:34|220:31,1,80,2|0,0:0|0:0,0:0:0:0:
115,124,164874,1,2,0:0:0:0:
398,102,165051,2,0,P|418:73|426:50,1,40
308,175,165227,6,0,P|285:135|279:95,1,80,2|0,0:0|0:0,0:0:0:0:
475,31,165580,2,0,L|471:134,1,80,2|0,0:0|0:0,0:0:0:0:
345,253,165933,5,2,0:0:0:0:
466,200,166109,1,0,0:0:0:0:
305,136,166286,1,2,0:0:0:0:
490,83,166462,1,0,0:0:0:0:
490,83,166551,1,0,0:0:0:0:
490,83,166639,1,2,0:0:0:0:
381,214,166815,6,0,P|351:213|330:212,1,40
260,78,166992,5,2,0:0:0:0:
295,60,167080,1,0,0:0:0:0:
335,54,167168,1,0,0:0:0:0:
374,58,167256,1,0,0:0:0:0:
411,73,167345,2,0,L|406:162,1,80,2|0,0:0|0:0,0:0:0:0:
256,231,167698,5,2,0:0:0:0:
130,83,167874,1,0,0:0:0:0:
130,83,167962,1,0,0:0:0:0:
130,83,168051,2,0,B|218:68,1,80,2|0,0:0|0:0,0:0:0:0:
297,175,168404,5,2,0:0:0:0:
169,306,168580,1,0,0:0:0:0:
308,162,168756,5,2,0:0:0:0:
81,178,168933,1,0,0:0:0:0:
320,154,169109,5,2,0:0:0:0:
31,38,169286,1,0,0:0:0:0:
364,69,169462,5,2,0:0:0:0:
337,61,169550,1,0,0:0:0:0:
309,60,169638,1,0,0:0:0:0:
282,68,169726,1,0,0:0:0:0:
258,83,169814,1,2,0:0:0:0:
237,101,169903,1,0,0:0:0:0:
212,113,169991,1,0,0:0:0:0:
184,116,170079,1,0,0:0:0:0:
156,112,170168,5,2,0:0:0:0:
156,112,170345,1,0,0:0:0:0:
40,187,170521,5,2,0:0:0:0:
40,187,170698,1,0,0:0:0:0:
168,266,170874,5,2,0:0:0:0:
168,266,171051,1,0,0:0:0:0:
64,117,171227,6,0,P|72:66|88:26,1,80,2|0,0:0|0:0,0:0:0:0:
168,90,171580,6,0,P|209:59|248:41,1,71.9999978027344,2|0,0:0|0:0,0:0:0:0:
269,144,171933,6,0,P|320:152|355:166,1,64,2|0,0:0|0:0,0:0:0:0:
292,237,172286,6,0,P|322:278|333:302,1,55.9999982910157,2|0,0:0|0:0,0:0:0:0:
242,319,172639,6,0,P|240:343|234:367,2,47.9999985351563,2|0|2,0:0|0:0|0:0,0:0:0:0:
123,312,173168,6,0,L|33:307,1,80,0|2,0:0|0:0,0:0:0:0:
80,223,173521,6,0,L|19:156,1,71.9999978027344,0|2,0:0|0:0,0:0:0:0:
122,127,173874,6,0,L|126:38,1,64,0|2,0:0|0:0,0:0:0:0:
219,88,174227,6,0,L|277:32,1,55.9999982910157,0|2,0:0|0:0,0:0:0:0:
311,121,174580,6,0,L|380:123,2,47.9999985351563,0|2|0,0:0|0:0|0:0,0:0:0:0:
178,232,175109,6,0,L|100:229,1,60.0000022888184,2|0,0:0|0:0,0:0:0:0:
204,40,175462,5,2,0:0:0:0:
185,210,175639,1,0,0:0:0:0:
205,26,175815,6,0,L|265:29,1,60.0000022888184,2|0,0:0|0:0,0:0:0:0:
80,97,176168,2,0,L|139:94,1,60.0000022888184,2|0,0:0|0:0,0:0:0:0:
289,160,176521,6,0,L|349:163,1,60.0000022888184,2|0,0:0|0:0,0:0:0:0:
146,242,176874,2,0,L|205:239,1,60.0000022888184,2|0,0:0|0:0,0:0:0:0:
12,143,177227,6,0,L|143:150,1,120.000004577637,2|2,0:0|0:0,0:0:0:0:
131,149,177668,1,0,0:0:0:0:
131,149,177756,1,0,0:0:0:0:
252,91,177933,1,2,0:0:0:0:
294,272,178109,2,0,P|241:250|172:254,1,111.999996582031
358,343,178639,2,0,P|381:319|396:288,2,55.9999982910157,2|0|0,0:0|0:0|0:0,0:0:0:0:
229,333,179168,1,0,0:0:0:0:
306,180,179345,2,0,L|308:262,1,55.9999982910157,2|0,0:0|0:0,0:0:0:0:
307,235,179609,5,0,0:0:0:0:
307,235,179698,1,2,0:0:0:0:
47,341,179874,5,0,0:0:0:0:
208,257,180051,1,2,0:0:0:0:
15,209,180228,1,0,0:0:0:0:
225,140,180404,1,2,0:0:0:0:
7,81,180580,1,0,0:0:0:0:
287,104,180756,5,2,0:0:0:0:
322,98,180844,1,0,0:0:0:0:
358,93,180932,1,0,0:0:0:0:
394,88,181020,1,0,0:0:0:0:
427,78,181109,2,0,L|477:64,3,40,2|0|0|0,0:0|0:0|0:0|0:0,0:0:0:0:
428,171,181462,5,2,0:0:0:0:
424,210,181550,1,0,0:0:0:0:
420,250,181638,1,0,0:0:0:0:
416,290,181726,1,0,0:0:0:0:
413,330,181815,2,0,L|409:374,3,40,2|0|0|0,0:0|0:0|0:0|0:0,0:0:0:0:
252,341,182168,2,0,L|289:310,1,40,2|0,0:0|0:0,0:0:0:0:
309,174,182345,2,0,L|252:210,1,40
195,257,182521,2,0,L|144:247,3,40,2|0|0|0,0:0|0:0|0:0|0:0,0:0:0:0:
55,337,182874,5,2,0:0:0:0:
34,293,182962,1,0,0:0:0:0:
32,247,183050,1,0,0:0:0:0:
44,201,183138,1,0,0:0:0:0:
71,163,183226,1,2,0:0:0:0:
110,137,183315,1,0,0:0:0:0:
156,127,183403,1,0,0:0:0:0:
203,131,183491,1,0,0:0:0:0:
241,144,183580,6,0,L|285:159,1,40,2|0,0:0|0:0,0:0:0:0:
276,297,183756,2,0,L|324:314,1,40
453,245,183933,5,2,0:0:0:0:
456,197,184021,1,0,0:0:0:0:
440,152,184109,1,0,0:0:0:0:
408,117,184197,1,0,0:0:0:0:
364,97,184286,2,0,L|310:104,3,40,2|0|0|0,0:0|0:0|0:0|0:0,0:0:0:0:
252,219,184639,5,2,0:0:0:0:
213,189,184727,1,0,0:0:0:0:
188,148,184815,1,0,0:0:0:0:
183,100,184903,1,0,0:0:0:0:
195,54,184992,2,0,L|232:21,1,40,2|0,0:0|0:0,0:0:0:0:
345,125,185168,2,0,L|307:163,1,40
168,195,185345,6,0,L|106:191,3,40,2|0|0|0,0:0|0:0|0:0|0:0,0:0:0:0:
305,265,185698,1,2,0:0:0:0:
284,298,185786,1,0,0:0:0:0:
254,326,185874,1,0,0:0:0:0:
219,345,185962,1,0,0:0:0:0:
180,354,186050,1,2,0:0:0:0:
141,352,186139,1,0,0:0:0:0:
112,300,186227,1,0,0:0:0:0:
106,316,186315,1,0,0:0:0:0:
99,329,186404,6,0,L|42:298,1,40,2|0,0:0|0:0,0:0:0:0:
210,163,186580,5,0,0:0:0:0:
216,147,186668,1,0,0:0:0:0:
223,134,186757,6,0,L|280:165,1,40,2|0,0:0|0:0,0:0:0:0:
31,171,186933,5,0,0:0:0:0:
37,155,187021,1,0,0:0:0:0:
44,142,187110,6,0,L|71:54,1,83.9999974365235,2|0,0:0|0:0,0:0:0:0:
234,251,187462,2,0,P|292:246|323:234,1,83.9999974365235,2|0,0:0|0:0,0:0:0:0:
350,229,187727,1,0,0:0:0:0:
350,229,187815,1,2,0:0:0:0:
350,46,187992,6,0,L|349:91,1,41.9999987182618
260,163,188168,1,2,0:0:0:0:
164,48,188345,2,0,L|168:90,1,41.9999987182618
134,251,188521,2,0,P|194:230|247:232,1,83.9999974365235,2|0,0:0|0:0,0:0:0:0:
247,232,188786,1,0,0:0:0:0:
247,232,188874,1,2,0:0:0:0:
313,350,189051,1,0,0:0:0:0:
43,272,189227,6,0,P|49:215|64:189,2,83.9999974365235,2|0|2,0:0|0:0|0:0,0:0:0:0:
213,342,189756,1,0,0:0:0:0:
213,342,189845,1,0,0:0:0:0:
213,342,189933,2,0,L|306:334,1,83.9999974365235,2|0,0:0|0:0,0:0:0:0:
406,265,190286,1,2,0:0:0:0:
260,198,190462,1,0,0:0:0:0:
422,117,190639,2,0,L|414:212,1,83.9999974365235,2|0,0:0|0:0,0:0:0:0:
327,267,190904,5,0,0:0:0:0:
309,274,190992,2,0,B|252:265|192:264,1,83.9999974365235,2|0,0:0|0:0,0:0:0:0:
82,322,191345,1,2,0:0:0:0:
223,142,191521,1,0,0:0:0:0:
25,184,191698,2,0,P|30:115|41:78,1,83.9999974365235,2|0,0:0|0:0,0:0:0:0:
310,37,192051,6,0,P|271:94|243:120,1,83.9999974365235,2|0,0:0|0:0,0:0:0:0:
120,45,192404,5,2,0:0:0:0:
232,201,192580,1,0,0:0:0:0:
232,201,192668,1,0,0:0:0:0:
232,201,192756,2,0,P|291:189|343:168,1,83.9999974365235,2|0,0:0|0:0,0:0:0:0:
358,60,193109,5,2,0:0:0:0:
127,204,193286,1,0,0:0:0:0:
127,204,193374,1,0,0:0:0:0:
127,204,193462,2,0,P|151:261|176:290,1,83.9999974365235,2|0,0:0|0:0,0:0:0:0:
357,156,193815,2,0,L|349:55,1,83.9999974365235,2|0,0:0|0:0,0:0:0:0:
235,67,194168,5,2,0:0:0:0:
198,88,194256,1,0,0:0:0:0:
157,95,194344,1,0,0:0:0:0:
116,88,194432,1,0,0:0:0:0:
80,66,194520,1,2,0:0:0:0:
54,34,194609,1,0,0:0:0:0:
53,69,194698,5,0,0:0:0:0:
54,110,194786,1,0,0:0:0:0:
55,152,194874,1,2,0:0:0:0:
56,194,194962,1,0,0:0:0:0:
57,236,195050,1,0,0:0:0:0:
57,273,195139,1,0,0:0:0:0:
57,309,195227,2,0,L|57:363,3,41.9999987182618,2|0|0|0,0:0|0:0|0:0|0:0,0:0:0:0:
142,352,195580,5,2,0:0:0:0:
241,207,205462,6,0,L|303:201,2,47.9999985351563,2|0|0,0:0|0:0|0:0,0:0:0:0:
157,298,205992,1,0,0:0:0:0:
266,354,206168,5,2,0:0:0:0:
266,354,206286,1,0,0:0:0:0:
266,354,206404,2,0,L|267:280,1,63.9999980468751
364,273,206756,1,0,0:0:0:0:
364,273,206874,2,0,L|361:380,1,95.9999970703126,2|0,0:0|0:0,0:0:0:0:
242,262,207404,5,0,0:0:0:0:
191,354,207580,2,0,L|89:347,1,95.9999970703126,2|0,0:0|0:0,0:0:0:0:
17,226,208109,1,0,0:0:0:0:
17,226,208198,1,0,0:0:0:0:
17,226,208286,2,0,L|84:222,1,47.9999985351563,2|0,0:0|0:0,0:0:0:0:
209,157,208639,6,0,L|142:161,1,47.9999985351563
263,256,208992,6,0,L|330:252,1,47.9999985351563,2|0,0:0|0:0,0:0:0:0:
411,152,209345,1,0,0:0:0:0:
314,39,209521,1,0,0:0:0:0:
314,39,209609,1,0,0:0:0:0:
314,39,209698,2,0,L|309:149,1,95.9999970703126,2|0,0:0|0:0,0:0:0:0:
303,258,210227,5,0,0:0:0:0:
190,219,210404,2,0,P|141:212|77:209,1,95.9999970703126,2|0,0:0|0:0,0:0:0:0:
32,348,210933,1,0,0:0:0:0:
32,348,211021,1,0,0:0:0:0:
32,348,211109,2,0,L|132:342,1,95.9999970703126,2|0,0:0|0:0,0:0:0:0:
364,199,211639,5,0,0:0:0:0:
364,199,211727,1,0,0:0:0:0:
364,199,211815,2,0,L|264:193,1,95.9999970703126,2|0,0:0|0:0,0:0:0:0:
163,165,212256,2,0,L|158:134,2,23.9999992675781
88,216,212521,1,2,0:0:0:0:
182,273,212698,1,0,0:0:0:0:
182,273,212786,1,0,0:0:0:0:
182,273,212874,2,0,L|268:271,1,64,2|0,0:0|0:0,0:0:0:0:
382,186,213227,5,2,0:0:0:0:
254,89,213404,1,0,0:0:0:0:
254,89,213492,1,0,0:0:0:0:
254,89,213580,2,0,L|264:157,1,64,2|0,0:0|0:0,0:0:0:0:
413,187,213933,1,2,0:0:0:0:
451,33,214109,5,0,0:0:0:0:
451,33,214198,1,0,0:0:0:0:
451,33,214286,2,0,L|378:29,1,64,2|0,0:0|0:0,0:0:0:0:
259,257,214639,1,2,0:0:0:0:
246,23,214815,5,0,0:0:0:0:
246,23,214904,1,0,0:0:0:0:
246,23,214992,2,0,L|173:19,1,64,2|0,0:0|0:0,0:0:0:0:
97,105,215345,1,2,0:0:0:0:
210,176,215521,1,0,0:0:0:0:
57,229,215698,6,0,L|67:311,1,64,2|0,0:0|0:0,0:0:0:0:
70,322,215962,1,0,0:0:0:0:
70,322,216051,1,2,0:0:0:0:
258,190,216227,5,0,0:0:0:0:
315,359,216404,2,0,L|195:355,1,96,2|0,0:0|0:0,0:0:0:0:
158,286,216756,2,0,P|197:281|231:270,1,64,2|0,0:0|0:0,0:0:0:0:
303,140,217109,5,2,0:0:0:0:
165,63,217286,1,0,0:0:0:0:
165,63,217374,1,0,0:0:0:0:
165,63,217462,1,2,0:0:0:0:
191,209,217639,5,0,0:0:0:0:
259,28,217815,1,2,0:0:0:0:
411,144,217992,1,0,0:0:0:0:
299,288,218168,6,0,L|217:286,2,60.0000022888184,2|0|2,0:0|0:0|0:0,0:0:0:0:
398,211,218698,1,0,0:0:0:0:
168,225,218874,2,0,P|145:274|165:363,1,120.000004577637,2|2,0:0|0:0,0:0:0:0:
314,324,219404,5,0,0:0:0:0:
314,324,219492,1,0,0:0:0:0:
314,324,219580,2,0,P|348:321|396:316,1,60.0000022888184,2|0,0:0|0:0,0:0:0:0:
246,198,219933,2,0,P|211:195|164:190,1,60.0000022888184,2|0,0:0|0:0,0:0:0:0:
328,54,220286,2,0,P|362:51|410:46,1,60.0000022888184,2|0,0:0|0:0,0:0:0:0:
486,28,220639,1,2,0:0:0:0:
349,200,220815,5,0,0:0:0:0:
349,200,220904,1,0,0:0:0:0:
349,200,220992,2,0,L|232:193,1,102.000001945496,2|0,0:0|0:0,0:0:0:0:
84,178,221345,5,2,0:0:0:0:
292,131,221521,1,0,0:0:0:0:
49,123,221698,5,2,0:0:0:0:
315,224,221874,1,0,0:0:0:0:
35,221,222051,5,2,0:0:0:0:
345,109,222227,1,0,0:0:0:0:
41,101,222404,5,2,0:0:0:0:
383,226,222580,1,0,0:0:0:0:
138,303,222756,1,2,0:0:0:0:
172,98,222933,1,0,0:0:0:0:
222,274,223109,5,2,0:0:0:0:
81,128,223286,1,0,0:0:0:0:
236,174,223462,5,2,0:0:0:0:
80,233,223639,1,0,0:0:0:0:
160,203,223815,5,2,0:0:0:0:
224,152,234933,5,0,0:0:0:0:
224,152,235021,1,0,0:0:0:0:
224,152,235109,2,0,L|234:258,1,95.9999970703126,2|0,0:0|0:0,0:0:0:0:
310,344,235639,2,0,P|363:340|374:337,2,47.9999985351563
120,281,236168,5,0,0:0:0:0:
217,254,236345,1,0,0:0:0:0:
217,254,236433,1,0,0:0:0:0:
217,254,236521,2,0,L|204:370,1,95.9999970703126,2|0,0:0|0:0,0:0:0:0:
423,274,237051,5,0,0:0:0:0:
423,274,237227,2,0,L|410:158,1,95.9999970703126,2|0,0:0|0:0,0:0:0:0:
220,57,237756,5,0,0:0:0:0:
337,89,237933,2,0,P|314:133|269:169,1,95.9999970703126,2|0,0:0|0:0,0:0:0:0:
74,49,238462,1,0,0:0:0:0:
74,49,238551,1,0,0:0:0:0:
74,49,238639,2,0,L|135:55,2,47.9999985351563,2|0|0,0:0|0:0|0:0,0:0:0:0:
29,160,239168,1,0,0:0:0:0:
120,256,239345,2,0,L|135:168,1,71.9999978027344,2|0,0:0|0:0,0:0:0:0:
143,135,239698,5,0,0:0:0:0:
202,296,239874,1,0,0:0:0:0:
230,169,240051,5,2,0:0:0:0:
120,256,240227,1,0,0:0:0:0:
200,90,240404,5,0,0:0:0:0:
223,91,240492,1,0,0:0:0:0:
247,93,240580,1,0,0:0:0:0:
271,94,240668,1,0,0:0:0:0:
294,96,240756,2,0,L|369:90,1,68.0000012969971,2|0,0:0|0:0,0:0:0:0:
295,205,241109,5,2,0:0:0:0:
407,57,241286,1,0,0:0:0:0:
408,246,241462,1,2,0:0:0:0:
293,86,241639,1,0,0:0:0:0:
464,159,241815,1,2,0:0:0:0:
246,187,241992,5,0,0:0:0:0:
457,118,242169,1,2,0:0:0:0:
328,305,242345,1,0,0:0:0:0:
325,68,242522,1,2,0:0:0:0:
454,270,242698,1,0,0:0:0:0:
454,270,242874,1,2,0:0:0:0:
255,360,243051,5,0,0:0:0:0:
244,335,243139,1,0,0:0:0:0:
240,308,243227,1,2,0:0:0:0:
243,281,243315,1,0,0:0:0:0:
254,256,243403,1,0,0:0:0:0:
270,235,243492,1,0,0:0:0:0:
292,220,243580,5,2,0:0:0:0:
251,229,243668,1,0,0:0:0:0:
210,230,243756,1,0,0:0:0:0:
170,219,243844,1,0,0:0:0:0:
136,198,243932,1,2,0:0:0:0:
110,167,244020,1,0,0:0:0:0:
92,137,244109,2,0,L|99:87,1,34.0000006484985
230,56,244286,2,0,L|226:106,2,34.0000006484985,2|0|0,0:0|0:0|0:0,0:0:0:0:
184,220,244639,5,2,0:0:0:0:
213,235,244727,1,0,0:0:0:0:
247,241,244815,1,0,0:0:0:0:
280,236,244903,1,0,0:0:0:0:
310,220,244991,1,2,0:0:0:0:
334,196,245080,1,0,0:0:0:0:
349,166,245168,1,0,0:0:0:0:
354,132,245256,1,0,0:0:0:0:
352,98,245345,6,0,L|341:60,3,34.0000006484985,2|0|0|0,0:0|0:0|0:0|0:0,0:0:0:0:
185,49,245698,2,0,L|201:101,3,34.0000006484985,2|0|0|0,0:0|0:0|0:0|0:0,0:0:0:0:
166,219,246051,2,0,L|212:205,1,34.0000006484985,2|0,0:0|0:0,0:0:0:0:
69,121,246227,2,0,L|23:107,1,34.0000006484985
264,125,246404,6,0,P|300:180|281:283,1,176.000005371094,2|2,0:0|0:0,0:0:0:0:
116,339,246933,1,0,0:0:0:0:
116,339,247021,1,0,0:0:0:0:
116,339,247109,2,0,L|28:332,1,88.000002685547,2|0,0:0|0:0,0:0:0:0:
108,155,247462,1,2,0:0:0:0:
189,283,247639,2,0,P|201:321|205:342,1,44.0000013427735
22,214,247815,6,0,L|31:97,1,88.000002685547,2|0,0:0|0:0,0:0:0:0:
171,58,248168,1,2,0:0:0:0:
281,114,248345,2,0,P|306:89|315:73,1,44.0000013427735
209,225,248521,2,0,L|305:217,1,88.000002685547,2|0,0:0|0:0,0:0:0:0:
450,338,248874,2,0,L|351:332,1,88.000002685547,2|0,0:0|0:0,0:0:0:0:
339,333,249139,1,0,0:0:0:0:
339,333,249227,1,2,0:0:0:0:
245,297,249404,6,0,L|256:244,1,44.0000013427735
341,187,249580,1,2,0:0:0:0:
159,174,249756,2,0,L|206:162,1,44.0000013427735
335,212,249933,1,2,0:0:0:0:
159,174,250109,5,0,0:0:0:0:
181,337,250286,2,0,L|80:321,1,88.000002685547,2|0,0:0|0:0,0:0:0:0:
63,332,250551,1,0,0:0:0:0:
63,332,250639,1,2,0:0:0:0:
26,153,250815,5,0,0:0:0:0:
138,236,250992,2,0,P|194:225|223:210,1,88.000002685547,2|0,0:0|0:0,0:0:0:0:
250,200,251256,1,0,0:0:0:0:
250,200,251345,1,2,0:0:0:0:
321,94,251521,6,0,P|336:54|338:37,1,44.0000013427735
174,30,251698,1,2,0:0:0:0:
114,134,251874,1,0,0:0:0:0:
114,134,251962,1,0,0:0:0:0:
114,134,252051,2,0,L|211:119,1,88.000002685547,2|0,0:0|0:0,0:0:0:0:
400,232,252404,6,0,L|308:219,1,88.000002685547,2|0,0:0|0:0,0:0:0:0:
276,229,252668,1,0,0:0:0:0:
239,253,252756,1,2,0:0:0:0:
220,292,252844,1,0,0:0:0:0:
220,336,252932,1,0,0:0:0:0:
333,318,253109,5,2,0:0:0:0:
163,207,253286,1,0,0:0:0:0:
163,207,253374,1,0,0:0:0:0:
163,207,253462,2,0,L|58:220,1,88.000002685547,2|0,0:0|0:0,0:0:0:0:
33,341,253815,1,2,0:0:0:0:
258,290,253992,5,0,0:0:0:0:
258,290,254080,1,0,0:0:0:0:
258,290,254168,2,0,P|282:234|288:190,1,88.000002685547,2|0,0:0|0:0,0:0:0:0:
170,92,254521,1,2,0:0:0:0:
112,242,254698,2,0,P|119:267|133:285,1,44.0000013427735
335,335,254874,2,0,P|293:319|178:371,1,176.000005371094,2|2,0:0|0:0,0:0:0:0:
55,192,255404,5,0,0:0:0:0:
55,192,255492,1,0,0:0:0:0:
55,192,255580,2,0,L|143:204,1,88.000002685547,2|0,0:0|0:0,0:0:0:0:
246,217,255933,5,2,0:0:0:0:
306,80,256109,2,0,L|299:123,1,44.0000013427735
247,223,256286,1,2,0:0:0:0:
199,53,256462,2,0,L|206:96,1,44.0000013427735
247,231,256639,1,2,0:0:0:0:
311,40,256815,5,0,0:0:0:0:
348,265,256992,5,2,0:0:0:0:
326,302,257080,1,0,0:0:0:0:
290,328,257168,1,0,0:0:0:0:
247,336,257256,1,0,0:0:0:0:
205,327,257344,1,2,0:0:0:0:
50,227,257521,1,0,0:0:0:0:
171,135,257698,6,0,L|314:153,1,128,2|0,0:0|0:0,0:0:0:0:
475,289,258404,6,0,L|332:307,1,128,2|0,0:0|0:0,0:0:0:0:
181,211,258933,5,0,0:0:0:0:
181,211,259021,1,0,0:0:0:0:
181,211,259109,2,0,L|196:57,1,128,2|0,0:0|0:0,0:0:0:0:
300,277,259815,6,0,P|272:331|191:343,1,128,2|0,0:0|0:0,0:0:0:0:
41,318,260345,5,0,0:0:0:0:
75,177,260521,2,0,P|98:178|126:189,1,32,2|0,0:0|0:0,0:0:0:0:
149,249,260698,1,0,0:0:0:0:
149,249,260786,1,0,0:0:0:0:
149,249,260874,2,0,L|304:245,1,128,0|2,0:0|0:0,0:0:0:0:
349,164,261404,5,0,0:0:0:0:
166,225,261756,5,0,0:0:0:0:
348,300,261933,1,2,0:0:0:0:
381,120,262286,1,0,0:0:0:0:
266,193,262462,5,2,0:0:0:0:
168,162,262815,1,2,0:0:0:0:
64,142,263168,1,0,0:0:0:0:
64,142,263256,1,0,0:0:0:0:
64,142,263345,2,0,L|69:228,1,64,2|0,0:0|0:0,0:0:0:0:
271,222,263874,6,0,L|362:235,2,64,0|2|0,0:0|0:0|0:0,0:0:0:0:
131,325,264580,1,0,0:0:0:0:
131,325,264668,1,0,0:0:0:0:
131,325,264756,2,0,L|219:311,1,64,2|0,0:0|0:0,0:0:0:0:
271,222,265109,2,0,L|354:232,1,64
390,343,265462,2,0,L|478:329,1,64,2|0,0:0|0:0,0:0:0:0:
411,237,265815,5,0,0:0:0:0:
191,208,265992,1,0,0:0:0:0:
289,287,266168,1,2,0:0:0:0:
225,207,267404,2,0,L|180:218,2,32
339,179,267845,5,0,0:0:0:0:
339,179,267934,1,0,0:0:0:0:
423,277,268109,1,0,0:0:0:0:
294,374,268286,5,2,0:0:0:0:
271,361,268374,1,0,0:0:0:0:
252,344,268462,1,0,0:0:0:0:
237,324,268550,1,0,0:0:0:0:
227,300,268638,1,2,0:0:0:0:
223,275,268727,1,0,0:0:0:0:
225,249,268815,1,0,0:0:0:0:
232,225,268903,1,0,0:0:0:0:
245,203,268991,1,2,0:0:0:0:
