osu file format v14

[General]
AudioFilename: audio-1.mp3
AudioLeadIn: 0
PreviewTime: 36776
Countdown: 0
SampleSet: Soft
StackLeniency: 0.7
Mode: 0
LetterboxInBreaks: 0
WidescreenStoryboard: 0

[Editor]
Bookmarks: 34853
DistanceSpacing: 0.9
BeatDivisor: 4
GridSize: 4
TimelineZoom: 1

[Metadata]
Title:Hajimari no Sokudo
TitleUnicode:はじまりの速度
Artist:Sangatsu no Phantasia
ArtistUnicode:三月のパンタシア
Creator:B r o k e n
Version:Normal
Source:キズナイーバー
Tags:Kiznaiver Spring 2016 TV Size Ed Ending Kyle Y Pentori
BeatmapID:964312
BeatmapSetID:449396

[Difficulty]
HPDrainRate:4
CircleSize:3
OverallDifficulty:4
ApproachRate:5
SliderMultiplier:1.1
SliderTickRate:1

[Events]
//Background and Video events
Video,0,"Ki.wmv"
0,0,"screenshot.jpg",0,0
//Break Periods
//Storyboard Layer 0 (Background)
//Storyboard Layer 1 (Fail)
//Storyboard Layer 2 (Pass)
//Storyboard Layer 3 (Foreground)
//Storyboard Sound Samples

[TimingPoints]
71,352.941176470588,4,2,0,60,1,0
9953,-100,4,2,0,60,0,0
36776,-100,4,2,0,80,0,1
79129,-100,4,2,0,40,0,0
81953,-100,4,2,0,60,0,0
87600,-133.333333333333,4,2,0,20,0,0

[Colours]
Combo1 : 191,0,213
Combo2 : 94,54,231
Combo3 : 251,47,62
Combo4 : 13,201,3

[HitObjects]
220,364,71,6,0,L|292:272,1,110
364,216,776,2,0,P|396:224|428:208,2,55
272,176,1482,1,0,0:0:0:0:
176,148,1835,2,0,P|144:144|120:148,1,55
80,172,2188,2,0,P|48:180|25:172,1,55
4,132,2541,6,0,P|-14:81|1:29,2,110
88,80,3600,2,0,P|112:88|144:76,1,55
184,60,3953,2,0,P|240:44|304:76,2,110
236,144,5012,2,0,L|236:264,1,110
208,348,5718,6,0,P|244:352|280:336,1,55
304,320,6070,1,0,0:0:0:0:
344,292,6247,2,0,P|376:284|416:304,1,55
444,276,6600,2,0,P|460:220|428:156,1,110
404,140,7129,2,0,P|384:88|412:24,1,110
440,8,7659,1,0,0:0:0:0:
492,92,8012,1,0,0:0:0:0:
440,176,8365,1,0,0:0:0:0:
400,204,8541,6,0,P|349:222|297:206,1,110
264,168,9070,1,0,0:0:0:0:
220,192,9247,2,0,P|200:252|228:300,1,110
304,344,9953,6,0,P|324:288|296:228,1,110,2|2,0:0|0:0,0:0:0:0:
252,160,10659,2,0,P|304:144|368:172,1,110,2|2,0:0|0:0,0:0:0:0:
444,204,11365,1,2,0:0:0:0:
508,280,11718,2,0,L|508:352,1,55,2|0,0:0|0:0,0:0:0:0:
464,356,12070,2,0,P|408:368|348:348,1,110,2|2,0:0|0:0,0:0:0:0:
316,264,12776,6,0,P|260:252|208:268,1,110,2|2,0:0|0:0,0:0:0:0:
116,296,13482,2,0,P|80:304|36:276,1,55,2|0,0:0|0:0,0:0:0:0:
28,264,13835,2,0,L|28:192,1,55,2|0,0:0|0:0,0:0:0:0:
72,184,14188,2,0,P|88:132|72:68,1,110,2|2,0:0|0:0,0:0:0:0:
160,20,14894,2,0,P|212:6|268:24,1,110,2|2,0:0|0:0,0:0:0:0:
208,104,15600,6,0,P|260:120|312:101,1,110,2|2,0:0|0:0,0:0:0:0:
388,40,16306,1,2,0:0:0:0:
420,132,16659,1,2,0:0:0:0:
332,180,17012,2,0,P|280:212|268:272,1,110,2|2,0:0|0:0,0:0:0:0:
232,348,17718,1,2,0:0:0:0:
144,304,18070,1,2,0:0:0:0:
128,208,18423,5,2,0:0:0:0:
224,232,18776,2,0,P|244:180|312:152,1,110,2|2,0:0|0:0,0:0:0:0:
384,120,19482,1,2,0:0:0:0:
328,40,19835,6,0,P|296:32|273:40,1,55,2|0,0:0|0:0,0:0:0:0:
248,80,20188,2,0,P|192:92|136:80,1,110,2|2,0:0|0:0,0:0:0:0:
52,28,20894,1,2,0:0:0:0:
68,124,21247,5,2,0:0:0:0:
84,220,21600,1,2,0:0:0:0:
100,316,21953,1,2,0:0:0:0:
168,244,22306,2,0,L|212:200,1,55,2|2,0:0|0:0,0:0:0:0:
240,168,22659,6,0,P|260:116|228:48,1,110,2|2,0:0|0:0,0:0:0:0:
276,28,23188,2,0,P|328:16|384:36,1,110
416,68,23718,1,2,0:0:0:0:
396,164,24070,5,2,0:0:0:0:
340,248,24423,1,2,0:0:0:0:
244,276,24776,1,2,0:0:0:0:
160,224,25129,1,2,0:0:0:0:
76,272,25482,6,0,P|56:220|80:164,1,110,2|2,0:0|0:0,0:0:0:0:
108,136,26012,2,0,P|160:120|224:148,1,110,2|2,0:0|0:0,0:0:0:0:
248,168,26541,1,0,0:0:0:0:
316,96,26894,5,2,0:0:0:0:
416,104,27247,1,2,0:0:0:0:
368,192,27600,2,0,P|384:252|348:316,1,110,2|2,0:0|0:0,0:0:0:0:
284,244,28306,6,0,P|228:228|172:244,1,110,2|2,0:0|0:0,0:0:0:0:
92,192,29012,2,0,P|80:132|100:76,1,110,2|2,0:0|0:0,0:0:0:0:
180,36,29718,2,0,P|232:24|312:52,1,110,2|2,0:0|0:0,0:0:0:0:
368,92,30423,6,0,P|376:124|368:152,1,55,10|2,0:0|0:0,0:0:0:0:
344,188,30776,2,0,P|312:196|289:188,1,55,2|2,0:0|0:0,0:0:0:0:
256,156,31129,6,0,P|196:136|148:156,1,110,10|2,0:0|0:0,0:0:0:0:
68,204,31835,2,0,P|52:144|76:88,1,110,10|2,0:0|0:0,0:0:0:0:
148,48,32541,2,0,P|168:104|140:164,1,110,10|2,0:0|0:0,0:0:0:0:
240,196,33247,1,10,0:0:0:0:
272,104,33600,1,10,0:0:0:0:
368,88,33953,5,10,0:0:0:0:
424,172,34306,1,10,0:0:0:0:
376,260,34659,2,0,P|336:268|304:252,1,55,10|0,0:0|0:0,0:0:0:0:
280,284,35012,2,0,P|272:316|284:352,1,55,10|10,0:0|0:0,0:0:0:0:
228,352,35365,2,0,P|174:364|120:348,2,110,10|10|10,0:0|0:0|0:0,0:0:0:0:
176,268,36423,1,4,1:0:0:0:
252,204,36776,6,0,P|272:144|236:92,1,110,0|0,1:0|1:0,0:0:0:0:
216,72,37306,2,0,P|180:68|144:84,1,55,0|0,0:0|1:0,0:0:0:0:
68,100,37835,1,0,1:0:0:0:
16,184,38188,6,0,P|-4:236|28:292,1,110,0|0,1:0|1:0,0:0:0:0:
64,304,38718,2,0,L|120:304,1,55,0|0,0:0|1:0,0:0:0:0:
216,288,39247,1,0,1:0:0:0:
168,200,39600,6,0,P|212:184|276:208,1,110,0|0,1:0|1:0,0:0:0:0:
300,244,40129,1,0,0:0:0:0:
344,268,40306,2,0,P|400:280|460:260,1,110,0|0,1:0|1:0,0:0:0:0:
472,224,40835,1,0,0:0:0:0:
476,176,41012,6,0,L|472:60,1,110,0|0,1:0|1:0,0:0:0:0:
428,44,41541,1,0,0:0:0:0:
380,60,41718,2,0,P|324:72|260:56,1,110,0|0,1:0|1:0,0:0:0:0:
176,84,42423,6,0,P|160:136|188:204,1,110,0|0,1:0|1:0,0:0:0:0:
216,216,42953,1,0,0:0:0:0:
256,244,43129,2,0,L|332:268,2,55,0|0|0,1:0|0:0|1:0,0:0:0:0:
192,320,43835,2,0,P|136:340|76:316,1,110,0|0,1:0|1:0,0:0:0:0:
8,268,44541,1,0,1:0:0:0:
32,172,44894,1,0,1:0:0:0:
112,116,45247,6,0,P|168:100|236:128,1,110,0|0,1:0|1:0,0:0:0:0:
260,140,45776,1,0,0:0:0:0:
240,184,45953,2,0,P|224:240|264:296,1,110,0|0,1:0|1:0,0:0:0:0:
332,336,46659,6,0,P|360:344|404:328,1,55,0|0,1:0|0:0,0:0:0:0:
416,300,47012,2,0,P|424:268|416:236,1,55,0|0,1:0|0:0,0:0:0:0:
392,208,47365,2,0,P|384:184|400:140,1,55,0|0,1:0|0:0,0:0:0:0:
404,108,47718,2,0,P|412:72|400:48,1,55,0|0,1:0|0:0,0:0:0:0:
364,32,48070,6,0,P|308:24|248:36,1,110,0|0,1:0|1:0,0:0:0:0:
160,56,48776,2,0,L|120:8,2,55,0|0|0,1:0|0:0|1:0,0:0:0:0:
156,156,49482,2,0,P|172:216|144:272,1,110,0|0,1:0|1:0,0:0:0:0:
112,348,50188,2,0,P|76:356|44:336,2,55,0|0|0,1:0|0:0|1:0,0:0:0:0:
208,324,50894,6,0,P|264:308|312:332,1,110,0|0,1:0|0:0,0:0:0:0:
356,316,51423,2,0,P|372:260|344:196,1,110
328,172,51953,1,0,1:0:0:0:
396,100,52306,6,0,P|424:96|460:108,1,55,0|0,1:0|0:0,0:0:0:0:
500,104,52659,2,0,P|508:68|496:36,1,55,0|0,1:0|0:0,0:0:0:0:
472,16,53012,2,0,P|416:0|360:20,1,110,0|0,1:0|1:0,0:0:0:0:
292,76,53718,5,8,1:0:0:0:
220,144,54070,2,0,P|188:152|152:132,1,55,0|0,1:0|0:0,0:0:0:0:
124,120,54423,2,0,P|76:104|12:124,1,110,8|0,1:0|1:0,0:0:0:0:
72,204,55129,5,8,1:0:0:0:
100,300,55482,2,0,L|160:300,1,55,0|0,1:0|0:0,0:0:0:0:
196,272,55835,2,0,B|228:216|188:160,1,110,8|0,1:0|1:0,0:0:0:0:
128,92,56541,5,8,1:0:0:0:
228,88,56894,1,8,1:0:0:0:
296,160,57247,1,8,1:0:0:0:
284,260,57600,1,8,1:0:0:0:
200,316,57953,5,8,1:0:0:0:
100,308,58306,1,8,1:0:0:0:
24,244,58659,2,0,L|24:128,1,110,8|8,1:0|1:0,0:0:0:0:
108,80,59365,6,0,P|164:64|220:84,1,110,12|0,1:0|1:0,0:0:0:0:
248,116,59894,2,0,P|276:120|320:108,1,55,0|0,0:0|1:0,0:0:0:0:
388,164,60423,2,0,P|396:196|384:220,1,55,0|0,1:0|0:0,0:0:0:0:
348,244,60776,2,0,P|321:249|295:241,1,55,0|0,1:0|0:0,0:0:0:0:
252,220,61129,2,0,P|216:216|188:228,2,55,0|0|0,1:0|0:0|1:0,0:0:0:0:
228,316,61835,1,0,1:0:0:0:
312,364,62188,6,0,P|364:380|424:360,1,110,0|0,1:0|1:0,0:0:0:0:
452,332,62718,1,0,0:0:0:0:
472,288,62894,2,0,P|487:235|471:184,1,110,0|0,1:0|1:0,0:0:0:0:
432,156,63423,1,0,0:0:0:0:
396,188,63600,6,0,P|344:204|284:176,1,110,0|0,1:0|1:0,0:0:0:0:
248,164,64129,1,0,0:0:0:0:
208,132,64306,2,0,P|152:116|100:136,1,110,0|0,1:0|1:0,0:0:0:0:
104,232,65012,6,0,P|156:248|216:224,1,110,8|0,1:0|1:0,0:0:0:0:
284,168,65718,2,0,L|320:108,2,55,8|0|0,1:0|0:0|1:0,0:0:0:0:
376,208,66423,2,0,L|308:312,1,110,8|0,1:0|1:0,0:0:0:0:
232,352,67129,2,0,P|180:324|160:264,1,110,8|0,1:0|1:0,0:0:0:0:
176,180,67835,5,8,1:0:0:0:
272,152,68188,2,0,P|288:140|324:136,1,55,0|0,1:0|0:0,0:0:0:0:
360,168,68541,2,0,P|416:152|460:84,1,110,8|8,1:0|1:0,0:0:0:0:
400,28,69247,5,8,1:0:0:0:
300,20,69600,1,8,1:0:0:0:
216,72,69953,1,8,1:0:0:0:
196,168,70306,1,8,1:0:0:0:
268,236,70659,6,0,P|296:232|344:244,2,55,4|0|0,1:0|0:0|1:0,0:0:0:0:
228,264,71188,2,0,P|188:272|164:256,1,55,0|0,0:0|1:0,0:0:0:0:
136,236,71541,2,0,P|104:228|80:236,1,55,0|0,0:0|1:0,0:0:0:0:
0,176,72070,6,0,P|-16:116|8:68,1,110,4|0,1:0|1:0,0:0:0:0:
36,36,72600,1,0,0:0:0:0:
84,20,72776,2,0,P|108:12|152:24,2,55,0|0|0,1:0|0:0|1:0,0:0:0:0:
84,120,73482,6,0,P|136:136|200:112,1,110,4|0,1:0|1:0,0:0:0:0:
272,72,74188,1,0,1:0:0:0:
292,168,74541,1,0,1:0:0:0:
212,224,74894,6,0,P|176:228|136:212,1,55,4|0,1:0|0:0,0:0:0:0:
108,232,75247,2,0,P|88:284|120:344,1,110,4|0,1:0|0:0,0:0:0:0:
144,364,75776,2,0,P|196:380|260:360,1,110,4|0,0:1|0:0,0:0:0:0:
284,332,76306,2,0,P|340:316|404:344,1,110,4|0,0:1|0:0,0:0:0:0:
452,252,77012,2,0,P|468:192|440:136,1,110
372,88,77718,6,0,P|304:72|252:96,1,110
192,148,78423,1,0,0:0:0:0:
100,112,78776,1,0,0:0:0:0:
32,184,79129,1,0,0:0:0:0:
136,244,80541,5,2,0:0:0:0:
336,232,81953,6,0,P|388:216|452:248,2,110,10|2|10,0:0|0:0|0:0,0:0:0:0:
312,276,82835,2,0,L|312:344,2,55,2|2|2,0:0|0:0|0:0,0:0:0:0:
272,248,83365,2,0,L|217:248,1,55,10|2,0:0|0:0,0:0:0:0:
184,212,83718,6,0,L|124:212,1,55,2|2,0:0|0:0,0:0:0:0:
96,176,84070,2,0,L|96:116,1,55,10|2,0:0|0:0,0:0:0:0:
120,80,84423,1,2,0:0:0:0:
220,72,84776,6,0,P|248:76|276:68,1,55,10|2,0:0|0:0,0:0:0:0:
324,68,85129,2,0,L|364:8,2,55,10|2|8,0:0|0:0|0:0,0:0:0:0:
340,116,85659,1,0,0:0:0:0:
368,156,85835,2,0,L|368:228,2,55,8|0|8,0:0|0:0|0:0,0:0:0:0:
460,196,86541,1,8,0:0:0:0:
420,288,86894,2,0,P|367:303|316:286,1,110,8|8,0:0|0:0,0:0:0:0:
256,192,87600,12,0,88835,0:0:0:0:
