osu file format v14

[General]
AudioFilename: audio.mp3
AudioLeadIn: 0
PreviewTime: 147278
Countdown: 0
SampleSet: Soft
StackLeniency: 0.5
Mode: 0
LetterboxInBreaks: 0
WidescreenStoryboard: 1

[Editor]
DistanceSpacing: 1.2
BeatDivisor: 4
GridSize: 4
TimelineZoom: 1.8

[Metadata]
Title:Hajimari no Sokudo
TitleUnicode:はじまりの速度
Artist:Sangatsu no Phantasia
ArtistUnicode:三月のパンタシア
Creator:-Mikan
Version:adioni's Special
Source:キズナイーバー
Tags:Hikan Affirmation NeoskyLove adioni wenect Unranked mapper wenet Kazato Asa Shizuku- Akitoshi -Laura- Corinn kiznaiver ending trigger ed japanese jpop j-pop pop anime
BeatmapID:2334877
BeatmapSetID:1098561

[Difficulty]
HPDrainRate:6
CircleSize:3.8
OverallDifficulty:9
ApproachRate:9.3
SliderMultiplier:1.7
SliderTickRate:1

[Events]
//Background and Video events
0,0,"fasdfasd.jpg",0,0
Video,0,"Sangatsu No Phantasia - Hajimarino Sokudo.avi"
//Break Periods
2,224070,233184
//Storyboard Layer 0 (Background)
//Storyboard Layer 1 (Fail)
//Storyboard Layer 2 (Pass)
//Storyboard Layer 3 (Foreground)
//Storyboard Layer 4 (Overlay)
//Storyboard Sound Samples

[TimingPoints]
653,346.820809248555,4,2,1,40,1,0
826,340.909090909091,4,2,1,40,1,0
826,-111.111111111111,4,2,1,40,0,0
1166,-111.111111111111,4,2,1,40,0,0
1337,375,4,2,1,40,1,0
1712,352.941176470588,4,2,1,40,1,0
2241,338.983050847458,4,2,1,40,1,0
2579,359.281437125748,4,2,1,40,1,0
3656,387.096774193548,4,2,1,40,1,0
3656,-125,4,2,1,40,0,0
4043,329.67032967033,4,2,1,40,1,0
4207,333.333333333333,4,2,1,40,1,0
4873,357.142857142857,4,2,1,40,1,0
5408,346.820809248555,4,2,1,40,1,0
5581,352.941176470588,4,2,1,40,1,0
6463,352.941176470588,4,2,1,40,1,0
6992,375,4,2,1,40,1,0
7367,352.941176470588,4,2,1,40,1,0
7896,346.820809248555,4,2,1,40,1,0
8589,365.853658536585,4,2,1,40,1,0
8954,352.941176470588,4,2,1,40,1,0
9306,368.098159509202,4,2,1,40,1,0
9306,-125,4,2,1,40,0,0
9674,352.941176470588,4,2,1,40,1,0
10203,327.868852459016,4,2,1,40,1,0
10530,363.636363636364,4,2,1,40,1,0
11075,359.281437125748,4,2,1,40,1,0
11434,329.67032967033,4,2,1,40,1,0
11434,-111.111111111111,4,2,1,40,0,0
11598,-111.111111111111,4,2,3,40,0,0
11763,363.636363636364,4,2,3,40,1,0
11763,-111.111111111111,4,2,3,40,0,0
12126,352.941176470588,4,2,1,50,1,0
12126,-105.263157894737,4,2,1,50,0,0
13008,375,4,2,1,50,1,0
13195,350.877192982456,4,2,1,50,1,0
13896,-105.263157894737,4,2,1,50,0,0
14949,346.820809248555,4,2,1,50,1,0
14949,-105.263157894737,4,2,1,50,0,0
15816,365.853658536585,4,2,1,50,1,0
16181,-105.263157894737,4,2,1,50,0,0
16364,348.837209302326,4,2,1,50,1,0
16887,-100,4,2,1,60,0,0
17759,352.941176470588,4,2,1,60,1,0
20758,-100,4,2,1,35,0,0
20935,-100,4,2,1,40,0,0
21111,-100,4,2,1,45,0,0
21288,-100,4,2,1,50,0,0
21464,-100,4,2,1,55,0,0
21641,-100,4,2,1,60,0,0
23416,352.941176470588,4,2,1,40,1,0
23935,-100,4,2,1,40,0,0
24111,-125,4,2,1,40,0,0
32945,333.333333333333,4,2,1,40,1,0
33278,357.142857142857,4,2,1,40,1,0
33278,-125,4,2,1,40,0,0
34347,-125,4,2,0,40,0,0
34700,352.941176470588,4,2,1,50,1,0
34700,-111.111111111111,4,2,1,50,0,0
35052,-111.111111111111,4,2,4,50,0,0
40170,-111.111111111111,4,2,1,50,0,0
40700,-111.111111111111,4,2,4,50,0,0
42464,-111.111111111111,4,2,1,50,0,0
42994,-100,4,2,1,50,0,0
43170,-100,4,2,1,60,0,0
47934,-100,4,2,2,60,0,0
48464,-100,4,2,1,60,0,0
50935,-142.857142857143,4,2,1,60,0,0
51641,-100,4,2,1,60,0,0
51993,-100,4,2,2,60,0,0
54464,-100,4,2,1,60,0,0
56935,-100,4,2,3,60,0,0
57288,-100,4,2,1,60,0,0
57464,-100,4,2,1,45,0,0
57641,-100,4,2,1,50,0,0
57817,-100,4,2,1,55,0,0
57994,-100,4,2,1,60,0,0
58170,-100,4,2,1,65,0,0
58347,-100,4,2,1,70,0,0
58788,-100,4,2,1,60,0,0
59053,-100,4,2,1,70,0,0
59141,-100,4,2,1,60,0,0
59406,-100,4,2,1,70,0,0
59582,-100,4,2,1,60,0,0
59758,-100,4,2,1,70,0,0
59847,-100,4,2,1,60,0,0
60111,-90.9090909090909,4,2,2,70,0,0
60375,-90.9090909090909,4,2,1,70,0,0
70700,-90.9090909090909,4,2,2,70,0,0
70788,-90.9090909090909,4,2,1,60,0,0
71053,-90.9090909090909,4,2,1,70,0,0
71141,-90.9090909090909,4,2,1,60,0,0
71406,-90.9090909090909,4,2,1,70,0,0
81994,-90.9090909090909,4,2,2,70,0,0
82082,-90.9090909090909,4,2,1,60,0,0
82347,-90.9090909090909,4,2,1,70,0,0
82435,-90.9090909090909,4,2,1,60,0,0
82700,-83.3333333333333,4,2,1,70,0,0
92582,-83.3333333333333,4,2,2,70,0,0
92935,-83.3333333333333,4,2,1,70,0,0
93288,-83.3333333333333,4,2,1,60,0,0
93464,-83.3333333333333,4,2,1,55,0,0
93641,-83.3333333333333,4,2,1,50,0,0
93817,-83.3333333333333,4,2,1,45,0,0
93994,-100,4,2,1,60,0,0
98229,-100,4,2,1,70,0,0
98758,-100,4,2,3,70,0,0
99641,-100,4,2,1,60,0,0
100081,-100,4,2,2,60,0,0
102023,-100,4,2,2,5,0,0
102111,-100,4,2,2,60,0,0
102464,-100,4,2,1,50,0,0
103700,-200,4,2,1,50,0,0
105288,-111.111111111111,4,2,1,60,0,0
108111,348.837209302326,4,2,1,60,1,0
109506,352.941176470588,4,2,1,60,1,0
110211,359.281437125748,4,2,1,60,1,0
110390,-111.111111111111,4,2,1,60,0,0
110929,352.941176470588,4,2,1,60,1,0
110929,-111.111111111111,4,2,1,60,0,0
111193,-111.111111111111,4,2,1,50,0,0
111987,-100,4,2,1,50,0,0
116399,-100,4,2,2,50,0,0
118251,-100,4,2,1,50,0,0
122046,-100,4,2,2,50,0,0
122840,-100,4,2,1,50,0,0
127517,-100,4,2,2,50,0,0
129192,-100,4,2,1,50,0,0
130163,-100,4,2,1,60,0,0
132458,-100,4,2,1,55,0,0
132811,-100,4,2,1,50,0,0
133164,-100,4,2,1,45,0,0
134840,-100,4,2,1,60,0,0
137399,-100,4,2,2,60,0,0
137840,-100,4,2,1,60,0,0
139164,-142.857142857143,4,2,1,50,0,0
141281,-100,4,2,1,50,0,0
141634,-100,4,2,1,60,0,0
144458,-100,4,2,3,60,0,0
144987,-100,4,2,1,45,0,0
145164,-100,4,2,1,50,0,0
145340,-100,4,2,1,55,0,0
145517,-100,4,2,1,60,0,0
145693,-100,4,2,1,65,0,0
145870,-100,4,2,1,70,0,0
146311,-100,4,2,1,60,0,0
146576,-100,4,2,1,70,0,0
146664,-100,4,2,1,60,0,0
146928,-100,4,2,1,70,0,0
147017,-100,4,2,1,60,0,0
147281,-100,4,2,1,70,0,0
147369,-100,4,2,1,60,0,0
147634,-90.9090909090909,4,2,2,70,0,0
147986,-90.9090909090909,4,2,1,70,0,0
157164,-90.9090909090909,4,2,3,70,0,0
157517,-90.9090909090909,4,2,1,70,0,0
158223,-90.9090909090909,4,2,2,70,0,0
158399,-90.9090909090909,4,2,1,70,0,0
158576,-90.9090909090909,4,2,1,60,0,0
158752,-90.9090909090909,4,2,1,55,0,0
158928,-125,4,2,1,60,0,0
162281,-100,4,2,1,60,0,0
162458,-125,4,2,1,60,0,0
162811,-125,4,2,3,60,0,0
163164,-125,4,2,1,70,0,0
163693,-125,4,2,3,70,0,0
164046,344.827586206897,4,2,3,70,1,0
164563,352.941176470588,4,2,1,60,1,0
164563,-111.111111111111,4,2,1,60,0,0
164915,-100,4,2,1,60,0,0
165974,-111.111111111111,4,2,1,60,0,0
168798,357.142857142857,4,2,1,60,1,0
168974,-111.111111111111,4,2,1,35,0,0
169151,-111.111111111111,4,2,1,40,0,0
169327,-111.111111111111,4,2,1,45,0,0
169504,-111.111111111111,4,2,1,50,0,0
169680,-111.111111111111,4,2,1,55,0,0
169857,-111.111111111111,4,2,1,60,0,0
170226,352.941176470588,4,2,3,40,1,0
170226,-166.666666666666,4,2,1,60,0,0
170386,-166.666666666666,4,2,3,40,0,0
171621,-166.666666666667,4,2,3,40,0,0
172151,-166.666666666666,4,2,3,40,0,0
176563,-125,4,2,3,40,0,0
177268,-125,4,2,2,50,0,0
177974,-125,4,2,1,60,0,0
178343,346.820809248555,4,2,1,60,1,0
178689,352.941176470588,4,2,1,60,1,0
178857,-83.3333333333333,4,2,1,60,0,0
180453,348.837209302326,4,2,1,60,1,0
180621,-100,4,2,1,45,0,0
180798,-100,4,2,1,50,0,0
180974,-100,4,2,1,55,0,0
181151,-100,4,2,1,60,0,0
181512,352.941176470588,4,2,1,60,1,0
181680,-100,4,2,1,40,0,0
182210,-100,4,2,1,60,0,0
182298,-100,4,2,1,40,0,0
182474,-100,4,2,1,60,0,0
182738,-100,4,2,1,40,0,0
182915,-100,4,2,1,60,0,0
183003,-100,4,2,1,40,0,0
183268,-100,4,2,1,60,0,0
183357,-100,4,2,1,40,0,0
183621,-100,4,2,1,60,0,0
183710,-100,4,2,1,40,0,0
183798,-100,4,2,1,60,0,0
184062,-100,4,2,1,40,0,0
184592,-100,4,2,1,60,0,0
184768,-100,4,2,1,40,0,0
185033,-100,4,2,1,60,0,0
185121,-100,4,2,1,40,0,0
185386,-100,4,2,1,60,0,0
185474,-100,4,2,1,40,0,0
185915,-100,4,2,1,60,0,0
186445,-100,4,2,1,50,0,0
186798,-100,4,2,1,60,0,0
193151,-100,4,2,3,70,0,0
194386,-100,4,2,1,50,0,0
194562,-100,4,2,1,55,0,0
194924,348.837209302326,4,2,1,55,1,0
195268,-100,4,2,1,65,0,0
195621,352.941176470588,4,2,1,65,1,0
195974,-100,4,2,4,40,0,0
197033,-142.857142857143,4,2,4,40,0,0
198268,-142.857142857143,4,2,1,40,0,0
198445,357.142857142857,4,2,1,40,1,0
198802,-100,4,2,4,40,0,0
199873,352.941176470588,4,2,4,40,1,0
199873,-142.857142857143,4,2,4,40,0,0
200755,-142.857142857143,4,2,1,40,0,0
200931,-142.857142857143,4,2,4,40,0,0
201108,-142.857142857143,4,2,1,40,0,0
201637,-142.857142857143,4,2,4,40,0,0
203931,-142.857142857143,4,2,1,40,0,0
204108,348.837209302326,4,2,1,40,1,0
204456,-100,4,2,4,40,0,0
205154,-100,4,2,3,60,0,0
205328,-100,4,2,1,50,0,0
205503,352.941176470588,4,2,1,50,1,0
205503,-142.857142857143,4,2,1,50,0,0
206208,361.44578313253,4,2,1,60,1,0
206569,-100,4,2,1,50,0,0
206810,315.789473684211,4,2,1,50,1,0
206915,352.941176470588,4,2,1,70,1,0
207267,-100,4,2,2,70,0,0
211502,-100,4,2,1,70,0,0
218649,-100,4,2,2,60,0,0
220679,-100,4,2,3,60,0,0
221385,-100,4,2,3,40,0,0
221562,-100,4,2,1,40,0,0
221738,-100,4,2,1,45,0,0
223503,-100,4,2,1,70,0,0
233738,-166.666666666667,4,2,1,40,0,0
234620,-166.666666666667,4,2,3,40,0,0
235150,-125,4,2,1,50,0,0
239385,-100,4,2,1,50,0,0
240973,-100,4,2,1,60,0,0
241150,-100,4,2,1,40,0,0
241503,-100,4,2,1,45,0,0
241856,-100,4,2,1,50,0,0
242209,-100,4,2,1,55,0,0
242562,-100,4,2,1,60,0,0
243620,-83.3333333333333,4,2,1,60,0,0
244679,-83.3333333333333,4,2,1,70,0,0
244856,-83.3333333333333,4,2,1,60,0,0
245032,-83.3333333333333,4,2,1,70,0,0
245120,-83.3333333333333,4,2,1,60,0,0
245738,-83.3333333333333,4,2,1,70,0,0
245914,-83.3333333333333,4,2,1,60,0,0
246091,-83.3333333333333,4,2,1,70,0,0
246179,-83.3333333333333,4,2,1,60,0,0
246444,-83.3333333333333,4,2,2,70,0,0
246797,-83.3333333333333,4,2,1,70,0,0
251738,-83.3333333333333,4,2,3,70,0,0
252091,-83.3333333333333,4,2,1,70,0,0
256326,-83.3333333333333,4,2,2,70,0,0
256679,-83.3333333333333,4,2,1,70,0,0
257032,-83.3333333333333,4,2,1,60,0,0
257209,-83.3333333333333,4,2,1,55,0,0
257385,-83.3333333333333,4,2,1,50,0,0
257562,-83.3333333333333,4,2,1,45,0,0
257738,-83.3333333333333,4,2,1,60,0,0
259150,-125,4,2,1,60,0,0
261973,-125,4,2,1,70,0,0
262503,-125,4,2,3,70,0,0
263385,-100,4,2,1,60,0,0
263738,-100,4,2,2,60,0,0
266209,-100,4,2,1,40,0,0
267385,-125,4,2,1,40,0,0
267620,-125,4,2,1,50,0,0
267649,-125,4,2,1,40,0,0
267885,-125,4,2,1,50,0,0
267973,-100,4,2,1,50,0,0
268679,-100,4,2,1,60,0,0
276444,-100,4,2,3,60,0,0
277414,-100,4,2,1,60,0,0
277679,-100,4,2,1,45,0,0
278209,-100,4,2,1,50,0,0
278562,-100,4,2,1,55,0,0
278914,-100,4,2,1,60,0,0
279267,-100,4,2,1,65,0,0
279620,-100,4,2,1,70,0,0
280326,-400,4,2,2,70,0,0
283149,-400,4,2,1,5,0,0

[Colours]
Combo1 : 96,168,255
Combo2 : 125,222,251

[HitObjects]
45,169,826,6,0,B|138:139|108:202|216:181,1,152.999995330811,6|0,3:2|2:0,2:0:0:0:
349,107,1337,2,0,P|337:66|224:46,1,170,0|2,2:0|2:0,2:0:0:0:
213,208,1888,2,0,P|257:189|294:187,1,85,2|2,2:0|2:0,2:0:0:0:
425,226,2241,5,2,2:0:0:0:
422,244,2579,1,2,2:0:0:0:
419,262,2938,1,2,2:0:0:0:
416,280,3297,1,2,2:0:0:0:
314,369,3656,6,0,P|308:292|299:212,1,136,2|0,2:0|2:0,2:0:0:0:
153,86,4207,2,0,P|192:120|300:96,1,170,0|2,2:0|2:0,2:0:0:0:
339,12,4706,1,2,2:0:0:0:
342,30,4873,1,2,2:0:0:0:
364,156,5051,5,2,2:0:0:0:
465,63,5408,5,2,2:0:0:0:
462,81,5581,1,2,2:0:0:0:
227,156,5933,5,2,2:0:0:0:
446,337,6463,6,0,B|442:354|423:364|423:364|382:352|366:301|389:244,1,170,2|0,2:0|2:0,2:0:0:0:
486,173,6992,2,0,P|488:217|443:212,1,85,0|0,2:0|2:0,2:0:0:0:
362,170,7367,1,2,2:0:0:0:
380,167,7543,1,2,2:0:0:0:
398,164,7719,1,2,2:0:0:0:
274,268,7896,6,0,L|285:88,1,170,2|2,2:0|2:0,2:0:0:0:
119,29,8589,2,0,L|129:198,1,170,2|2,2:0|2:0,2:0:0:0:
141,368,9306,2,0,P|200:337|172:254,1,136,2|0,2:0|2:0,2:0:0:0:
15,280,9850,2,0,P|67:281|110:248,1,85,0|0,2:0|2:0,2:0:0:0:
241,198,10203,1,2,2:0:0:0:
223,195,10366,1,2,2:0:0:0:
205,192,10530,1,2,2:0:0:0:
329,296,10711,6,0,P|329:237|334:134,1,170.4675,2|2,2:0|2:0,2:0:0:0:
148,19,11344,1,0,2:0:0:0:
148,19,11434,2,0,P|154:69|156:115,1,76.4999976654053,2|0,2:0|3:0,2:0:0:0:
45,72,11763,2,0,P|39:114|37:156,1,76.4999976654053,6|0,2:0|2:0,2:0:0:0:
170,208,12126,6,0,B|83:189|108:258|12:238,1,161.499995687485,6|0,2:0|2:0,2:0:0:0:
148,304,12655,2,0,P|189:290|313:286,1,161.957579020818,0|2,3:0|3:2,2:0:0:0:
111,382,13195,2,0,P|75:351|67:305,1,85,2|2,2:0|3:2,2:0:0:0:
179,127,13545,6,0,L|169:215,1,85,2|0,3:2|2:0,2:0:0:0:
265,83,13896,2,0,L|274:163,1,80.7499999999999,2|0,2:0|3:0,2:0:0:0:
94,87,14247,2,0,L|84:175,1,80.7499999999999,2|0,2:0|3:0,2:0:0:0:
343,35,14598,2,0,L|352:115,1,80.7499999999999,2|0,2:0|3:0,2:0:0:0:
289,248,14861,1,0,3:0:0:0:
289,248,14949,6,0,P|339:224|425:277,1,161.499995687485,2|0,3:2|2:0,2:0:0:0:
277,358,15469,2,0,P|236:347|191:343,1,80.7499999999999,0|0,3:0|2:0,2:0:0:0:
95,353,15816,1,2,3:2:0:0:
80,358,15998,1,2,3:2:0:0:
144,268,16181,2,0,P|183:255|209:253,1,40.3749999999999,4|4,2:3|2:3,2:0:0:0:
289,248,16364,5,14,1:2:0:0:
77,204,16538,1,0,1:0:0:0:
286,126,16712,1,14,1:2:0:0:
59,206,16887,1,4,2:3:0:0:
303,254,17061,6,0,L|308:300,1,42.5,2|8,1:2|2:0,2:0:0:0:
44,210,17236,2,0,L|39:167,1,42.5,8|8,2:0|2:0,2:0:0:0:
98,43,17410,1,10,1:2:0:0:
132,27,17497,1,8,2:0:0:0:
170,29,17584,1,8,2:0:0:0:
203,47,17672,1,8,2:0:0:0:
225,78,17759,6,0,L|214:189,1,85,4|0,1:0|2:0,2:0:0:0:
144,268,18111,1,0,1:0:0:0:
0,115,18288,2,0,P|45:105|94:101,1,85,2|0,2:0|1:0,2:0:0:0:
217,163,18641,1,0,2:0:0:0:
131,282,18817,2,0,P|88:277|47:268,1,85,2|8,1:2|2:0,2:0:0:0:
38,257,19082,1,8,2:0:0:0:
38,257,19170,1,0,1:0:0:0:
231,153,19347,6,0,L|242:271,1,85,2|0,2:0|1:0,2:0:0:0:
363,311,19700,1,0,2:0:0:0:
363,311,19876,2,0,L|370:226,1,85,2|8,1:2|2:0,2:0:0:0:
325,80,20229,1,2,1:2:0:0:
359,96,20317,1,0,2:0:0:0:
397,94,20406,1,4,2:3:0:0:
430,76,20494,1,4,2:3:0:0:
452,45,20582,6,0,L|463:163,1,85,4|8,1:0|2:0,2:0:0:0:
498,249,20847,1,8,2:0:0:0:
492,264,20935,2,0,P|456:258|427:255,1,42.5,8|8,1:2|2:0,2:0:0:0:
368,198,21111,2,0,P|332:204|303:207,1,42.5,8|8,2:0|2:0,2:0:0:0:
228,313,21288,5,8,1:2:0:0:
180,324,21376,1,8,2:0:0:0:
137,303,21464,1,8,2:0:0:0:
119,259,21553,1,8,2:0:0:0:
134,213,21641,1,8,1:2:0:0:
174,189,21729,1,8,2:0:0:0:
222,198,21817,1,8,2:0:0:0:
218,222,21906,1,8,2:0:0:0:
216,247,21994,5,4,1:0:0:0:
307,79,23416,5,0,2:0:0:0:
311,97,23592,1,0,2:0:0:0:
429,114,23768,1,0,2:0:0:0:
425,132,23945,1,2,2:0:0:0:
344,199,24121,6,0,P|353:245|356:280,1,68,2|0,2:0|2:0,2:0:0:0:
452,257,24474,2,0,P|443:303|440:338,1,68,0|2,2:0|2:0,2:0:0:0:
273,353,24827,6,0,L|192:342,1,68,2|0,2:0|2:0,2:0:0:0:
168,250,25180,2,0,L|249:239,1,68,2|2,2:0|2:0,2:0:0:0:
105,324,25533,5,0,2:0:0:0:
87,320,25710,1,2,2:0:0:0:
26,223,25886,1,0,2:0:0:0:
44,219,26063,1,2,2:0:0:0:
124,144,26239,6,0,P|134:104|136:69,1,68,0|0,2:0|2:0,2:0:0:0:
237,199,26592,2,0,P|227:159|225:124,1,68,0|0,2:0|2:0,2:0:0:0:
299,32,26945,2,0,L|378:42,1,68,0|2,2:0|2:0,2:0:0:0:
348,122,27298,2,0,L|427:132,1,68,2|2,2:0|2:0,2:0:0:0:
489,225,27651,5,0,2:0:0:0:
493,207,27827,1,0,2:0:0:0:
382,264,28004,1,0,2:0:0:0:
378,246,28180,1,0,2:0:0:0:
464,332,28357,5,2,2:0:0:0:
468,314,28533,1,0,2:0:0:0:
357,371,28710,1,2,2:0:0:0:
353,353,28886,1,0,2:0:0:0:
202,266,29063,6,0,P|245:257|283:271,1,68,0|0,2:0|2:0,2:0:0:0:
191,367,29416,2,0,P|148:376|110:362,1,68,0|2,2:0|2:0,2:0:0:0:
51,257,29768,2,0,P|61:216|64:176,1,68,2|2,2:0|2:0,2:0:0:0:
148,115,30121,2,0,P|152:148|160:181,1,68,0|2,2:0|2:0,2:0:0:0:
292,207,30474,5,2,2:0:0:0:
274,211,30651,1,0,2:0:0:0:
326,107,30827,1,2,2:0:0:0:
344,111,31004,1,2,2:0:0:0:
454,179,31180,5,0,2:0:0:0:
450,197,31357,1,2,2:0:0:0:
374,267,31533,1,0,2:0:0:0:
378,285,31710,1,2,2:0:0:0:
502,364,31886,6,0,P|476:346|422:347,1,68,2|0,2:0|2:0,2:0:0:0:
338,362,32239,2,0,P|312:380|258:379,1,68,0|2,2:0|2:0,2:0:0:0:
195,307,32592,5,2,2:0:0:0:
199,289,32768,1,0,2:0:0:0:
77,227,32945,1,0,2:0:0:0:
163,123,33111,1,0,2:0:0:0:
170,135,33195,1,0,2:0:0:0:
181,142,33278,6,0,P|216:138|261:127,1,68,2|0,2:0|2:0,2:0:0:0:
268,39,33635,2,0,P|303:43|348:54,1,68,2|0,2:0|2:0,2:0:0:0:
428,134,33992,2,0,L|436:207,1,68,2|0,2:0|3:0,2:0:0:0:
412,278,34260,1,0,3:0:0:0:
405,292,34349,2,0,L|332:283,1,68,6|0,2:0|2:0,2:0:0:0:
150,326,34700,6,0,P|179:332|259:250,1,153,4|2,2:0|3:2,2:0:0:0:
202,169,35229,1,0,2:0:0:0:
259,69,35406,2,0,P|311:55|343:53,1,76.5000000000001,2|0,3:2|2:0,2:0:0:0:
190,176,35758,2,0,P|152:171|115:160,1,76.5000000000001,2|0,3:2|2:0,2:0:0:0:
14,24,36111,6,0,P|22:103|28:190,1,153,0|0,3:0|3:0,2:0:0:0:
18,298,36641,1,2,2:0:0:0:
111,360,36817,2,0,P|154:343|196:339,1,76.5000000000001,2|0,3:2|2:0,2:0:0:0:
256,267,37170,2,0,P|298:285|330:312,1,76.5000000000001,0|2,3:0|2:0,2:0:0:0:
165,250,37523,6,0,L|149:89,1,153,2|2,3:2|3:2,2:0:0:0:
315,33,38053,2,0,L|311:89,1,38.25,2|0,2:0|2:0,2:0:0:0:
378,121,38229,6,0,P|335:106|251:167,2,153,0|2|0,3:0|3:2|3:0,2:0:0:0:
418,257,39111,1,0,2:0:0:0:
334,200,39288,1,0,3:0:0:0:
470,167,39464,1,0,2:0:0:0:
333,301,39641,2,0,B|246:264|262:333|161:308,1,153,2|2,3:2|3:2,2:0:0:0:
104,229,40170,1,2,2:0:0:0:
107,217,40258,1,0,2:0:0:0:
117,210,40347,6,0,L|198:218,1,76.5000000000001,0|2,1:0|2:0,2:0:0:0:
27,360,40700,2,0,L|12:192,1,153,2|0,3:2|3:0,2:0:0:0:
339,67,41406,2,0,P|309:117|199:117,2,153,2|2|6,3:2|3:2|3:2,2:0:0:0:
205,114,42288,2,0,L|211:158,1,38.25,2|0,2:0|2:0,2:0:0:0:
264,248,42464,5,0,1:0:0:0:
287,260,42553,1,8,2:0:0:0:
313,258,42641,1,10,2:0:0:0:
356,227,42729,5,8,2:0:0:0:
401,206,42817,1,8,1:2:0:0:
447,222,42906,1,8,2:0:0:0:
469,267,42994,2,0,L|460:327,1,42.5,10|8,2:0|2:0,2:0:0:0:
296,168,43170,6,0,P|300:123|307:75,1,85,4|2,1:2|1:2,2:0:0:0:
355,354,43523,2,0,P|297:370|222:336,1,127.5,10|8,2:0|2:0,2:0:0:0:
230,326,43876,2,0,P|185:333|129:350,1,85,0|0,1:0|1:0,2:0:0:0:
16,384,44229,2,0,L|26:280,1,85,10|0,2:0|2:0,2:0:0:0:
98,148,44582,2,0,L|106:232,1,85,2|0,1:2|1:0,2:0:0:0:
325,318,44935,2,0,P|311:265|228:233,1,127.5,10|8,2:0|2:0,2:0:0:0:
225,250,45288,5,2,1:2:0:0:
202,262,45376,1,0,2:0:0:0:
176,260,45464,1,8,2:0:0:0:
133,229,45553,5,8,2:0:0:0:
88,208,45641,1,10,1:2:0:0:
42,224,45729,1,8,2:0:0:0:
20,269,45817,2,0,L|29:329,1,42.5,8|8,2:0|2:0,2:0:0:0:
189,172,45994,6,0,P|181:127|171:66,1,85,6|0,1:2|1:0,2:0:0:0:
368,186,46347,2,0,P|360:227|353:269,1,85,10|0,2:0|1:0,2:0:0:0:
340,286,46611,1,8,2:0:0:0:
340,286,46700,1,0,1:0:0:0:
281,141,46876,1,2,1:2:0:0:
386,35,47053,2,0,P|437:37|490:57,1,85,10|0,2:0|1:0,2:0:0:0:
269,150,47406,6,0,P|262:104|256:47,1,85,0|0,1:0|1:0,2:0:0:0:
131,226,47758,2,0,P|138:180|144:123,1,85,8|6,2:0|2:0,2:0:0:0:
100,37,48111,1,2,1:2:0:0:
158,132,48288,1,4,1:2:0:0:
29,116,48464,1,12,2:0:0:0:
232,38,48641,1,2,1:2:0:0:
278,284,48817,6,0,B|185:255|200:336|102:317,1,170,2|10,1:2|2:0,2:0:0:0:
289,180,49347,1,2,1:2:0:0:
298,174,49435,1,8,2:0:0:0:
308,172,49523,1,0,1:0:0:0:
380,253,49700,1,2,1:2:0:0:
118,319,49876,6,0,P|129:232|136:149,1,170,10|0,2:0|1:0,2:0:0:0:
73,52,50406,1,0,1:0:0:0:
217,126,50582,1,8,2:0:0:0:
53,178,50758,2,0,L|44:237,1,42.5,0|8,1:0|2:0,2:0:0:0:
202,307,50935,6,0,P|206:275|210:229,1,59.4999999999999,2|8,1:2|2:3,2:0:0:0:
338,215,51288,2,0,P|332:172|327:130,1,59.4999999999999,4|0,1:3|2:0,2:0:0:0:
203,0,51641,6,0,P|244:43|365:16,1,170,4|2,1:0|3:2,2:0:0:0:
474,179,52170,1,0,1:0:0:0:
486,181,52258,1,0,2:0:0:0:
497,174,52347,6,0,P|456:131|335:158,1,170,10|2,3:2|3:2,2:0:0:0:
279,261,52876,2,0,L|287:310,1,42.5,8|8,2:0|2:0,2:0:0:0:
305,384,53053,1,2,1:2:0:0:
405,212,53229,2,0,P|395:283|391:321,1,85,8|0,2:0|3:0,2:0:0:0:
331,143,53582,1,0,1:0:0:0:
402,310,53758,5,10,3:2:0:0:
490,101,53935,1,0,1:0:0:0:
290,245,54111,1,10,3:2:0:0:
168,47,54288,1,8,2:0:0:0:
175,33,54376,1,8,2:0:0:0:
189,26,54464,6,0,P|204:74|210:124,1,85,4|0,1:0|2:0,2:0:0:0:
63,302,54817,2,0,L|71:201,1,85,8|0,2:0|1:0,2:0:0:0:
60,194,55082,1,8,2:0:0:0:
60,194,55170,1,2,1:2:0:0:
191,244,55347,1,0,1:0:0:0:
125,370,55523,1,8,2:0:0:0:
176,139,55700,1,0,2:0:0:0:
319,220,55876,6,0,L|325:304,1,85,2|0,1:2|1:0,2:0:0:0:
165,125,56229,2,0,L|171:40,1,85,8|2,2:0|1:2,2:0:0:0:
184,30,56494,1,8,2:0:0:0:
184,30,56582,1,0,1:0:0:0:
332,115,56758,1,0,1:0:0:0:
175,258,56935,2,0,P|103:250|39:244,1,127.5,14|0,2:0|2:0,2:0:0:0:
35,258,57288,5,6,1:2:0:0:
73,146,57464,1,8,2:0:0:0:
192,350,57641,1,10,1:2:0:0:
17,264,57817,1,10,2:0:0:0:
266,108,57994,1,8,1:2:0:0:
191,364,58170,1,10,2:0:0:0:
67,47,58347,1,8,1:2:0:0:
360,228,58523,1,10,2:0:0:0:
169,271,58700,5,12,1:2:0:0:
156,251,58788,1,8,2:0:0:0:
163,212,58876,1,8,2:0:0:0:
204,180,58964,1,8,2:0:0:0:
262,189,59053,5,10,1:2:0:0:
304,166,59141,1,8,2:0:0:0:
306,130,59229,1,10,2:0:0:0:
295,106,59317,1,8,2:0:0:0:
278,95,59406,2,0,L|233:104,1,42.5,12|0,1:2|2:0,2:0:0:0:
344,247,59582,2,0,L|385:238,1,42.5,8|8,2:0|2:0,2:0:0:0:
512,60,59758,5,10,1:2:0:0:
505,24,59847,1,8,2:0:0:0:
459,0,59935,1,8,2:0:0:0:
404,13,60023,1,8,2:0:0:0:
357,71,60111,6,0,P|417:61|512:53,1,140.25,4|0,1:0|2:0,2:0:0:0:
512,60,60464,1,10,2:0:0:0:
268,225,60641,1,2,1:2:0:0:
258,222,60729,1,8,2:0:0:0:
252,214,60817,2,0,L|239:107,1,93.5,0|0,1:0|1:0,2:0:0:0:
485,291,61170,2,0,P|454:340|343:347,1,140.25,10|8,2:0|2:0,2:0:0:0:
293,295,61523,6,0,P|251:272|195:264,1,93.5,2|0,1:2|1:0,2:0:0:0:
28,178,61876,2,0,L|139:156,1,93.5,10|2,2:0|1:2,2:0:0:0:
193,105,62141,1,8,2:0:0:0:
210,108,62229,2,0,L|200:163,1,46.75,0|8,1:0|2:0,2:0:0:0:
178,270,62406,1,0,1:0:0:0:
113,73,62582,1,10,2:0:0:0:
340,14,62758,1,0,1:0:0:0:
353,12,62847,1,8,2:0:0:0:
362,20,62935,6,0,P|376:88|390:172,1,140.25,2|0,1:2|2:0,2:0:0:0:
381,172,63288,1,8,2:0:0:0:
472,54,63464,2,0,P|466:77|462:106,1,46.75,2|8,1:2|2:0,2:0:0:0:
435,242,63641,1,0,1:0:0:0:
291,147,63817,1,0,1:0:0:0:
451,248,63994,1,8,2:0:0:0:
277,304,64170,5,2,1:2:0:0:
270,310,64258,1,8,2:0:0:0:
268,321,64347,2,0,P|272:346|278:369,1,46.75,2|8,1:2|2:0,2:0:0:0:
207,223,64523,2,0,P|201:255|190:308,1,46.75,0|0,1:0|2:0,2:0:0:0:
159,361,64700,6,0,P|111:366|54:335,1,93.5,8|2,2:0|1:2,2:0:0:0:
23,264,64964,1,8,2:0:0:0:
40,256,65053,2,0,L|36:200,1,46.75,2|8,1:2|2:0,2:0:0:0:
70,127,65229,1,0,1:0:0:0:
125,277,65406,1,10,2:0:0:0:
176,48,65582,1,8,2:0:0:0:
217,34,65670,1,8,2:0:0:0:
257,61,65758,6,0,P|306:71|367:79,1,93.5,6|0,1:2|1:0,2:0:0:0:
470,40,66111,1,10,2:0:0:0:
335,171,66288,1,2,1:2:0:0:
335,185,66376,1,8,2:0:0:0:
343,197,66464,1,0,1:0:0:0:
435,126,66641,1,2,1:2:0:0:
331,289,66817,1,10,2:0:0:0:
157,134,66994,1,2,1:2:0:0:
145,147,67082,1,8,2:0:0:0:
152,163,67170,6,0,P|171:235|188:338,1,140.25,0|0,1:0|2:0,2:0:0:0:
175,319,67523,1,10,2:0:0:0:
272,204,67700,2,0,P|263:239|260:269,1,46.75,2|8,1:2|2:0,2:0:0:0:
244,381,67876,1,0,1:0:0:0:
86,295,68053,1,2,1:2:0:0:
311,323,68229,2,0,P|364:333|411:303,1,93.5,8|2,2:0|1:2,2:0:0:0:
430,166,68494,1,8,2:0:0:0:
422,145,68582,6,0,B|339:132|339:132|330:133|330:133|231:120,1,187,2|8,1:2|2:0,2:0:0:0:
41,187,69111,1,2,1:2:0:0:
50,197,69200,1,8,2:0:0:0:
64,203,69288,2,0,B|88:195|106:177|106:177|118:92|45:49,1,187,2|8,1:2|2:0,2:0:0:0:
95,303,69817,1,0,1:0:0:0:
100,319,69906,1,8,2:0:0:0:
98,331,69994,6,0,B|175:305|159:378|264:341,1,140.25,6|0,1:2|2:0,2:0:0:0:
296,292,70347,2,0,L|285:194,1,93.5,10|0,2:0|2:0,2:0:0:0:
352,125,70611,1,8,2:0:0:0:
365,138,70700,2,0,L|371:196,1,46.75,14|8,1:2|2:0,2:0:0:0:
155,239,70876,5,8,2:0:0:0:
156,191,70964,1,8,2:0:0:0:
130,155,71053,1,10,1:2:0:0:
85,144,71141,1,8,2:0:0:0:
44,165,71229,1,8,2:0:0:0:
26,206,71317,1,8,2:0:0:0:
38,250,71406,6,0,L|140:260,1,93.5,4|0,1:0|1:0,2:0:0:0:
287,288,71758,1,10,2:0:0:0:
237,94,71935,1,2,1:2:0:0:
225,86,72023,1,8,2:0:0:0:
208,89,72111,2,0,L|218:161,1,46.75,0|8,1:0|2:0,2:0:0:0:
329,196,72288,2,0,L|322:149,1,46.75,2|0,1:2|2:0,2:0:0:0:
271,11,72464,1,8,2:0:0:0:
121,170,72641,1,2,1:2:0:0:
112,176,72729,1,8,2:0:0:0:
113,191,72817,6,0,P|140:219|215:210,1,93.5,0|0,1:0|1:0,2:0:0:0:
110,34,73170,2,0,P|59:47|9:56,1,93.5,10|2,2:0|1:2,2:0:0:0:
217,108,73523,1,0,1:0:0:0:
229,114,73611,1,8,2:0:0:0:
244,115,73700,1,0,1:0:0:0:
337,30,73876,1,8,2:0:0:0:
496,122,74053,1,2,1:2:0:0:
506,132,74141,1,8,2:0:0:0:
510,145,74229,6,0,P|506:197|499:259,1,93.5,2|0,1:2|1:0,2:0:0:0:
343,358,74582,2,0,P|338:311|334:264,1,93.5,10|2,2:0|1:2,2:0:0:0:
201,126,74935,5,0,1:0:0:0:
183,164,75023,1,8,2:0:0:0:
195,203,75111,1,2,1:2:0:0:
213,241,75200,1,0,2:0:0:0:
201,279,75288,1,8,2:0:0:0:
69,378,75464,1,2,1:2:0:0:
57,372,75553,1,8,2:0:0:0:
50,358,75641,6,0,L|41:251,1,93.5,0|2,1:0|1:2,2:0:0:0:
0,102,75994,2,0,B|98:81|79:154|185:137,1,187,10|0,2:0|1:0,2:0:0:0:
259,71,76435,1,8,2:0:0:0:
276,60,76523,1,0,1:0:0:0:
297,59,76611,1,0,2:0:0:0:
315,63,76700,2,0,L|325:123,1,46.75,8|0,2:0|2:0,2:0:0:0:
374,209,76876,1,10,2:0:0:0:
376,228,76964,1,8,2:0:0:0:
364,244,77053,6,0,P|309:241|246:233,1,93.5,4|0,1:2|1:0,2:0:0:0:
18,334,77406,6,0,P|64:338|111:341,1,93.5,10|2,2:0|1:2,2:0:0:0:
174,287,77670,1,8,2:0:0:0:
190,278,77758,2,0,P|183:251|179:225,1,46.75,0|8,1:0|2:0,2:0:0:0:
96,162,77935,2,0,P|89:184|85:207,1,46.75,2|0,1:2|2:0,2:0:0:0:
279,117,78111,6,0,B|223:93|223:93|209:92|209:92|143:68,1,140.25,10|8,2:0|2:0,2:0:0:0:
129,78,78464,1,0,1:0:0:0:
349,24,78641,1,0,1:0:0:0:
353,38,78729,1,0,2:0:0:0:
363,51,78817,2,0,P|407:43|463:31,1,93.5,8|2,2:0|1:2,2:0:0:0:
475,50,79082,5,8,2:0:0:0:
462,85,79170,1,2,1:2:0:0:
452,121,79258,1,8,2:0:0:0:
446,158,79347,1,0,1:0:0:0:
463,302,79523,1,8,2:0:0:0:
329,181,79700,1,2,1:2:0:0:
157,200,79876,5,2,1:2:0:0:
359,56,80053,1,0,1:0:0:0:
307,293,80229,1,8,2:0:0:0:
141,187,80406,2,0,L|151:138,1,46.75,2|0,2:0|2:0,2:0:0:0:
217,35,80582,5,2,1:2:0:0:
244,18,80670,1,0,2:0:0:0:
277,17,80758,1,0,1:0:0:0:
314,45,80847,1,0,2:0:0:0:
359,56,80935,1,12,2:0:0:0:
405,48,81023,1,0,1:0:0:0:
444,23,81111,2,0,L|432:77,1,46.75,0|0,1:0|1:0,2:0:0:0:
476,238,81288,2,0,P|443:234|413:223,1,46.75,8|8,1:2|2:0,2:0:0:0:
288,171,81464,5,0,2:0:0:0:
261,173,81553,1,8,2:0:0:0:
233,206,81641,1,8,1:3:0:0:
228,260,81729,1,0,2:0:0:0:
247,313,81817,1,8,2:0:0:0:
212,380,81906,1,8,2:0:0:0:
131,376,81994,6,0,L|116:292,3,46.75,14|8|8|8,1:2|2:0|2:0|2:0,2:0:0:0:
23,273,82347,1,10,1:2:0:0:
60,281,82435,1,8,2:0:0:0:
98,255,82523,1,8,2:0:0:0:
95,195,82611,1,8,2:0:0:0:
19,171,82700,6,0,L|53:351,1,153,4|0,1:0|2:0,2:0:0:0:
34,354,83053,1,10,2:0:0:0:
201,166,83229,1,0,1:0:0:0:
206,143,83317,1,8,2:0:0:0:
190,123,83406,2,0,P|141:118|81:114,1,102,0|0,1:0|1:0,2:0:0:0:
228,259,83758,1,10,2:0:0:0:
387,152,83935,1,0,1:0:0:0:
268,5,84111,6,0,P|192:15|101:23,1,153,2|0,1:2|2:0,2:0:0:0:
98,8,84464,1,10,2:0:0:0:
37,177,84641,1,2,1:2:0:0:
37,196,84729,1,8,2:0:0:0:
48,214,84817,2,0,P|77:212|100:208,1,51,0|8,1:0|2:0,2:0:0:0:
216,172,84994,1,0,1:0:0:0:
155,378,85170,2,0,P|86:363|19:358,1,102,10|0,2:0|1:0,2:0:0:0:
179,285,85435,1,8,2:0:0:0:
193,299,85523,6,0,P|262:284|329:279,1,102,2|0,1:2|1:0,2:0:0:0:
446,318,85876,1,8,2:0:0:0:
384,111,86053,1,2,1:2:0:0:
370,119,86141,1,8,2:0:0:0:
362,131,86229,2,0,L|379:270,1,102,0|0,1:0|1:0,2:0:0:0:
464,56,86582,2,0,P|419:18|342:31,1,102,8|2,2:0|1:2,2:0:0:0:
284,69,86847,1,8,2:0:0:0:
282,88,86935,6,0,B|234:105|234:105|169:83,1,102,2|0,1:2|1:0,2:0:0:0:
51,18,87288,1,8,2:0:0:0:
170,185,87464,1,2,1:2:0:0:
191,224,87553,1,8,2:0:0:0:
187,269,87641,1,2,1:2:0:0:
158,304,87729,1,8,2:0:0:0:
115,317,87817,2,0,L|65:304,1,51,0|2,1:0|2:0,2:0:0:0:
64,145,87994,2,0,P|69:177|81:206,1,51,8|0,2:0|2:0,2:0:0:0:
288,233,88170,5,10,2:0:0:0:
303,227,88258,1,8,2:0:0:0:
313,215,88347,2,0,L|332:70,1,102,6|0,1:2|1:0,2:0:0:0:
450,6,88700,2,0,L|436:107,1,102,8|0,2:0|1:2,2:0:0:0:
485,213,88964,1,8,2:0:0:0:
476,194,89053,2,0,P|447:192|410:208,1,51,2|8,1:2|2:0,2:0:0:0:
329,304,89229,2,0,P|300:306|263:290,1,51,0|2,1:0|2:0,2:0:0:0:
171,181,89406,1,8,2:0:0:0:
266,47,89582,1,2,1:2:0:0:
289,34,89670,1,8,2:0:0:0:
321,36,89758,6,0,P|371:48|438:52,1,102,2|0,1:2|1:0,2:0:0:0:
151,169,90111,2,0,L|163:293,1,102,10|2,2:0|1:2,2:0:0:0:
149,291,90376,1,8,2:0:0:0:
149,291,90464,1,0,1:0:0:0:
56,184,90641,1,2,1:2:0:0:
242,248,90817,2,0,P|269:246|302:238,1,51,8|0,2:0|2:0,2:0:0:0:
414,172,90994,1,2,1:2:0:0:
397,160,91082,1,8,2:0:0:0:
376,161,91170,5,6,1:2:0:0:
327,327,91347,1,0,1:0:0:0:
274,154,91523,1,8,2:0:0:0:
369,249,91700,2,0,P|396:251|429:259,1,51,2|8,1:2|2:0,2:0:0:0:
243,384,91876,6,0,B|234:335|234:335|235:294|235:294|222:207,1,153,2|0,1:2|2:0,2:0:0:0:
274,154,92229,1,8,2:0:0:0:
151,294,92406,1,0,1:0:0:0:
124,42,92582,1,12,2:0:0:0:
318,237,92758,1,0,1:0:0:0:
18,198,92935,1,8,2:0:0:0:
249,3,93111,6,0,P|240:30|234:62,1,51,0|8,1:0|2:0,2:0:0:0:
318,237,93288,1,10,1:2:0:0:
331,189,93376,1,8,2:3:0:0:
303,148,93464,1,8,2:3:0:0:
254,144,93553,1,8,2:3:0:0:
219,178,93641,5,0,1:0:0:0:
227,197,93729,1,4,2:3:0:0:
228,217,93817,1,4,2:3:0:0:
220,236,93906,1,4,2:3:0:0:
206,249,93994,6,0,P|144:233|64:215,1,127.5,4|0,1:0|2:0,2:0:0:0:
82,218,94347,1,2,1:2:0:0:
85,110,94523,2,0,P|134:97|199:82,1,85,2|0,2:0|1:0,2:0:0:0:
86,318,94876,2,0,P|36:305|-28:290,1,85,2|0,2:0|1:0,2:0:0:0:
255,127,95229,1,2,2:0:0:0:
267,123,95317,1,0,2:0:0:0:
275,128,95406,6,0,P|280:189|286:271,1,127.5,0|0,1:0|2:0,2:0:0:0:
284,255,95758,1,0,1:0:0:0:
377,200,95935,1,2,2:0:0:0:
429,277,96111,2,0,P|477:288|512:291,1,85,2|0,1:2|2:0,2:0:0:0:
263,371,96464,2,0,P|311:360|346:357,1,85,0|2,1:0|2:0,2:0:0:0:
114,384,96817,6,0,P|109:320|104:256,1,127.5,2|0,1:2|2:0,2:0:0:0:
104,256,97170,1,2,1:2:0:0:
22,162,97347,2,0,P|63:178|116:172,1,85,2|0,2:0|1:0,2:0:0:0:
234,64,97700,2,0,L|131:41,1,85,2|0,2:0|1:0,2:0:0:0:
291,177,98053,1,2,2:0:0:0:
303,167,98141,1,0,2:0:0:0:
308,152,98229,6,0,L|436:129,1,127.5,14|0,2:0|2:0,2:0:0:0:
433,129,98582,2,0,P|413:126|380:118,1,42.5,2|0,1:2|2:0,2:0:0:0:
309,20,98758,1,14,2:0:0:0:
364,255,98935,1,0,1:0:0:0:
196,306,99111,6,0,B|184:290|182:270|182:270|218:244|290:260,1,127.5,14|0,2:0|2:0,2:0:0:0:
282,276,99464,2,0,P|277:298|275:322,1,42.5,10|8,2:0|2:0,2:0:0:0:
124,216,99641,5,4,1:0:0:0:
234,163,99817,2,0,B|161:173|196:115|81:133,1,127.5,0|0,1:0|2:0,2:0:0:0:
97,138,100170,1,0,1:0:0:0:
240,0,100347,2,0,P|230:46|226:85,1,85,8|2,3:2|2:0,2:0:0:0:
398,184,100700,2,0,P|391:142|347:116,1,85,0|8,3:0|2:0,2:0:0:0:
337,123,100964,1,8,2:0:0:0:
337,123,101053,5,2,1:2:0:0:
311,285,101229,2,0,P|370:271|451:264,1,127.5,8|0,2:0|2:0,2:0:0:0:
445,278,101582,2,0,P|437:311|434:332,2,42.5,0|0|10,1:0|2:0|3:2,2:0:0:0:
301,243,101935,2,0,P|309:276|312:297,1,42.5,8|0,2:0|2:0,2:0:0:0:
289,377,102111,1,10,3:2:0:0:
190,318,102288,1,8,2:0:0:0:
121,359,102464,5,2,2:0:0:0:
93,329,103700,6,0,L|70:320,3,14.1666666666667,2|2|2|2,2:0|2:0|2:0|2:0,2:0:0:0:
219,284,104935,5,10,2:0:0:0:
240,261,105023,1,8,2:0:0:0:
270,248,105111,1,10,2:0:0:0:
301,249,105200,1,8,2:0:0:0:
330,263,105288,2,0,P|370:268|425:231,1,76.5000000000001,4|0,1:0|1:0,2:0:0:0:
341,59,105641,2,0,P|349:119|357:199,1,114.75,8|8,2:0|2:0,2:0:0:0:
355,173,105994,1,0,1:0:0:0:
433,89,106170,1,2,1:2:0:0:
257,39,106347,1,10,2:0:0:0:
446,95,106523,1,2,1:2:0:0:
247,179,106700,6,0,P|227:219|220:266,1,76.5000000000001,2|0,1:2|1:0,2:0:0:0:
390,342,107053,2,0,L|376:254,1,76.5000000000001,10|0,2:0|1:0,2:0:0:0:
145,304,107406,2,0,P|212:345|301:295,1,153,2|10,1:2|2:0,2:0:0:0:
114,201,107935,1,4,2:3:0:0:
103,206,108023,1,4,2:3:0:0:
91,210,108111,5,14,2:0:0:0:
253,154,108285,1,0,1:0:0:0:
58,100,108459,1,8,2:0:0:0:
220,249,108634,1,2,1:2:0:0:
156,15,108808,1,10,2:0:0:0:
6,255,108983,1,0,1:0:0:0:
311,85,109157,1,8,2:0:0:0:
44,10,109331,1,4,2:3:0:0:
32,6,109419,1,4,2:3:0:0:
21,2,109506,5,14,1:2:0:0:
219,73,109682,1,8,2:0:0:0:
173,166,109858,1,10,1:2:0:0:
215,57,110035,1,8,2:0:0:0:
270,229,110211,1,10,1:2:0:0:
137,86,110390,2,0,P|112:92|83:96,1,38.25,8|8,2:0|2:0,2:0:0:0:
315,162,110570,2,0,P|333:165|352:170,1,38.25,10|8,1:2|2:0,2:0:0:0:
216,349,110749,1,8,2:0:0:0:
200,339,110839,1,8,2:0:0:0:
192,322,110929,6,0,P|136:326|55:341,1,114.749996498108,4|0,1:0|2:0,2:0:0:0:
58,354,111281,1,8,2:0:0:0:
200,218,111458,5,2,1:2:0:0:
229,243,111546,1,8,2:0:0:0:
266,241,111634,1,2,1:2:0:0:
303,235,111723,1,8,2:0:0:0:
334,253,111811,1,0,1:0:0:0:
257,52,111987,2,0,P|250:92|246:138,1,85,8|2,2:0|1:2,2:0:0:0:
266,242,112252,1,8,2:0:0:0:
276,262,112340,6,0,P|232:292|170:293,1,85,2|0,1:2|1:0,2:0:0:0:
86,239,112693,1,10,2:0:0:0:
130,124,112870,1,2,1:2:0:0:
141,130,112958,1,8,2:0:0:0:
152,141,113046,2,0,P|160:162|165:183,1,42.5,0|8,1:0|2:0,2:0:0:0:
201,297,113223,2,0,P|192:318|187:339,1,42.5,2|0,2:0|2:0,2:0:0:0:
267,231,113399,1,8,2:0:0:0:
43,321,113576,1,2,1:2:0:0:
24,318,113664,1,8,2:0:0:0:
10,307,113752,6,0,L|0:195,1,85,0|0,1:0|1:0,2:0:0:0:
137,39,114105,2,0,L|129:123,1,85,8|0,2:0|1:0,2:0:0:0:
142,146,114370,1,8,2:0:0:0:
171,141,114458,1,0,1:0:0:0:
200,137,114546,1,8,2:0:0:0:
230,133,114634,1,2,1:2:0:0:
420,218,114811,2,0,P|376:220|285:245,1,127.5,10|8,2:0|2:0,2:0:0:0:
287,259,115164,5,0,1:0:0:0:
345,126,115340,1,0,1:0:0:0:
420,218,115517,1,8,2:0:0:0:
276,384,115693,5,0,1:0:0:0:
263,357,115781,1,8,2:0:0:0:
241,337,115870,1,2,1:2:0:0:
213,327,115958,1,8,2:0:0:0:
183,329,116046,2,0,P|158:333|127:344,1,42.5,0|0,1:0|2:0,2:0:0:0:
8,384,116223,2,0,L|20:332,1,42.5,10|0,2:0|2:0,2:0:0:0:
61,205,116399,1,0,3:0:0:0:
281,264,116576,6,0,B|298:251|303:224|303:224|269:170|172:196,1,170,0|8,1:0|2:0,2:0:0:0:
87,39,117105,1,2,1:2:0:0:
121,42,117193,1,8,2:0:0:0:
142,67,117281,1,2,1:2:0:0:
163,96,117370,1,8,2:0:0:0:
194,103,117458,1,0,1:0:0:0:
399,73,117634,2,0,P|366:35|318:28,1,85,8|2,2:0|1:2,2:0:0:0:
337,162,117899,1,8,2:0:0:0:
346,179,117987,6,0,P|392:164|492:155,1,127.5,2|0,1:2|2:0,2:0:0:0:
481,168,118340,1,10,2:0:0:0:
301,259,118517,1,2,1:2:0:0:
285,253,118605,1,8,2:0:0:0:
274,240,118693,2,0,P|264:222|258:201,1,42.5,0|8,1:0|2:0,2:0:0:0:
279,90,118870,1,2,1:2:0:0:
159,196,119046,1,8,2:0:0:0:
114,0,119223,1,2,1:2:0:0:
130,6,119311,1,8,2:0:0:0:
141,19,119399,6,0,P|163:60|177:107,1,85,2|0,2:0|1:0,2:0:0:0:
124,291,119752,1,8,2:0:0:0:
80,131,119929,1,2,1:2:0:0:
65,122,120017,1,8,2:0:0:0:
45,120,120105,2,0,L|-4:129,1,42.5,2|8,1:2|2:0,2:0:0:0:
174,202,120281,2,0,L|215:194,1,42.5,0|0,1:0|2:0,2:0:0:0:
37,309,120458,1,8,2:0:0:0:
211,384,120634,1,0,1:0:0:0:
227,379,120723,1,8,2:0:0:0:
238,364,120811,6,0,P|234:318|228:274,1,85,2|0,1:2|1:0,2:0:0:0:
356,158,121164,2,0,P|350:200|346:242,1,85,10|0,2:0|1:0,2:0:0:0:
386,315,121429,1,8,2:0:0:0:
396,328,121517,6,0,L|442:323,1,42.5,2|8,1:2|2:0,2:0:0:0:
271,274,121693,2,0,L|228:278,1,42.5,0|0,1:0|2:0,2:0:0:0:
367,145,121870,1,10,2:0:0:0:
140,176,122046,1,0,3:0:0:0:
126,171,122134,1,0,2:0:0:0:
117,160,122223,6,0,B|149:67|149:67|196:57|224:98,1,170,0|10,1:0|2:0,2:0:0:0:
177,257,122752,5,0,1:0:0:0:
141,272,122840,1,8,2:0:0:0:
106,257,122928,1,2,1:2:0:0:
71,241,123017,1,8,2:0:0:0:
36,257,123105,1,0,1:0:0:0:
256,320,123281,2,0,P|279:275|275:232,1,85,10|0,2:0|1:0,2:0:0:0:
218,134,123546,1,8,2:0:0:0:
229,148,123634,6,0,B|319:112|312:178|412:142,1,170,0|8,1:0|2:0,2:0:0:0:
405,14,124164,1,2,1:2:0:0:
387,9,124252,1,8,2:0:0:0:
368,18,124340,2,0,P|360:44|358:70,1,42.5,2|8,1:2|2:0,2:0:0:0:
477,195,124517,2,0,P|485:169|487:143,1,42.5,0|2,1:0|2:0,2:0:0:0:
360,192,124693,2,0,P|378:242|394:334,1,127.5,8|8,2:0|2:0,2:0:0:0:
382,325,125046,5,2,1:2:0:0:
477,195,125223,1,0,1:0:0:0:
286,292,125399,2,0,L|189:269,1,85,10|2,2:0|1:2,2:0:0:0:
187,253,125664,1,8,2:0:0:0:
159,242,125752,1,0,1:0:0:0:
130,245,125840,1,8,2:0:0:0:
104,260,125929,2,0,P|107:288|115:332,1,42.5,2|0,1:2|2:0,2:0:0:0:
265,199,126105,2,0,P|271:158|276:88,1,85,10|0,2:0|1:0,2:0:0:0:
264,99,126370,1,8,2:0:0:0:
264,99,126458,5,0,1:0:0:0:
366,174,126634,1,0,1:0:0:0:
435,23,126811,2,0,P|438:65|444:107,1,85,8|0,2:0|1:0,2:0:0:0:
465,128,127076,1,8,2:0:0:0:
467,157,127164,1,2,1:2:0:0:
463,187,127252,1,8,2:0:0:0:
455,215,127340,1,0,1:0:0:0:
352,280,127517,2,0,P|370:313|385:378,1,85,10|2,3:2|2:0,2:0:0:0:
285,201,127870,6,0,P|330:187|373:170,1,85,0|2,1:0|1:2,2:0:0:0:
261,300,128223,2,0,P|202:273|117:261,1,127.5,10|8,2:0|2:0,2:0:0:0:
71,187,128576,2,0,L|161:160,1,85,0|0,1:0|1:0,2:0:0:0:
228,54,128928,2,0,P|270:88|373:85,1,127.5,10|0,2:0|2:0,2:0:0:0:
356,78,129281,5,2,1:2:0:0:
277,190,129458,1,0,1:0:0:0:
452,81,129634,2,0,P|443:37|413:3,1,85,10|2,2:0|1:2,2:0:0:0:
402,193,129987,2,0,P|448:181|493:179,1,85,4|2,1:2|1:2,2:0:0:0:
383,299,130340,2,0,P|352:284|327:278,1,42.5,8|0,2:0|2:0,2:0:0:0:
187,318,130517,1,2,2:0:0:0:
212,328,130605,1,0,2:0:0:0:
243,311,130693,6,0,B|222:211|284:241|245:126,1,170,4|10,1:2|2:0,2:0:0:0:
179,39,131223,1,0,1:0:0:0:
335,111,131399,1,0,1:0:0:0:
117,158,131576,1,0,1:0:0:0:
299,22,131752,6,0,P|333:14|354:18,1,42.5,10|0,2:0|1:0,2:0:0:0:
119,248,131929,2,0,P|97:247|77:240,1,42.5,0|0,1:0|2:0,2:0:0:0:
55,90,132105,5,6,1:2:0:0:
71,74,132193,1,8,2:0:0:0:
99,62,132281,1,8,2:0:0:0:
139,67,132370,1,8,2:0:0:0:
182,90,132458,1,2,1:2:0:0:
243,94,132546,1,4,2:3:0:0:
303,65,132634,2,0,L|299:17,1,42.5,12|4,2:3|2:3,2:0:0:0:
218,256,132811,5,2,1:2:0:0:
215,269,132899,1,8,2:0:0:0:
220,289,132987,1,4,2:3:0:0:
252,314,133076,1,4,2:3:0:0:
294,308,133164,1,2,1:2:0:0:
319,276,133252,1,4,2:3:0:0:
359,245,133340,1,4,2:3:0:0:
413,253,133428,1,4,2:3:0:0:
450,306,133517,6,0,P|436:223|430:130,1,170,6|10,1:2|2:0,2:0:0:0:
509,25,134046,1,2,1:2:0:0:
512,36,134134,1,8,2:0:0:0:
510,49,134223,2,0,P|465:56|416:29,1,85,0|2,1:0|1:2,2:0:0:0:
167,23,134576,2,0,B|215:11|215:11|239:11|239:11|325:-6,1,127.5,10|0,2:0|1:0,2:0:0:0:
313,12,134928,6,0,P|298:60|294:102,1,85,0|0,1:0|1:0,2:0:0:0:
320,253,135281,1,8,2:0:0:0:
209,123,135458,2,0,P|222:153|238:174,1,42.5,2|8,1:2|2:0,2:0:0:0:
331,262,135634,2,0,L|378:246,1,42.5,2|8,1:2|2:0,2:0:0:0:
206,255,135811,1,0,1:0:0:0:
189,260,135899,1,2,2:0:0:0:
173,265,135987,1,12,2:0:0:0:
298,355,136164,1,2,2:0:0:0:
47,382,136340,6,0,P|53:337|58:292,1,85,6|0,1:2|1:0,2:0:0:0:
30,160,136693,2,0,B|124:130|95:205|216:165,1,170,10|0,2:0|1:0,2:0:0:0:
302,123,137223,1,2,1:2:0:0:
214,208,137399,2,0,P|200:190|193:159,1,42.5,14|0,2:0|1:0,2:0:0:0:
213,39,137576,5,0,1:0:0:0:
222,44,137664,1,0,1:0:0:0:
223,62,137752,1,8,1:2:0:0:
205,80,137840,1,4,2:3:0:0:
170,88,137929,1,8,2:0:0:0:
131,65,138017,1,4,2:3:0:0:
76,51,138105,2,0,L|18:72,1,42.5,0|8,1:0|2:0,2:0:0:0:
0,197,138281,2,0,L|39:182,1,42.5,8|8,2:3|2:0,2:0:0:0:
198,178,138458,5,2,1:2:0:0:
250,186,138546,1,8,2:0:0:0:
274,220,138634,1,8,2:3:0:0:
271,251,138723,1,8,2:3:0:0:
256,270,138811,1,2,1:2:0:0:
246,284,138899,1,4,2:3:0:0:
247,297,138987,1,4,2:3:0:0:
256,308,139076,1,4,2:3:0:0:
266,308,139164,6,0,L|395:273,1,119,6|2,1:2|2:0,2:0:0:0:
175,0,139870,2,0,L|60:31,1,119,6|2,2:0|2:0,2:0:0:0:
259,141,140576,5,6,2:0:0:0:
232,157,140752,1,4,2:3:0:0:
329,205,140928,1,4,2:3:0:0:
253,24,141105,1,4,2:3:0:0:
168,255,141281,2,0,L|122:265,3,42.5,2|0|4|4,2:0|2:0|2:3|2:3,2:0:0:0:
62,195,141634,5,10,2:0:0:0:
104,185,141723,1,8,2:0:0:0:
147,176,141811,1,8,2:0:0:0:
189,167,141899,1,8,2:0:0:0:
232,157,141987,5,4,1:0:0:0:
141,81,142164,1,0,1:0:0:0:
376,39,142340,2,0,P|368:81|364:137,1,85,8|2,2:0|1:2,2:0:0:0:
378,137,142605,1,8,2:0:0:0:
378,137,142693,1,2,1:2:0:0:
293,12,142870,1,0,1:0:0:0:
486,115,143046,1,8,2:0:0:0:
486,115,143223,1,0,1:0:0:0:
302,288,143399,6,0,P|309:243|312:203,1,85,2|0,1:2|1:0,2:0:0:0:
141,81,143752,2,0,P|179:113|225:114,1,85,8|2,2:0|1:2,2:0:0:0:
228,103,144017,1,8,2:0:0:0:
228,103,144105,1,0,1:0:0:0:
55,149,144281,1,0,1:0:0:0:
190,333,144458,2,0,P|181:277|172:187,1,127.5,14|0,2:0|2:0,2:0:0:0:
183,193,144811,5,6,1:2:0:0:
101,272,144987,1,8,2:0:0:0:
296,223,145164,1,10,1:2:0:0:
141,81,145340,1,10,2:0:0:0:
307,233,145517,1,8,1:2:0:0:
12,141,145693,1,10,2:0:0:0:
283,11,145870,1,8,1:2:0:0:
197,335,146046,2,0,L|192:280,1,42.5,10|0,2:0|2:0,2:0:0:0:
183,193,146223,5,12,1:2:0:0:
181,180,146311,1,8,2:0:0:0:
180,167,146399,1,8,2:0:0:0:
187,151,146487,1,8,2:0:0:0:
206,137,146576,1,10,1:2:0:0:
241,130,146664,1,8,2:0:0:0:
279,147,146752,5,10,2:0:0:0:
335,148,146840,1,8,2:0:0:0:
382,102,146928,1,8,1:2:0:0:
367,32,147017,1,8,2:0:0:0:
291,8,147105,2,0,L|216:24,1,42.5,8|8,2:0|2:0,2:0:0:0:
269,232,147281,2,0,L|344:248,1,42.5,10|8,1:2|2:0,2:0:0:0:
466,131,147458,2,0,P|471:88|467:76,1,42.5,8|8,2:0|2:0,2:0:0:0:
141,84,147634,6,0,P|154:154|168:286,1,187,4|10,1:0|2:0,2:0:0:0:
429,383,148164,1,0,1:2:0:0:
439,376,148252,1,8,2:0:0:0:
445,365,148340,2,0,L|454:264,1,93.5,0|0,1:0|1:0,2:0:0:0:
466,131,148693,1,10,2:0:0:0:
360,318,148870,1,0,1:0:0:0:
241,130,149046,6,0,P|281:98|326:95,1,93.5,2|0,1:2|1:0,2:0:0:0:
216,277,149399,2,0,P|132:251|110:249,1,93.5,10|2,2:0|1:2,2:0:0:0:
78,337,149664,1,8,2:0:0:0:
90,344,149752,2,0,P|100:368|99:394,1,46.75,0|8,1:0|2:0,2:0:0:0:
40,243,149928,2,0,P|41:219|51:198,1,46.75,0|0,1:0|2:0,2:0:0:0:
148,85,150105,2,0,L|161:185,1,93.5,10|2,2:0|1:2,2:0:0:0:
11,73,150370,1,8,2:0:0:0:
1,55,150458,6,0,B|105:58|58:-10|175:0,1,187,2|8,1:2|2:0,2:0:0:0:
386,194,150987,1,2,1:2:0:0:
367,190,151076,1,8,2:0:0:0:
351,179,151164,2,0,P|343:144|343:121,1,46.75,2|0,1:2|2:0,2:0:0:0:
469,61,151340,2,0,L|461:119,1,46.75,0|0,1:0|2:0,2:0:0:0:
433,264,151517,1,8,2:0:0:0:
276,78,151693,5,2,1:2:0:0:
287,63,151781,1,8,2:0:0:0:
301,51,151870,2,0,L|368:46,1,46.75,2|0,1:2|2:0,2:0:0:0:
274,242,152046,2,0,L|227:238,1,46.75,0|0,1:0|2:0,2:0:0:0:
82,223,152223,1,8,2:0:0:0:
88,27,152399,5,2,1:2:0:0:
133,25,152487,1,8,2:0:0:0:
172,50,152576,1,2,1:2:0:0:
189,93,152664,1,8,2:0:0:0:
178,138,152752,2,0,L|131:142,1,46.75,0|2,1:0|2:0,2:0:0:0:
20,318,152928,2,0,L|116:309,1,93.5,8|2,2:0|1:2,2:0:0:0:
274,242,153193,1,8,2:0:0:0:
255,249,153281,6,0,P|245:297|274:368,1,93.5,6|0,1:2|1:0,2:0:0:0:
369,161,153634,2,0,P|379:113|350:42,1,93.5,8|2,2:0|1:2,2:0:0:0:
273,0,153899,1,8,2:0:0:0:
257,15,153987,2,0,P|217:26|198:26,1,46.75,2|8,1:2|2:0,2:0:0:0:
369,70,154164,2,0,P|409:81|428:81,1,46.75,0|2,1:0|2:0,2:0:0:0:
264,156,154340,1,8,2:0:0:0:
35,75,154517,1,2,1:2:0:0:
22,105,154605,1,8,2:0:0:0:
26,137,154693,6,0,P|44:193|56:291,1,140.25,2|0,1:2|2:0,2:0:0:0:
135,369,155046,2,0,L|146:270,1,93.5,10|2,2:0|1:2,2:0:0:0:
165,261,155311,1,8,2:0:0:0:
208,278,155399,1,0,1:0:0:0:
254,278,155487,1,8,2:0:0:0:
298,262,155576,1,2,1:2:0:0:
376,153,155752,1,8,2:0:0:0:
168,6,155928,1,2,1:2:0:0:
149,2,156017,1,0,2:0:0:0:
133,12,156105,6,0,L|144:127,1,93.5,2|0,1:2|1:0,2:0:0:0:
165,261,156458,1,8,2:0:0:0:
257,83,156634,2,0,L|312:52,1,46.75,2|0,1:2|2:0,2:0:0:0:
83,194,156811,5,2,1:2:0:0:
298,262,156987,1,0,1:0:0:0:
153,150,157164,5,12,2:0:0:0:
104,320,157340,1,0,1:0:0:0:
315,138,157517,5,12,2:0:0:0:
370,334,157693,1,0,1:0:0:0:
79,112,157870,5,8,2:0:0:0:
15,335,158046,1,0,1:0:0:0:
247,189,158223,5,14,2:0:0:0:
294,170,158311,1,0,2:0:0:0:
338,185,158399,1,8,2:0:0:0:
360,220,158487,1,10,2:0:0:0:
357,257,158576,1,8,1:2:0:0:
368,287,158664,1,8,2:0:0:0:
392,300,158752,1,6,2:3:0:0:
415,301,158840,1,4,2:3:0:0:
431,284,158928,6,0,P|385:272|295:261,1,136,4|2,1:0|1:2,2:0:0:0:
192,338,159458,2,0,P|234:331|253:331,1,34,2|0,2:0|2:0,2:0:0:0:
313,347,159634,5,0,1:0:0:0:
277,79,159987,5,0,1:0:0:0:
313,347,160340,5,0,1:0:0:0:
277,79,160693,5,0,1:0:0:0:
251,167,160870,1,2,2:0:0:0:
366,42,161046,2,0,P|400:31|443:28,1,68,2|0,1:2|2:0,2:0:0:0:
277,79,161311,1,2,2:0:0:0:
277,79,161399,2,0,P|243:75|211:64,1,68,0|2,1:0|2:0,2:0:0:0:
85,0,161752,6,0,P|104:59|108:146,1,136,2|2,1:2|1:2,2:0:0:0:
62,261,162281,2,0,L|19:268,1,42.5,2|0,2:0|2:0,2:0:0:0:
137,205,162458,2,0,P|186:217|231:222,1,68,0|2,1:0|2:0,2:0:0:0:
313,194,162811,1,4,1:2:0:0:
241,327,162987,1,2,2:0:0:0:
241,327,163076,1,0,2:0:0:0:
241,327,163164,6,0,P|196:329|149:342,1,68,14|0,2:0|1:0,2:0:0:0:
29,384,163517,1,2,1:2:0:0:
349,342,163693,1,14,2:0:0:0:
34,182,164046,1,14,2:0:0:0:
192,56,164390,1,10,2:0:0:0:
205,52,164477,1,8,2:0:0:0:
220,58,164563,6,0,P|218:101|214:144,1,76.4999976654053,4|0,1:0|1:0,2:0:0:0:
366,297,164915,2,0,P|356:223|353:150,1,127.5,8|8,2:0|2:0,2:0:0:0:
366,169,165268,1,0,1:0:0:0:
224,275,165445,1,0,1:0:0:0:
62,189,165621,2,0,P|90:155|132:143,1,85,8|0,2:0|2:0,2:0:0:0:
121,339,165974,6,0,L|31:320,1,76.5000000000001,2|0,1:2|1:0,2:0:0:0:
151,238,166327,2,0,B|239:203|219:283|323:238,1,153,8|2,2:0|1:2,2:0:0:0:
328,164,166768,1,8,2:0:0:0:
314,153,166857,2,0,L|254:170,1,38.25,0|0,1:0|2:0,2:0:0:0:
383,281,167033,2,0,L|419:270,1,38.25,10|0,2:0|2:0,2:0:0:0:
476,99,167210,5,8,2:0:0:0:
450,77,167298,1,8,2:0:0:0:
413,76,167386,2,0,P|367:69|308:56,1,76.5000000000001,6|0,1:2|1:0,2:0:0:0:
101,150,167739,2,0,P|138:142|176:137,1,76.5000000000001,10|2,2:0|1:2,2:0:0:0:
195,148,168004,1,8,2:0:0:0:
195,148,168092,1,0,1:0:0:0:
26,90,168268,2,0,P|21:120|13:154,1,38.25,2|0,1:2|2:0,2:0:0:0:
129,231,168445,2,0,P|133:261|142:295,1,38.25,8|0,2:0|2:0,2:0:0:0:
195,148,168621,1,2,1:2:0:0:
42,325,168798,5,14,1:2:0:0:
221,235,168976,2,0,P|239:237|258:242,1,38.25,8|8,2:0|2:0,2:0:0:0:
22,244,169155,2,0,L|12:187,1,38.25,8|8,1:2|2:0,2:0:0:0:
217,320,169333,2,0,L|210:357,1,38.25,10|8,2:0|2:0,2:0:0:0:
195,148,169512,5,10,1:2:0:0:
215,142,169601,1,8,2:0:0:0:
244,150,169690,1,8,2:0:0:0:
271,172,169780,1,8,2:0:0:0:
288,206,169869,1,10,1:2:0:0:
308,248,169958,1,8,2:0:0:0:
348,278,170048,1,10,2:0:0:0:
400,288,170137,1,8,2:0:0:0:
461,272,170226,6,0,P|467:237|469:201,1,51.0000000000002,4|0,1:0|2:0,2:0:0:0:
409,151,170578,2,0,P|403:116|401:80,1,51.0000000000002,0|0,3:0|2:0,2:0:0:0:
451,23,170931,5,0,3:0:0:0:
470,29,171108,1,2,2:0:0:0:
323,59,171284,1,2,3:2:0:0:
304,65,171461,1,2,2:0:0:0:
285,71,171637,6,0,P|294:116|295:135,1,50.9999999999999,2|0,3:2|2:0,2:0:0:0:
273,209,171990,1,2,3:2:0:0:
213,276,172167,2,0,P|204:321|203:340,1,51.0000000000002,2|0,2:0|3:0,2:0:0:0:
273,209,172520,1,2,2:0:0:0:
192,162,172696,1,2,3:2:0:0:
123,269,172873,5,0,1:0:0:0:
45,136,173049,2,0,P|70:122|100:117,1,51.0000000000002,0|0,1:0|2:0,2:0:0:0:
254,88,173402,2,0,P|229:74|199:69,1,51.0000000000002,0|0,3:0|2:0,2:0:0:0:
103,30,173755,5,0,3:0:0:0:
121,24,173931,1,2,2:0:0:0:
342,64,174108,1,2,3:2:0:0:
361,71,174284,1,2,2:0:0:0:
380,78,174461,6,0,P|386:108|388:149,1,51.0000000000002,2|0,3:2|2:0,2:0:0:0:
394,231,174814,1,2,3:2:0:0:
483,145,174990,2,0,P|477:175|475:216,1,51.0000000000002,2|0,2:0|3:0,2:0:0:0:
476,302,175343,1,2,2:0:0:0:
394,231,175520,1,2,3:2:0:0:
326,368,175696,1,0,1:0:0:0:
240,266,175873,6,0,L|312:275,1,51.0000000000002,0|0,1:0|2:0,2:0:0:0:
184,350,176226,2,0,L|112:359,1,51.0000000000002,0|2,3:0|2:0,2:0:0:0:
58,192,176578,6,0,P|113:198|148:276,1,136,2|0,3:2|3:0,2:0:0:0:
149,263,177108,1,2,2:0:0:0:
358,198,177284,6,0,P|290:188|220:166,1,136,2|2,3:2|3:2,2:0:0:0:
116,92,177814,2,0,P|161:86|170:84,1,34,2|0,2:0|2:0,2:0:0:0:
269,21,177990,2,0,P|291:47|287:97,1,68,4|2,3:2|2:0,2:0:0:0:
225,168,178343,1,0,1:0:0:0:
225,168,178516,1,2,2:0:0:0:
117,7,178689,5,4,1:0:0:0:
21,59,178865,2,0,P|30:123|38:216,1,153,0|0,1:0|2:0,2:0:0:0:
36,296,179218,1,2,1:2:0:0:
116,92,179394,5,10,2:0:0:0:
323,180,179571,1,0,1:0:0:0:
36,296,179747,1,8,2:0:0:0:
207,174,179923,1,2,1:2:0:0:
21,59,180100,1,10,2:0:0:0:
175,301,180276,1,0,1:0:0:0:
372,89,180453,1,8,2:0:0:0:
128,214,180627,2,0,P|108:214|81:201,1,42.5,2|8,1:2|2:0,2:0:0:0:
165,90,180801,5,8,1:2:0:0:
213,76,180889,1,8,2:0:0:0:
261,91,180976,1,10,2:0:0:0:
292,130,181063,1,8,2:0:0:0:
323,169,181150,1,10,1:2:0:0:
371,184,181237,1,8,2:0:0:0:
419,170,181325,2,0,L|464:145,1,42.5,8|8,2:0|2:0,2:0:0:0:
256,225,181512,6,0,P|242:279|249:316,1,85,4|8,1:0|2:0,2:0:0:0:
315,368,181776,1,8,2:0:0:0:
330,361,181865,2,0,L|385:368,1,42.5,8|8,1:2|2:0,2:0:0:0:
160,308,182041,2,0,L|117:314,1,42.5,10|8,2:0|2:0,2:0:0:0:
256,225,182218,5,10,1:2:0:0:
296,215,182306,1,8,2:0:0:0:
322,184,182394,1,10,2:0:0:0:
325,142,182482,1,8,2:0:0:0:
301,108,182570,2,0,B|262:99|262:99|254:101|254:101|208:91,1,85,10|10,1:2|2:0,2:0:0:0:
153,29,182835,1,8,2:0:0:0:
145,44,182923,6,0,P|118:50|91:51,1,42.5,10|8,1:2|2:0,2:0:0:0:
109,172,183100,2,0,P|130:174|150:179,1,42.5,8|8,2:0|2:0,2:0:0:0:
374,263,183276,5,10,1:2:0:0:
346,290,183365,1,8,2:0:0:0:
309,306,183453,1,10,2:0:0:0:
270,305,183541,1,8,2:0:0:0:
235,290,183629,1,8,1:2:0:0:
195,273,183718,1,8,2:0:0:0:
153,273,183806,1,10,2:0:0:0:
114,289,183894,1,8,2:0:0:0:
86,320,183982,2,0,L|92:365,1,42.5,8|8,1:2|2:0,2:0:0:0:
28,200,184159,2,0,L|20:241,1,42.5,10|8,2:0|2:0,2:0:0:0:
135,133,184335,5,14,1:2:0:0:
176,128,184423,1,8,2:0:0:0:
211,104,184512,1,8,2:0:0:0:
247,81,184600,1,8,2:0:0:0:
289,76,184688,2,0,L|350:83,1,42.5,8|8,1:2|2:0,2:0:0:0:
482,180,184865,2,0,L|421:186,1,42.5,10|8,2:0|2:0,2:0:0:0:
263,337,185041,5,10,1:2:0:0:
301,368,185129,1,8,2:0:0:0:
350,359,185218,1,8,2:0:0:0:
376,317,185306,1,8,2:0:0:0:
361,270,185394,1,10,1:2:0:0:
339,219,185482,1,8,2:0:0:0:
339,164,185571,1,10,2:0:0:0:
362,115,185659,1,8,2:0:0:0:
412,77,185747,5,14,1:2:0:0:
247,196,185923,1,8,2:0:0:0:
475,293,186100,1,8,1:2:0:0:
315,49,186276,1,10,2:0:0:0:
226,338,186453,5,2,1:2:0:0:
185,326,186541,1,8,2:0:0:0:
157,294,186629,1,10,2:0:0:0:
151,253,186718,1,8,2:0:0:0:
170,215,186806,1,10,1:2:0:0:
206,194,186894,1,8,2:0:0:0:
247,196,186982,1,10,2:0:0:0:
252,214,187071,1,8,2:0:0:0:
255,231,187159,5,4,1:0:0:0:
224,93,187335,1,2,1:2:0:0:
274,318,187512,1,8,2:0:0:0:
373,142,187688,1,2,1:2:0:0:
367,137,187776,1,8,2:0:0:0:
361,135,187865,6,0,L|295:145,1,42.5,2|8,1:2|2:0,2:0:0:0:
92,178,188041,1,2,1:2:0:0:
255,231,188218,1,10,2:0:0:0:
123,39,188394,1,2,1:2:0:0:
123,39,188482,1,8,2:0:0:0:
123,39,188570,5,0,1:0:0:0:
20,272,188747,1,2,1:2:0:0:
232,60,188923,2,0,P|244:115|246:158,1,85,8|0,2:0|1:0,2:0:0:0:
254,230,189188,1,8,2:0:0:0:
254,230,189276,1,2,1:2:0:0:
123,39,189453,1,0,1:0:0:0:
377,171,189629,1,8,2:0:0:0:
31,144,189806,1,2,1:2:0:0:
39,147,189894,1,8,2:0:0:0:
46,150,189982,6,0,P|90:141|140:134,1,85,2|0,1:2|1:0,2:0:0:0:
427,48,190335,2,0,P|382:39|333:32,1,85,8|2,2:0|1:2,2:0:0:0:
154,228,190688,1,2,1:2:0:0:
262,72,190865,1,0,1:0:0:0:
343,296,191041,1,8,2:0:0:0:
343,296,191218,1,0,1:0:0:0:
129,135,191394,5,2,1:2:0:0:
397,74,191571,1,0,1:0:0:0:
137,242,191747,1,8,2:0:0:0:
426,337,191923,1,0,1:0:0:0:
328,14,192100,5,0,1:0:0:0:
195,322,192276,1,0,1:0:0:0:
231,97,192453,5,14,2:0:0:0:
343,296,192629,1,0,1:0:0:0:
328,14,192806,5,4,1:0:0:0:
255,202,192982,1,0,1:0:0:0:
152,32,193159,1,14,2:0:0:0:
409,168,193335,1,2,3:2:0:0:
148,325,193512,1,4,1:2:0:0:
231,97,193688,1,2,1:2:0:0:
324,379,193865,1,12,2:0:0:0:
76,173,194041,1,2,2:0:0:0:
328,44,194218,5,0,1:0:0:0:
340,92,194306,1,0,1:0:0:0:
321,139,194394,1,8,2:0:0:0:
294,182,194482,1,8,2:0:0:0:
291,232,194570,2,0,P|294:257|302:283,1,42.5,10|8,1:2|2:0,2:0:0:0:
512,270,194747,5,10,2:0:0:0:
469,267,194835,1,8,2:0:0:0:
429,279,194924,1,8,1:2:0:0:
397,307,195011,1,8,2:0:0:0:
369,339,195098,1,8,2:0:0:0:
335,363,195185,1,8,2:0:0:0:
293,367,195272,2,0,L|246:361,1,42.5,8|8,1:2|2:0,2:0:0:0:
74,263,195447,2,0,L|121:256,1,42.5,8|8,2:0|2:0,2:0:0:0:
291,232,195621,5,4,1:0:0:0:
122,131,195974,5,0,3:0:0:0:
339,79,196327,5,0,3:0:0:0:
216,38,196504,5,2,2:0:0:0:
223,63,196680,1,2,3:2:0:0:
230,88,196857,1,2,2:0:0:0:
237,113,197033,2,0,L|224:177,1,59.4999999999999,2|0,3:2|2:0,2:0:0:0:
110,72,197386,2,0,L|123:136,1,59.4999999999999,2|0,3:2|2:0,2:0:0:0:
350,20,197739,2,0,L|337:84,1,59.4999999999999,2|0,3:2|2:0,2:0:0:0:
297,226,198092,1,2,3:2:0:0:
216,38,198268,1,0,1:0:0:0:
297,226,198445,5,2,1:2:0:0:
166,313,198802,5,0,3:0:0:0:
376,362,199159,5,0,3:0:0:0:
297,226,199337,5,2,2:0:0:0:
272,219,199516,1,2,3:2:0:0:
247,212,199695,1,2,2:0:0:0:
222,205,199873,2,0,L|158:218,1,59.4999981842042,2|0,3:2|2:0,2:0:0:0:
326,235,200225,2,0,L|384:223,1,59.4999999999999,2|0,3:2|2:0,2:0:0:0:
269,313,200578,1,2,3:2:0:0:
316,133,200755,1,0,1:0:0:0:
269,313,200931,1,2,3:2:0:0:
144,198,201108,1,0,1:0:0:0:
413,242,201284,5,2,1:2:0:0:
269,313,201637,5,0,3:0:0:0:
464,379,201990,5,0,3:0:0:0:
505,206,202167,5,2,2:0:0:0:
480,199,202343,1,2,3:2:0:0:
455,192,202520,1,2,2:0:0:0:
430,185,202696,2,0,P|396:188|351:197,1,59.4999999999999,2|0,3:2|2:0,2:0:0:0:
286,108,203049,2,0,P|252:105|207:96,1,59.4999999999999,2|0,3:2|2:0,2:0:0:0:
138,187,203402,2,0,P|104:190|59:199,1,59.4999999999999,2|0,3:2|2:0,2:0:0:0:
0,107,203755,1,2,3:2:0:0:
0,107,203931,1,0,1:0:0:0:
236,197,204108,5,2,1:2:0:0:
191,302,204456,5,0,3:0:0:0:
191,302,204631,1,2,2:0:0:0:
135,32,204805,1,2,3:2:0:0:
135,32,205154,5,12,3:2:0:0:
108,165,205328,1,4,2:3:0:0:
108,165,205416,1,4,2:3:0:0:
108,165,205503,2,0,P|119:211|122:234,1,59.4999981842042,2|8,1:2|2:0,2:0:0:0:
280,78,205855,2,0,P|269:124|266:147,1,59.4999999999999,8|8,1:2|2:0,2:0:0:0:
139,326,206208,5,10,1:2:0:0:
191,302,206328,1,8,2:0:0:0:
248,295,206448,1,4,2:3:0:0:
301,322,206569,1,4,2:3:0:0:
361,343,206689,1,4,2:3:0:0:
419,334,206810,1,4,2:3:0:0:
471,303,206915,6,0,P|465:262|458:204,2,85,4|0|0,1:0|1:0|3:0,2:0:0:0:
456,138,207444,1,0,1:0:0:0:
272,204,207620,2,0,P|278:163|285:105,2,85,8|0|0,3:2|2:0|3:0,2:0:0:0:
287,39,208150,1,4,2:3:0:0:
287,39,208238,1,4,2:3:0:0:
287,39,208326,5,2,1:2:0:0:
370,242,208503,1,8,2:0:0:0:
179,175,208679,1,2,3:2:0:0:
370,242,208856,1,0,1:0:0:0:
160,353,209032,1,10,3:2:0:0:
263,233,209209,2,0,P|269:274|276:332,1,85,0|2,1:0|3:2,2:0:0:0:
179,175,209562,1,4,2:3:0:0:
179,175,209650,1,4,2:3:0:0:
179,175,209738,5,2,1:2:0:0:
255,98,209915,2,0,L|365:113,1,85,0|0,1:0|3:0,2:0:0:0:
427,122,210267,1,2,1:2:0:0:
171,271,210444,2,0,L|61:286,1,85,10|0,3:2|2:0,2:0:0:0:
0,297,210797,1,0,3:0:0:0:
101,370,210973,1,2,2:0:0:0:
179,175,211150,5,2,1:2:0:0:
262,246,211326,2,0,P|267:279|271:338,1,85,8|0,2:0|3:0,2:0:0:0:
456,77,211679,1,4,2:3:0:0:
373,148,211856,2,0,P|367:181|364:240,1,85,10|0,3:2|2:0,2:0:0:0:
207,45,212209,5,8,1:2:0:0:
249,50,212297,1,8,2:0:0:0:
278,81,212385,1,8,2:3:0:0:
283,123,212473,1,8,2:0:0:0:
262,159,212562,6,0,P|215:167|163:178,1,85,4|0,1:0|1:0,2:0:0:0:
1,41,212915,2,0,P|42:48|84:56,1,85,8|0,2:0|1:0,2:0:0:0:
94,71,213179,1,8,2:0:0:0:
94,71,213267,1,0,1:0:0:0:
18,228,213444,1,0,1:0:0:0:
178,174,213620,1,10,2:0:0:0:
178,174,213797,1,2,2:0:0:0:
118,258,213973,6,0,L|106:348,1,85,2|0,1:2|1:0,2:0:0:0:
296,213,214326,2,0,L|307:297,1,85,10|2,2:0|1:2,2:0:0:0:
322,311,214591,1,8,2:0:0:0:
322,311,214679,1,0,1:0:0:0:
207,268,214856,1,2,1:2:0:0:
354,148,215032,2,0,P|371:150|403:159,1,42.5,8|0,2:0|2:0,2:0:0:0:
467,281,215209,1,2,2:0:0:0:
467,281,215297,1,2,2:0:0:0:
467,281,215385,6,0,B|451:198|509:211|480:103,1,170,2|8,1:2|2:0,2:0:0:0:
300,61,215915,2,0,P|317:59|349:50,1,42.5,2|8,1:2|2:0,2:0:0:0:
425,20,216091,1,0,1:0:0:0:
226,16,216267,1,0,1:0:0:0:
354,148,216444,2,0,P|341:227|332:320,1,170,10|2,2:0|1:2,2:0:0:0:
253,240,216973,1,0,1:0:0:0:
351,327,217150,2,0,L|392:319,1,42.5,10|0,2:0|2:0,2:0:0:0:
253,240,217326,1,0,1:0:0:0:
236,243,217415,1,8,2:0:0:0:
219,246,217503,5,2,1:2:0:0:
351,327,217679,1,8,2:3:0:0:
266,147,217856,1,2,1:2:0:0:
197,373,218032,1,4,2:3:0:0:
428,237,218209,5,4,1:0:0:0:
351,327,218385,2,0,P|410:329|484:350,1,127.5,0|0,1:0|2:0,2:0:0:0:
475,346,218738,1,0,1:0:0:0:
409,68,218915,6,0,B|419:148|419:148|417:159|417:159|430:260,1,170,10|0,3:2|1:0,2:0:0:0:
332,208,219444,1,0,1:0:0:0:
409,68,219620,1,2,3:2:0:0:
224,42,219797,2,0,P|279:30|337:11,1,85,8|2,2:0|3:2,2:0:0:0:
142,20,220150,1,0,1:0:0:0:
192,160,220326,5,10,3:2:0:0:
306,21,220503,1,0,1:0:0:0:
245,242,220679,1,14,2:0:0:0:
89,104,220856,2,0,P|96:132|99:154,1,42.5,0|0,2:0|2:0,2:0:0:0:
121,304,221032,5,6,1:2:0:0:
121,304,221385,5,8,1:2:0:0:
137,225,221562,1,8,2:0:0:0:
344,265,221738,5,8,1:2:0:0:
325,172,221915,1,8,2:0:0:0:
221,342,222091,5,8,1:2:0:0:
237,132,222267,1,8,2:0:0:0:
428,344,222444,5,10,1:2:0:0:
408,81,222620,1,8,2:0:0:0:
247,245,222797,5,8,1:2:0:0:
511,284,222973,1,8,2:0:0:0:
197,55,223150,5,8,1:2:0:0:
500,10,223326,1,8,2:0:0:0:
135,160,223503,5,10,1:2:0:0:
481,180,223679,1,8,2:0:0:0:
408,81,223856,5,2,2:0:0:0:
89,78,233738,6,0,P|136:89|192:93,1,102,2|2,2:0|2:0,2:0:0:0:
268,65,234267,1,0,2:0:0:0:
235,173,234444,2,0,P|207:179|170:181,2,50.9999999999999,2|0|6,2:0|3:0|2:0,2:0:0:0:
328,131,234973,1,0,2:0:0:0:
301,349,235150,6,0,P|307:251|312:206,1,136,6|2,2:0|2:0,2:0:0:0:
328,131,235679,1,2,3:2:0:0:
328,131,235767,1,0,2:0:0:0:
328,131,235856,1,0,2:0:0:0:
393,198,236032,1,2,2:0:0:0:
475,165,236209,1,0,2:0:0:0:
503,278,236385,1,2,2:0:0:0:
503,278,236473,1,0,3:0:0:0:
503,278,236562,6,0,B|425:257|448:320|346:289,1,136,0|2,3:0|2:0,2:0:0:0:
222,250,237091,1,2,3:2:0:0:
292,313,237267,2,0,P|303:349|305:393,1,68,0|0,2:0|2:0,2:0:0:0:
307,213,237620,2,0,P|308:193|313:175,3,34,0|0|2|0,2:0|2:0|2:0|3:0,2:0:0:0:
382,149,237973,6,0,P|314:137|232:123,1,136,2|2,3:2|2:0,2:0:0:0:
176,73,238503,1,2,3:2:0:0:
176,73,238591,1,0,2:0:0:0:
176,73,238679,1,0,2:0:0:0:
260,48,238856,1,2,2:0:0:0:
190,189,239032,1,0,2:0:0:0:
94,148,239209,1,2,2:0:0:0:
94,148,239297,1,0,3:0:0:0:
94,148,239385,6,0,P|60:156|11:164,1,85,0|2,1:0|2:0,2:0:0:0:
240,303,239738,2,0,P|206:295|157:287,1,85,2|2,1:2|2:0,2:0:0:0:
358,198,240091,1,4,1:2:0:0:
146,61,240267,5,8,2:0:0:0:
177,32,240356,1,8,2:0:0:0:
217,21,240444,1,8,1:2:0:0:
258,31,240532,1,8,2:0:0:0:
288,60,240620,2,0,L|278:113,1,42.5,10|8,2:0|2:0,2:0:0:0:
342,281,240797,6,0,L|359:186,1,85,4|0,1:0|2:0,2:0:0:0:
378,117,241150,1,10,1:2:0:0:
262,189,241326,1,10,2:0:0:0:
443,258,241503,1,8,1:2:0:0:
262,189,241679,1,10,2:0:0:0:
497,101,241856,1,10,1:2:0:0:
370,366,242032,1,8,2:0:0:0:
279,70,242209,1,8,1:2:0:0:
503,317,242385,1,8,2:0:0:0:
142,262,242562,1,8,1:2:0:0:
503,317,242738,1,10,2:0:0:0:
378,117,242914,6,0,L|363:192,1,42.5,10|0,1:2|2:0,2:0:0:0:
294,322,243091,1,8,2:0:0:0:
251,325,243179,1,10,2:0:0:0:
211,311,243267,1,8,1:2:0:0:
177,285,243356,1,8,2:0:0:0:
142,262,243444,1,10,2:0:0:0:
101,252,243532,1,8,2:0:0:0:
59,256,243620,6,0,L|43:340,1,51,6|0,1:2|2:0,2:0:0:0:
255,231,243797,1,8,2:0:0:0:
266,192,243885,1,8,2:0:0:0:
258,153,243973,2,0,L|267:102,1,51,8|0,1:2|2:0,2:0:0:0:
425,19,244150,2,0,L|415:69,1,51,8|0,2:3|2:0,2:0:0:0:
361,212,244326,5,2,1:2:0:0:
396,241,244414,1,8,2:0:0:0:
444,243,244503,2,0,P|477:235|512:209,1,51,8|0,2:0|2:0,2:0:0:0:
257,65,244679,2,0,P|223:72|189:99,1,51,12|0,2:0|2:0,2:0:0:0:
432,150,244856,2,0,L|441:99,1,51,10|8,2:0|2:0,2:0:0:0:
266,192,245032,5,10,1:2:0:0:
254,214,245120,1,8,2:0:0:0:
250,239,245209,1,8,2:0:0:0:
252,264,245297,1,8,2:0:0:0:
262,288,245385,5,4,1:2:0:0:
228,250,245473,1,8,2:0:0:0:
179,236,245562,1,8,2:0:0:0:
124,251,245650,1,8,2:0:0:0:
87,305,245738,2,0,L|101:368,1,51,10|0,1:2|2:0,2:0:0:0:
173,150,245914,2,0,L|161:100,1,51,8|8,2:0|2:0,2:0:0:0:
0,4,246091,5,10,1:2:0:0:
22,35,246179,1,8,2:0:0:0:
72,50,246267,1,8,2:0:0:0:
137,26,246356,1,8,2:0:0:0:
222,15,246444,6,0,L|328:33,1,102,4|0,1:0|1:0,2:0:0:0:
464,115,246797,1,10,2:0:0:0:
282,226,246973,1,2,1:2:0:0:
269,244,247062,1,8,2:0:0:0:
274,265,247150,2,0,L|328:277,1,51,0|0,1:0|2:0,2:0:0:0:
418,306,247326,1,0,1:0:0:0:
308,383,247503,1,10,2:0:0:0:
512,241,247679,1,0,1:0:0:0:
506,221,247767,1,8,2:0:0:0:
493,207,247856,6,0,L|388:225,1,102,2|0,1:2|1:0,2:0:0:0:
171,256,248209,2,0,P|175:285|178:316,1,51,10|0,2:0|2:0,2:0:0:0:
285,133,248385,1,6,1:2:0:0:
285,133,248473,1,0,3:0:0:0:
285,133,248562,2,0,P|280:162|278:193,1,51,0|8,1:0|2:0,2:0:0:0:
267,307,248738,1,0,1:0:0:0:
137,95,248914,1,10,2:0:0:0:
353,239,249091,2,0,P|393:233|414:222,1,51,0|8,1:0|2:0,2:0:0:0:
469,43,249267,6,0,P|448:92|446:146,1,102,2|0,1:2|1:0,2:0:0:0:
494,229,249620,1,8,2:0:0:0:
345,100,249797,2,0,P|351:124|357:150,1,51,2|8,1:2|2:0,2:0:0:0:
391,319,249973,5,2,1:2:0:0:
445,140,250150,1,0,1:0:0:0:
391,319,250326,1,8,2:0:0:0:
430,10,250503,6,0,P|423:34|418:60,1,51,2|8,1:2|2:0,2:0:0:0:
391,319,250679,1,2,1:2:0:0:
345,100,250856,1,0,1:0:0:0:
393,323,251032,5,8,2:0:0:0:
343,330,251120,1,0,2:0:0:0:
300,303,251209,1,2,1:2:0:0:
259,273,251297,1,8,2:0:0:0:
210,265,251385,2,0,L|153:280,1,51,2|0,1:2|2:0,2:0:0:0:
13,171,251562,2,0,L|62:158,1,51,0|2,1:0|2:0,2:0:0:0:
234,110,251738,1,12,2:0:0:0:
75,369,251914,1,2,1:2:0:0:
63,362,252003,1,8,2:0:0:0:
56,348,252091,6,0,P|58:294|63:233,1,102,6|0,1:2|1:0,2:0:0:0:
347,126,252444,2,0,P|350:176|352:227,1,102,8|0,2:0|1:0,2:0:0:0:
180,45,252797,5,2,1:2:0:0:
189,30,252885,1,8,2:0:0:0:
209,21,252973,2,0,L|259:27,1,51,0|2,1:0|2:0,2:0:0:0:
397,119,253150,2,0,L|347:125,1,51,8|0,2:0|2:0,2:0:0:0:
159,161,253326,1,2,1:2:0:0:
245,342,253503,6,0,P|250:262|258:148,1,153,2|0,1:2|2:0,2:0:0:0:
264,109,253856,1,10,2:0:0:0:
341,220,254032,2,0,L|395:226,1,51,2|8,1:2|2:0,2:0:0:0:
167,259,254209,1,0,1:0:0:0:
328,384,254385,1,2,1:2:0:0:
254,189,254562,1,8,2:0:0:0:
84,360,254738,1,2,1:2:0:0:
45,126,254914,6,0,P|61:178|78:280,1,153,6|0,1:2|2:0,2:0:0:0:
84,360,255267,1,8,2:0:0:0:
161,157,255444,1,2,1:2:0:0:
161,157,255532,1,8,2:0:0:0:
161,157,255620,1,2,1:2:0:0:
84,360,255797,1,0,1:0:0:0:
41,41,255973,5,8,2:0:0:0:
168,270,256150,1,0,1:0:0:0:
398,52,256326,5,12,2:0:0:0:
274,344,256503,1,0,1:0:0:0:
233,21,256679,5,8,2:0:0:0:
358,234,256856,2,0,L|365:285,1,51,0|8,1:0|2:0,2:0:0:0:
439,161,257032,5,2,1:2:0:0:
393,138,257120,1,4,2:3:0:0:
342,134,257209,1,8,2:3:0:0:
293,146,257297,1,4,2:3:0:0:
247,168,257385,1,0,1:0:0:0:
199,183,257473,1,4,2:3:0:0:
148,184,257562,2,0,P|125:179|92:170,1,51,4|12,2:3|2:3,2:0:0:0:
29,124,257738,5,4,1:0:0:0:
358,234,258091,5,2,1:2:0:0:
29,124,258444,5,0,1:0:0:0:
358,234,258797,5,0,1:0:0:0:
73,280,259150,6,0,P|95:327|188:348,1,136,0|0,1:0|1:0,2:0:0:0:
273,315,259679,1,2,2:0:0:0:
174,133,259856,6,0,P|171:167|163:200,1,68,2|0,1:2|2:0,2:0:0:0:
368,231,260209,6,0,P|357:178|356:149,1,68,0|2,1:0|2:0,2:0:0:0:
278,0,260562,6,0,B|275:65|275:65|271:72|271:72|266:162,1,136,2|2,1:2|1:2,2:0:0:0:
255,308,261091,2,0,L|262:231,2,68,2|0|2,2:0|1:0|2:0,2:0:0:0:
267,134,261620,1,0,1:0:0:0:
162,200,261797,1,2,2:0:0:0:
392,302,261973,5,14,2:0:0:0:
60,339,262150,1,0,1:0:0:0:
269,247,262326,1,2,1:2:0:0:
0,156,262503,5,14,2:0:0:0:
480,30,262856,5,14,2:0:0:0:
443,172,263209,1,10,2:0:0:0:
434,162,263297,1,8,2:0:0:0:
422,156,263385,6,0,P|371:158|321:172,1,85,4|0,1:0|1:0,2:0:0:0:
272,215,263738,1,0,3:0:0:0:
315,83,263914,1,0,1:0:0:0:
145,116,264091,2,0,P|187:116|228:125,1,85,8|0,3:2|2:0,2:0:0:0:
338,165,264444,1,0,3:0:0:0:
208,272,264620,1,8,2:0:0:0:
203,278,264709,1,8,2:0:0:0:
200,287,264797,6,0,P|195:331|214:375,1,85,2|8,1:2|2:0,2:0:0:0:
367,335,265150,2,0,P|372:291|353:247,1,85,0|0,3:0|1:0,2:0:0:0:
272,215,265503,1,10,2:0:0:0:
338,165,265679,1,8,2:0:0:0:
441,232,265856,1,10,2:0:0:0:
410,78,266032,1,8,2:0:0:0:
367,335,266209,5,2,2:0:0:0:
386,343,267385,6,0,P|416:335|425:334,3,22.6666666666667,2|2|2|2,2:0|2:0|2:0|2:0,2:0:0:0:
367,333,267620,1,12,1:2:0:0:
270,113,267885,1,8,2:0:0:0:
270,113,267973,2,0,P|281:169|284:206,1,85,8|2,2:0|1:2,2:0:0:0:
102,283,268326,1,10,2:0:0:0:
90,282,268414,1,8,2:0:0:0:
80,276,268503,2,0,L|88:205,1,42.5,8|8,2:0|2:0,2:0:0:0:
107,73,268679,5,10,1:2:0:0:
130,61,268767,1,8,2:0:0:0:
171,63,268856,1,10,2:0:0:0:
212,92,268944,1,8,2:0:0:0:
270,113,269032,6,0,L|390:99,1,85,4|0,1:0|1:0,2:0:0:0:
505,79,269385,1,8,2:0:0:0:
440,212,269562,1,0,1:0:0:0:
410,215,269650,1,8,2:0:0:0:
380,218,269738,1,0,1:0:0:0:
351,222,269826,1,0,2:0:0:0:
321,225,269914,1,2,1:2:0:0:
189,283,270091,2,0,P|174:324|169:369,1,85,10|2,2:0|1:2,2:0:0:0:
76,283,270356,1,8,2:0:0:0:
88,275,270444,6,0,P|82:232|67:193,1,85,2|0,1:2|1:0,2:0:0:0:
1,111,270797,1,10,2:0:0:0:
121,130,270973,1,0,1:0:0:0:
162,130,271062,1,8,2:0:0:0:
192,101,271150,2,0,L|199:54,1,42.5,2|8,1:2|2:0,2:0:0:0:
301,22,271326,2,0,L|295:64,1,42.5,0|0,1:0|2:0,2:0:0:0:
311,186,271503,2,0,P|350:214|407:206,1,85,10|0,2:0|1:0,2:0:0:0:
423,125,271767,1,8,2:0:0:0:
431,110,271856,6,0,B|345:87|368:172|264:149,1,170,2|8,1:2|2:0,2:0:0:0:
151,320,272385,1,0,1:0:0:0:
164,308,272473,1,8,2:0:0:0:
181,303,272562,2,0,P|207:306|238:322,1,42.5,2|0,1:2|2:0,2:0:0:0:
301,267,272738,2,0,P|317:287|327:320,1,42.5,0|2,1:0|2:0,2:0:0:0:
395,380,272914,2,0,L|410:277,1,85,8|2,2:0|1:2,2:0:0:0:
424,280,273179,1,8,2:0:0:0:
424,280,273267,5,2,1:2:0:0:
277,377,273444,1,0,1:0:0:0:
204,201,273620,2,0,L|301:164,1,85,8|0,2:0|1:0,2:0:0:0:
388,165,273885,1,8,2:0:0:0:
373,156,273973,2,0,P|367:127|367:91,1,42.5,2|0,1:2|2:0,2:0:0:0:
285,32,274150,2,0,P|283:53|279:74,1,42.5,8|8,2:0|2:0,2:0:0:0:
200,206,274326,5,8,1:2:0:0:
157,204,274414,1,8,2:0:0:0:
119,185,274503,1,8,2:0:0:0:
83,164,274591,1,8,2:0:0:0:
41,162,274679,6,0,P|28:209|28:264,1,85,4|0,1:0|1:0,2:0:0:0:
182,115,275032,2,0,P|179:72|167:31,1,85,12|0,2:0|1:0,2:0:0:0:
179,293,275385,6,0,P|227:295|274:247,1,85,2|0,1:2|1:0,2:0:0:0:
419,141,275738,2,0,P|382:120|340:124,1,85,8|2,2:0|2:0,2:0:0:0:
284,194,276003,1,2,2:0:0:0:
284,194,276091,5,2,1:2:0:0:
367,262,276267,1,0,1:0:0:0:
169,377,276444,2,0,P|173:327|182:271,1,85,12|0,2:0|2:0,2:0:0:0:
189,210,276709,1,0,2:0:0:0:
189,210,276797,5,10,2:0:0:0:
84,266,276973,1,0,1:0:0:0:
41,61,277150,2,0,P|58:109|73:203,1,127.5,10|0,2:0|2:0,2:0:0:0:
84,266,277503,5,6,1:2:0:0:
157,122,277679,1,8,2:0:0:0:
84,266,277856,1,8,1:2:0:0:
284,195,278032,1,10,2:0:0:0:
41,61,278209,1,10,1:2:0:0:
284,195,278385,1,8,2:0:0:0:
0,237,278562,1,8,1:2:0:0:
196,7,278738,1,8,2:0:0:0:
0,237,278914,5,10,1:2:0:0:
350,269,279091,1,8,2:0:0:0:
181,118,279267,1,8,1:2:0:0:
243,363,279444,1,8,2:0:0:0:
399,67,279620,1,10,1:2:0:0:
183,250,279797,5,8,2:0:0:0:
149,223,279885,1,8,2:0:0:0:
137,183,279973,1,8,1:2:0:0:
148,143,280062,1,8,2:0:0:0:
181,118,280150,2,0,P|209:128|240:146,1,42.5,8|8,2:0|2:0,2:0:0:0:
350,269,280326,6,0,B|367:275|373:298|358:316|335:323|309:317|296:298|286:258|309:219|351:184|321:124|321:124|323:169|302:197,1,340,4|0,1:0|2:0,2:0:0:0:
