osu file format v14

[General]
AudioFilename: audio.mp3
AudioLeadIn: 0
PreviewTime: 147278
Countdown: 0
SampleSet: Soft
StackLeniency: 0.5
Mode: 0
LetterboxInBreaks: 0
WidescreenStoryboard: 1

[Editor]
DistanceSpacing: 1.2
BeatDivisor: 4
GridSize: 32
TimelineZoom: 1.9

[Metadata]
Title:Hajimari no Sokudo
TitleUnicode:はじまりの速度
Artist:Sangatsu no Phantasia
ArtistUnicode:三月のパンタシア
Creator:-Mikan
Version:Shizuku's Expert
Source:キズナイーバー
Tags:Hikan Affirmation NeoskyLove adioni wenect Unranked mapper wenet Kazato Asa Shizuku- Akitoshi -Laura- Corinn kiznaiver ending trigger ed japanese jpop j-pop pop anime
BeatmapID:2310702
BeatmapSetID:1098561

[Difficulty]
HPDrainRate:6
CircleSize:4
OverallDifficulty:8.8
ApproachRate:9.2
SliderMultiplier:1.76
SliderTickRate:1

[Events]
//Background and Video events
0,0,"gkpkpomdv.png",0,0
Video,0,"Sangatsu No Phantasia - Hajimarino Sokudo.avi"
//Break Periods
2,170426,176696
2,224070,233168
//Storyboard Layer 0 (Background)
//Storyboard Layer 1 (Fail)
//Storyboard Layer 2 (Pass)
//Storyboard Layer 3 (Foreground)
//Storyboard Layer 4 (Overlay)
//Storyboard Sound Samples

[TimingPoints]
653,346.820809248555,4,2,1,40,1,0
826,340.909090909091,4,2,1,40,1,0
826,-125,4,2,1,40,0,0
1337,375,4,2,1,40,1,0
1712,352.941176470588,4,2,1,40,1,0
1888,-125,4,2,1,40,0,0
2241,338.983050847458,4,2,1,40,1,0
2241,-125,4,2,1,40,0,0
2579,359.281437125748,4,2,1,40,1,0
2938,-125,4,2,1,40,0,0
3656,387.096774193548,4,2,1,40,1,0
3656,-128.205128205128,4,2,1,40,0,0
4043,329.67032967033,4,2,1,40,1,0
4207,333.333333333333,4,2,1,40,1,0
4706,-125,4,2,1,40,0,0
4873,357.142857142857,4,2,1,40,1,0
5051,-125,4,2,1,40,0,0
5408,346.820809248555,4,2,1,40,1,0
5581,352.941176470588,4,2,1,40,1,0
6463,352.941176470588,4,2,1,40,1,0
6463,-125,4,2,1,40,0,0
6992,375,4,2,1,40,1,0
7367,352.941176470588,4,2,1,40,1,0
7543,-125,4,2,1,40,0,0
7896,346.820809248555,4,2,1,40,1,0
8589,365.853658536585,4,2,1,40,1,0
8954,352.941176470588,4,2,1,40,1,0
9306,368.098159509202,4,2,1,40,1,0
9674,352.941176470588,4,2,1,40,1,0
9850,-125,4,2,1,40,0,0
10203,327.868852459016,4,2,1,40,1,0
10366,-125,4,2,1,40,0,0
10530,363.636363636364,4,2,1,40,1,0
11075,359.281437125748,4,2,1,40,1,0
11434,329.67032967033,4,2,1,40,1,0
11598,-100,4,2,3,40,0,0
11763,363.636363636364,4,2,3,50,1,0
11763,-125,4,2,3,50,0,0
11944,-125,4,2,3,40,0,0
12035,-125,4,2,3,50,0,0
12126,352.941176470588,4,2,1,50,1,0
12126,-125,4,2,1,50,0,0
13008,375,4,2,1,50,1,0
13195,350.877192982456,4,2,1,50,1,0
13195,-125,4,2,1,50,0,0
13545,-125,4,2,1,50,0,0
14949,346.820809248555,4,2,1,50,1,0
14949,-125,4,2,1,50,0,0
15469,-125,4,2,1,50,0,0
15816,365.853658536585,4,2,1,50,1,0
16364,348.837209302326,4,2,1,50,1,0
16887,-100,4,2,1,60,0,0
17410,-125,4,2,1,60,0,0
17759,352.941176470588,4,2,1,60,1,0
17759,-125,4,2,1,60,0,0
18288,-100,4,2,1,60,0,0
20758,-100,4,2,1,35,0,0
20935,-100,4,2,1,40,0,0
21111,-100,4,2,1,45,0,0
21288,-100,4,2,1,50,0,0
21464,-100,4,2,1,55,0,0
21641,-100,4,2,1,60,0,0
23416,352.941176470588,4,2,1,40,1,0
23416,-166.666666666667,4,2,1,40,0,0
32945,333.333333333333,4,2,1,40,1,0
33278,357.142857142857,4,2,1,40,1,0
33278,-166.666666666667,4,2,1,40,0,0
34347,-166.666666666667,4,2,0,40,0,0
34700,352.941176470588,4,2,1,50,1,0
34700,-142.857142857143,4,2,1,50,0,0
35052,-142.857142857143,4,2,4,50,0,0
40170,-142.857142857143,4,2,1,50,0,0
40699,-142.857142857143,4,2,4,50,0,0
42111,-111.111111111111,4,2,4,50,0,0
42464,-111.111111111111,4,2,1,50,0,0
42817,-100,4,2,1,50,0,0
43170,-100,4,2,1,60,0,0
47935,-100,4,2,2,60,0,0
48464,-100,4,2,1,60,0,0
51641,-125,4,2,1,60,0,0
51993,-125,4,2,2,60,0,0
54464,-111.111111111111,4,2,1,60,0,0
56935,-111.111111111111,4,2,3,60,0,0
57288,-111.111111111111,4,2,1,60,0,0
57464,-111.111111111111,4,2,1,45,0,0
57641,-111.111111111111,4,2,1,50,0,0
57817,-111.111111111111,4,2,1,55,0,0
57994,-111.111111111111,4,2,1,60,0,0
58170,-111.111111111111,4,2,1,65,0,0
58347,-111.111111111111,4,2,1,70,0,0
58876,-111.111111111111,4,2,1,60,0,0
59053,-111.111111111111,4,2,1,70,0,0
59141,-111.111111111111,4,2,1,60,0,0
59406,-111.111111111111,4,2,1,70,0,0
59582,-111.111111111111,4,2,1,60,0,0
59758,-111.111111111111,4,2,1,70,0,0
59847,-111.111111111111,4,2,1,60,0,0
60111,-95.2380952380952,4,2,2,70,0,1
60463,-95.2380952380952,4,2,1,70,0,1
70700,-95.2380952380952,4,2,2,70,0,1
70788,-95.2380952380952,4,2,1,60,0,1
71053,-95.2380952380952,4,2,1,70,0,1
71141,-95.2380952380952,4,2,1,60,0,1
71406,-95.2380952380952,4,2,1,70,0,1
81994,-95.2380952380952,4,2,2,70,0,1
82082,-95.2380952380952,4,2,1,60,0,1
82347,-95.2380952380952,4,2,1,70,0,1
82435,-95.2380952380952,4,2,1,60,0,1
82611,-95.2380952380952,4,2,1,60,0,0
82699,-95.2380952380952,4,2,1,70,0,1
92582,-95.2380952380952,4,2,2,70,0,1
92935,-95.2380952380952,4,2,1,70,0,1
93288,-95.2380952380952,4,2,1,60,0,1
93464,-95.2380952380952,4,2,1,55,0,1
93641,-95.2380952380952,4,2,1,50,0,1
93817,-95.2380952380952,4,2,1,45,0,1
93994,-95.2380952380952,4,2,1,60,0,1
98229,-95.2380952380952,4,2,1,70,0,1
98758,-95.2380952380952,4,2,3,70,0,1
99641,-111.111111111111,4,2,1,60,0,1
99993,-111.111111111111,4,2,2,60,0,1
102464,-111.111111111111,4,2,1,50,0,0
103700,-125,4,2,1,50,0,0
105288,-95.2380952380952,4,2,1,60,0,1
108111,348.837209302326,4,2,1,60,1,1
109506,352.941176470588,4,2,1,60,1,1
110211,359.281437125748,4,2,1,60,1,1
110330,-100,4,2,1,60,0,1
110390,-95.2380952380952,4,2,1,60,0,1
110929,352.941176470588,4,2,1,60,1,0
110929,-95.2380952380952,4,2,1,60,0,0
116487,-100,4,2,2,50,0,0
129870,-100,4,2,1,60,0,0
132458,-100,4,2,1,55,0,0
132811,-100,4,2,1,50,0,0
133164,-100,4,2,1,45,0,0
134752,-100,4,2,1,60,0,0
137399,-100,4,2,2,60,0,0
137840,-100,4,2,1,60,0,0
140752,-100,4,2,1,50,0,0
141634,-100,4,2,1,60,0,0
144458,-100,4,2,3,60,0,0
144987,-100,4,2,1,45,0,0
145164,-100,4,2,1,50,0,0
145340,-100,4,2,1,55,0,0
145517,-100,4,2,1,60,0,0
145693,-100,4,2,1,65,0,0
145870,-100,4,2,1,70,0,0
146399,-100,4,2,1,60,0,0
146576,-100,4,2,1,70,0,0
146664,-100,4,2,1,60,0,0
146928,-100,4,2,1,70,0,0
147017,-100,4,2,1,60,0,0
147281,-100,4,2,1,70,0,0
147369,-100,4,2,1,60,0,0
147634,-95.2380952380952,4,2,2,70,0,1
147986,-95.2380952380952,4,2,1,70,0,1
157164,-95.2380952380952,4,2,3,70,0,1
157517,-95.2380952380952,4,2,1,70,0,1
158223,-95.2380952380952,4,2,2,70,0,1
158399,-95.2380952380952,4,2,1,70,0,1
158576,-95.2380952380952,4,2,1,60,0,1
158752,-95.2380952380952,4,2,1,55,0,1
158928,-105.263157894737,4,2,1,60,0,1
162811,-100,4,2,3,60,0,1
163693,-100,4,2,3,70,0,1
164046,344.827586206897,4,2,3,70,1,1
164563,352.941176470588,4,2,1,60,1,1
164563,-95.2380952380952,4,2,1,60,0,1
164915,-95.2380952380952,4,2,1,60,0,1
168798,357.142857142857,4,2,1,60,1,1
168974,-95.2380952380952,4,2,1,35,0,1
169151,-95.2380952380952,4,2,1,40,0,1
169327,-95.2380952380952,4,2,1,45,0,1
169504,-95.2380952380952,4,2,1,50,0,1
169680,-95.2380952380952,4,2,1,55,0,1
169857,-95.2380952380952,4,2,1,60,0,1
170226,352.941176470588,4,2,3,40,1,0
170386,-95.2380952380952,4,2,1,60,0,0
177268,-95.2380952380952,4,2,2,50,0,0
177974,-95.2380952380952,4,2,1,60,0,0
178343,346.820809248555,4,2,1,60,1,0
178343,-100,4,2,1,60,0,0
178689,352.941176470588,4,2,1,60,1,0
178689,-125,4,2,1,60,0,0
179739,-100,4,2,1,60,0,0
180453,348.837209302326,4,2,1,60,1,0
180621,-100,4,2,1,45,0,0
180798,-100,4,2,1,50,0,0
180974,-100,4,2,1,55,0,0
181151,-100,4,2,1,60,0,0
181512,352.941176470588,4,2,1,60,1,0
181512,-100,4,2,1,60,0,1
181680,-100,4,2,1,40,0,1
182210,-95.2380952380952,4,2,1,60,0,1
182298,-95.2380952380952,4,2,1,40,0,1
182474,-95.2380952380952,4,2,1,60,0,1
182650,-95.2380952380952,4,2,1,40,0,1
182915,-95.2380952380952,4,2,1,60,0,1
183445,-95.2380952380952,4,2,1,40,0,1
183621,-95.2380952380952,4,2,1,60,0,1
183709,-95.2380952380952,4,2,1,40,0,1
183797,-95.2380952380952,4,2,1,60,0,1
184151,-95.2380952380952,4,2,1,40,0,1
184327,-95.2380952380952,4,2,2,60,0,1
184857,-95.2380952380952,4,2,1,40,0,1
185033,-95.2380952380952,4,2,1,60,0,1
185121,-95.2380952380952,4,2,1,40,0,1
185386,-95.2380952380952,4,2,1,60,0,1
185474,-95.2380952380952,4,2,1,40,0,1
185915,-95.2380952380952,4,2,1,60,0,1
186445,-95.2380952380952,4,2,1,50,0,1
186798,-95.2380952380952,4,2,1,60,0,1
192798,-95.2380952380952,4,2,1,70,0,1
193151,-95.2380952380952,4,2,3,70,0,1
194386,-95.2380952380952,4,2,1,50,0,1
194562,-95.2380952380952,4,2,1,55,0,1
194924,348.837209302326,4,2,1,55,1,1
195268,-95.2380952380952,4,2,1,65,0,1
195621,352.941176470588,4,2,1,65,1,0
195621,-250,4,2,1,70,0,0
195973,-250,4,2,4,40,0,0
198268,-250,4,2,1,40,0,0
198445,357.142857142857,4,2,1,40,1,0
198445,-250,4,2,1,40,0,0
198797,-250,4,2,4,40,0,0
199873,352.941176470588,4,2,4,40,1,0
199873,-250,4,2,4,40,0,0
200755,-250,4,2,1,40,0,0
200931,-250,4,2,4,40,0,0
201108,-250,4,2,1,40,0,0
201636,-250,4,2,4,40,0,0
203931,-250,4,2,1,40,0,0
204108,348.837209302326,4,2,1,40,1,0
204108,-250,4,2,1,40,0,0
204456,-250,4,2,4,40,0,0
205154,-76.9230769230769,4,2,3,60,0,0
205415,-76.9230769230769,4,2,1,50,0,0
205503,352.941176470588,4,2,1,50,1,0
206208,361.44578313253,4,2,1,60,1,0
206569,-100,4,2,1,50,0,0
206810,315.789473684211,4,2,1,50,1,0
206915,352.941176470588,4,2,1,70,1,0
206915,-125,4,2,1,70,0,0
207620,-125,4,2,2,70,0,0
211326,-125,4,2,1,70,0,0
212562,-100,4,2,1,70,0,0
213267,-100,4,2,1,70,0,0
218209,-111.111111111111,4,2,1,60,0,0
218561,-111.111111111111,4,2,2,60,0,0
220679,-111.111111111111,4,2,3,60,0,0
221032,-100,4,2,3,60,0,0
221384,-100,4,2,3,40,0,0
221562,-100,4,2,1,40,0,0
221738,-100,4,2,1,45,0,0
223503,-100,4,2,1,70,0,0
233738,-250,4,2,1,40,0,0
234620,-250,4,2,3,40,0,0
235150,-166.666666666667,4,2,1,50,0,0
240444,-100,4,2,1,50,0,0
241326,-166.666666666667,4,2,1,40,0,0
241503,-166.666666666667,4,2,1,45,0,0
241856,-166.666666666667,4,2,1,50,0,0
242209,-166.666666666667,4,2,1,55,0,0
242562,-166.666666666667,4,2,1,60,0,0
243267,-100,4,2,1,60,0,0
245032,-100,4,2,1,70,0,0
245209,-100,4,2,1,60,0,0
245738,-100,4,2,1,70,0,0
245914,-100,4,2,1,60,0,0
246091,-100,4,2,1,70,0,0
246179,-100,4,2,1,60,0,0
246444,-95.2380952380952,4,2,2,70,0,1
246796,-95.2380952380952,4,2,1,70,0,1
251738,-95.2380952380952,4,2,3,70,0,1
252091,-95.2380952380952,4,2,1,70,0,1
256326,-95.2380952380952,4,2,2,70,0,1
256679,-95.2380952380952,4,2,1,70,0,1
257032,-95.2380952380952,4,2,1,60,0,1
257209,-95.2380952380952,4,2,1,55,0,1
257385,-95.2380952380952,4,2,1,50,0,1
257562,-95.2380952380952,4,2,1,45,0,1
257738,-105.263157894737,4,2,1,60,0,1
261973,-105.263157894737,4,2,1,70,0,1
262503,-105.263157894737,4,2,3,70,0,1
263385,-105.263157894737,4,2,1,60,0,1
264091,-105.263157894737,4,2,2,60,0,1
266209,-105.263157894737,4,2,1,40,0,0
267620,-100,4,2,1,50,0,0
268679,-100,4,2,1,60,0,0
269032,-95.2380952380952,4,2,1,60,0,1
275032,-68.9655172413793,4,2,1,60,0,1
275385,-95.2380952380952,4,2,1,60,0,1
276443,-95.2380952380952,4,2,3,60,0,1
277503,-95.2380952380952,4,2,1,60,0,1
277855,-95.2380952380952,4,2,1,45,0,1
278209,-95.2380952380952,4,2,1,50,0,1
278562,-95.2380952380952,4,2,1,55,0,1
278914,-95.2380952380952,4,2,1,60,0,1
279267,-95.2380952380952,4,2,1,65,0,1
279620,-95.2380952380952,4,2,1,70,0,1
280326,-95.2380952380952,4,2,2,70,0,0
283150,-95.2380952380952,4,2,1,10,0,0

[Colours]
Combo1 : 96,168,255
Combo2 : 125,222,251

[HitObjects]
387,85,653,5,0,3:0:0:0:
387,85,739,1,0,3:0:0:0:
387,85,826,2,0,P|392:50|398:15,2,70.4,6|0|0,3:2|2:0|2:0,2:0:0:0:
428,161,1337,1,0,2:0:0:0:
428,161,1712,5,2,2:0:0:0:
317,97,1888,2,0,L|387:84,1,70.4,2|2,2:0|2:0,2:0:0:0:
357,225,2241,2,0,P|300:185|233:197,1,140.8,2|2,2:0|2:0,2:0:0:0:
42,137,2938,2,0,P|52:206|63:276,1,140.8,2|2,2:0|2:0,2:0:0:0:
235,358,3656,6,0,B|203:296|133:316|133:316|113:353|69:357,1,195.696174666667,2|0,2:0|2:0,2:0:0:0:
34,215,4540,5,2,2:0:0:0:
33,214,4706,2,0,P|54:241|63:275,1,70.8224,2|2,2:0|2:0,2:0:0:0:
135,315,5051,6,0,P|202:304|245:250,1,140.8,2|2,2:0|2:0,2:0:0:0:
197,183,5581,1,2,2:0:0:0:
197,183,5933,5,2,2:0:0:0:
328,227,6463,6,0,P|336:157|348:87,1,140.8,2|0,2:0|2:0,2:0:0:0:
291,21,6992,1,0,2:0:0:0:
291,21,7367,5,2,2:0:0:0:
417,74,7543,2,0,P|382:80|348:87,1,70.4,2|2,2:0|2:0,2:0:0:0:
199,54,7896,5,2,2:0:0:0:
107,39,8242,1,2,2:0:0:0:
64,121,8589,1,2,2:0:0:0:
129,187,8954,1,2,2:0:0:0:
212,146,9306,1,2,2:0:0:0:
166,309,9674,5,0,2:0:0:0:
166,309,9850,2,0,P|108:272|40:285,1,141.198933333333,0|2,2:0|2:0,2:0:0:0:
113,118,10366,2,0,L|129:188,1,70.82944,2|2,2:0|2:0,2:0:0:0:
254,345,10711,5,2,2:0:0:0:
346,360,11075,1,2,2:0:0:0:
389,278,11434,1,2,2:0:0:0:
324,212,11598,1,0,3:0:0:0:
324,212,11763,2,0,P|329:177|335:136,1,70.4,6|0,2:0|2:0,2:0:0:0:
360,119,12035,5,0,2:0:0:0:
360,119,12126,2,0,P|354:84|349:49,2,70.4,6|0|0,2:0|2:0|2:0,2:0:0:0:
229,2,12655,2,0,P|175:44|106:38,1,141.198933333333,0|2,3:0|3:2,2:0:0:0:
220,196,13195,2,0,L|238:107,1,70.4,2|2,2:0|3:2,2:0:0:0:
19,252,13545,6,0,P|86:242|141:284,1,140.8,2|2,3:2|2:0,2:0:0:0:
234,127,14072,1,0,3:0:0:0:
234,127,14247,2,0,L|165:141,1,70.4,2|0,2:0|3:0,2:0:0:0:
265,245,14598,1,2,2:0:0:0:
365,175,14773,5,0,3:0:0:0:
365,175,14861,1,0,3:0:0:0:
365,175,14949,2,0,P|377:244|390:313,1,140.8,2|0,3:2|2:0,2:0:0:0:
472,187,15469,2,0,P|463:143|455:99,1,70.4,0|0,3:0|2:0,2:0:0:0:
294,64,15816,1,2,3:2:0:0:
411,20,15998,1,2,3:2:0:0:
365,175,16181,5,4,2:3:0:0:
365,175,16273,1,4,2:3:0:0:
365,175,16364,1,14,1:2:0:0:
163,120,16538,1,0,1:0:0:0:
312,9,16712,1,14,1:2:0:0:
246,219,16887,1,4,2:3:0:0:
51,115,17061,5,2,1:2:0:0:
238,253,17236,1,8,2:0:0:0:
238,253,17323,1,8,2:0:0:0:
238,253,17410,2,0,L|246:218,1,35.2,10|8,1:2|2:0,2:0:0:0:
74,337,17584,2,0,L|82:372,1,35.2,8|8,2:0|2:0,2:0:0:0:
15,267,17759,6,0,P|96:250|149:293,1,140.8,4|0,1:0|1:0,2:0:0:0:
246,93,18288,2,0,P|204:106|162:119,1,88,2|0,2:0|1:0,2:0:0:0:
245,218,18641,1,0,2:0:0:0:
364,149,18817,2,0,P|377:191|390:233,1,88,2|8,1:2|2:0,2:0:0:0:
404,279,19082,5,8,2:0:0:0:
404,279,19170,1,0,1:0:0:0:
245,218,19347,1,2,2:0:0:0:
364,149,19523,2,0,P|377:107|390:65,1,88,0|0,1:0|2:0,2:0:0:0:
304,306,19876,5,2,1:2:0:0:
93,228,20053,1,8,2:0:0:0:
258,124,20229,1,2,1:2:0:0:
176,331,20406,5,4,2:3:0:0:
176,331,20494,1,4,2:3:0:0:
176,331,20582,1,4,1:0:0:0:
287,229,20758,1,8,2:0:0:0:
287,229,20847,1,8,2:0:0:0:
287,229,20935,2,0,L|244:217,1,44,8|8,1:2|2:0,2:0:0:0:
121,138,21111,2,0,L|163:126,1,44,8|8,2:0|2:0,2:0:0:0:
269,81,21288,6,0,L|257:123,1,44,8|8,1:2|2:0,2:0:0:0:
304,306,21464,1,8,2:0:0:0:
315,271,21553,1,8,2:0:0:0:
338,243,21641,1,8,1:2:0:0:
370,224,21729,1,8,2:0:0:0:
406,218,21817,1,8,2:0:0:0:
442,225,21906,1,8,2:0:0:0:
473,243,21994,5,4,1:0:0:0:
256,192,22082,12,0,23053,2:0:0:0:
431,359,23416,6,0,L|440:307,1,52.7999999999999,0|0,2:0|2:0,2:0:0:0:
362,204,23768,2,0,L|372:262,1,52.7999999999999,0|2,2:0|2:0,2:0:0:0:
311,314,24121,2,0,P|276:295|238:301,2,79.1999999999998,2|2|2,2:0|2:0|2:0,2:0:0:0:
371,255,24827,6,0,P|377:202|384:150,1,105.6,2|2,2:0|2:0,2:0:0:0:
312,109,25357,2,0,P|308:82|305:56,1,52.7999999999999,2|0,2:0|2:0,2:0:0:0:
213,11,25710,1,2,2:0:0:0:
213,11,25886,2,0,P|209:37|206:63,1,52.7999999999999,0|2,2:0|2:0,2:0:0:0:
129,106,26239,6,0,P|83:81|33:92,1,105.6,0|0,2:0|2:0,2:0:0:0:
63,213,26768,2,0,P|66:186|69:160,1,52.7999999999999,0|0,2:0|2:0,2:0:0:0:
154,269,27121,1,2,2:0:0:0:
154,269,27298,2,0,P|157:242|160:216,1,52.7999999999999,2|2,2:0|2:0,2:0:0:0:
206,63,27651,6,0,P|257:71|305:51,1,105.6,0|0,2:0|2:0,2:0:0:0:
388,93,28180,1,0,2:0:0:0:
388,93,28357,2,0,P|392:66|397:41,1,52.7999999999999,2|0,2:0|2:0,2:0:0:0:
498,110,28710,2,0,P|504:149|509:188,1,79.1999999999998,2|0,2:0|2:0,2:0:0:0:
509,188,29063,6,0,P|458:177|414:204,1,105.6,0|0,2:0|2:0,2:0:0:0:
363,269,29592,1,2,2:0:0:0:
281,224,29768,1,2,2:0:0:0:
281,224,29945,2,0,P|269:275|260:327,1,105.6,2|2,2:0|2:0,2:0:0:0:
184,377,30474,6,0,P|142:346|91:353,1,105.6,2|2,2:0|2:0,2:0:0:0:
160,209,31004,2,0,P|163:235|167:261,1,52.7999999999999,2|0,2:0|2:0,2:0:0:0:
63,213,31357,2,0,P|67:186|70:160,1,52.7999999999999,2|0,2:0|2:0,2:0:0:0:
54,64,31710,1,2,2:0:0:0:
54,64,31886,6,0,B|123:79|123:79|155:64,1,105.6,2|0,2:0|2:0,2:0:0:0:
228,107,32416,1,2,2:0:0:0:
304,9,32592,2,0,P|315:60|325:112,1,105.6,2|0,2:0|2:0,2:0:0:0:
325,112,33278,6,0,P|370:86|421:93,1,105.6,2|2,2:0|2:0,2:0:0:0:
494,188,33813,1,0,2:0:0:0:
494,188,33992,2,0,L|507:136,1,52.7999999999999,2|0,2:0|3:0,2:0:0:0:
435,281,34260,1,0,3:0:0:0:
435,281,34349,2,0,P|400:262|362:268,1,79.1999999999998,6|0,2:0|2:0,2:0:0:0:
309,341,34700,6,0,P|301:279|289:219,2,123.2,4|2|2,2:0|3:2|3:2,2:0:0:0:
309,341,35758,2,0,P|278:335|248:329,1,61.5999999999999,2|0,3:2|2:0,2:0:0:0:
160,209,36111,6,0,P|113:247|53:243,1,123.2,0|0,3:0|3:0,2:0:0:0:
67,80,36641,1,2,2:0:0:0:
67,80,36817,2,0,P|78:124|88:169,1,92.3999999999999,2|2,3:2|2:0,2:0:0:0:
160,209,37170,2,0,P|152:238|145:268,1,61.5999999999999,0|2,3:0|2:0,2:0:0:0:
242,176,37523,6,0,P|293:207|353:198,1,123.2,2|2,3:2|3:2,2:0:0:0:
321,66,38053,1,2,2:0:0:0:
321,66,38229,2,0,P|315:96|309:126,1,61.5999999999999,0|2,3:0|2:0,2:0:0:0:
450,267,38582,2,0,P|404:262|363:282,1,92.3999999999999,2|0,3:2|2:0,2:0:0:0:
309,341,38935,6,0,P|249:329|189:317,1,123.2,0|0,3:0|3:0,2:0:0:0:
41,233,39464,1,0,2:0:0:0:
100,332,39641,6,0,P|106:302|112:272,1,61.5999999999999,2|0,3:2|2:0,2:0:0:0:
176,165,39994,2,0,P|182:195|188:225,1,61.5999999999999,2|2,3:2|2:0,2:0:0:0:
0,110,40347,6,0,P|59:119|110:87,1,123.2,0|2,1:0|3:2,2:0:0:0:
276,126,40876,1,0,2:0:0:0:
221,0,41053,2,0,P|215:30|209:60,1,61.5999999999999,0|0,3:0|2:0,2:0:0:0:
368,140,41406,2,0,P|362:110|356:80,1,61.5999999999999,2|0,3:2|2:0,2:0:0:0:
280,219,41758,5,2,3:2:0:0:
387,384,41935,1,0,2:0:0:0:
387,384,42111,2,0,P|377:325|369:266,1,118.8,6|0,3:2|2:0,2:0:0:0:
390,233,42464,2,0,L|427:246,1,39.6,0|8,1:0|2:0,2:0:0:0:
287,167,42641,5,10,2:0:0:0:
286,171,42729,1,8,2:0:0:0:
285,175,42817,2,0,L|279:219,1,44,8|8,1:2|2:0,2:0:0:0:
193,267,42994,2,0,L|199:311,1,44,10|8,2:0|2:0,2:0:0:0:
26,219,43170,6,0,P|68:209|111:200,1,88,4|2,1:2|1:2,2:0:0:0:
226,51,43523,2,0,P|290:65|354:79,1,132,10|8,2:0|2:0,2:0:0:0:
396,63,43876,1,0,1:0:0:0:
279,218,44053,1,0,1:0:0:0:
460,247,44229,2,0,P|482:210|479:167,1,88,10|0,2:0|2:0,2:0:0:0:
354,301,44582,5,2,1:2:0:0:
169,245,44758,1,0,1:0:0:0:
314,126,44935,1,10,2:0:0:0:
252,346,45111,5,0,1:0:0:0:
252,346,45200,1,8,2:0:0:0:
252,346,45288,2,0,L|245:302,1,44,2|0,1:2|2:0,2:0:0:0:
362,254,45464,2,0,L|355:297,1,44,8|8,2:0|2:0,2:0:0:0:
257,177,45641,5,10,1:2:0:0:
239,142,45729,1,8,2:0:0:0:
240,103,45817,1,8,2:0:0:0:
263,70,45906,1,8,2:0:0:0:
298,54,45994,6,0,P|341:62|384:71,1,88,6|0,1:2|1:0,2:0:0:0:
478,228,46347,2,0,P|414:217|361:253,1,132,10|8,2:0|2:0,2:0:0:0:
338,328,46700,2,0,P|294:336|251:345,1,88,0|2,1:0|1:2,2:0:0:0:
87,304,47053,1,10,2:0:0:0:
180,195,47229,5,0,1:0:0:0:
180,195,47317,1,8,2:0:0:0:
180,195,47406,2,0,B|162:253|162:253|181:295|181:295|160:361,1,176,0|8,1:0|2:0,2:0:0:0:
70,165,47935,1,6,2:0:0:0:
276,128,48111,6,0,P|318:140|360:151,1,88,2|4,1:2|1:2,2:0:0:0:
406,167,48376,1,2,2:0:0:0:
406,167,48464,1,12,2:0:0:0:
258,248,48641,1,2,1:2:0:0:
226,51,48817,6,0,P|164:109|80:96,1,176,2|10,1:2|2:0,2:0:0:0:
258,248,49347,1,2,1:2:0:0:
258,248,49435,1,8,2:0:0:0:
258,248,49523,1,0,1:0:0:0:
276,128,49700,1,2,1:2:0:0:
173,322,49876,2,0,P|235:308|291:341,1,132,10|0,2:0|2:0,2:0:0:0:
373,372,50229,6,0,P|385:329|396:287,1,88,0|0,1:0|1:0,2:0:0:0:
512,87,50582,2,0,P|449:101|391:73,1,132,8|8,2:0|2:0,2:0:0:0:
364,37,50935,5,2,1:2:0:0:
407,243,51111,1,8,2:3:0:0:
193,173,51288,1,4,1:3:0:0:
193,173,51641,6,0,P|205:103|218:34,1,140.8,4|2,1:0|3:2,2:0:0:0:
98,205,52170,1,0,1:0:0:0:
262,249,52347,2,0,P|296:242|331:236,1,70.4,10|0,3:2|2:0,2:0:0:0:
495,212,52700,1,2,3:2:0:0:
395,118,52876,5,8,2:0:0:0:
395,118,52964,1,8,2:0:0:0:
395,118,53053,1,2,1:2:0:0:
474,343,53229,2,0,P|418:303|352:318,1,140.8,8|0,2:0|1:0,2:0:0:0:
274,179,53758,2,0,P|267:213|261:248,1,70.4,10|0,3:2|1:0,2:0:0:0:
239,379,54111,1,10,3:2:0:0:
46,338,54288,5,8,2:0:0:0:
46,338,54376,1,8,2:0:0:0:
45,338,54464,2,0,P|105:290|180:303,1,158.4,4|8,1:0|2:0,2:0:0:0:
274,179,54994,1,0,1:0:0:0:
274,179,55082,1,8,2:0:0:0:
274,179,55170,2,0,P|235:189|197:199,1,79.2000000000001,2|0,1:2|1:0,2:0:0:0:
0,92,55523,2,0,P|54:80|103:112,1,118.8,8|0,2:0|2:0,2:0:0:0:
186,114,55876,6,0,P|196:75|206:37,1,79.2000000000001,2|0,1:2|1:0,2:0:0:0:
40,162,56229,1,8,2:0:0:0:
177,297,56406,1,2,1:2:0:0:
177,297,56494,1,8,2:0:0:0:
177,297,56582,2,0,P|166:335|157:373,1,79.2000000000001,0|0,1:0|1:0,2:0:0:0:
296,282,56935,1,14,2:0:0:0:
89,247,57111,5,0,2:0:0:0:
89,247,57200,1,0,2:0:0:0:
89,247,57288,1,6,1:2:0:0:
234,95,57464,1,8,2:0:0:0:
177,297,57641,1,10,1:2:0:0:
400,225,57817,1,10,2:0:0:0:
117,141,57994,5,8,1:2:0:0:
376,43,58170,1,10,2:0:0:0:
296,282,58347,1,8,1:2:0:0:
226,75,58523,1,10,2:0:0:0:
479,150,58700,5,12,1:2:0:0:
210,202,58876,1,8,2:0:0:0:
210,202,58964,1,8,2:0:0:0:
210,202,59053,2,0,L|215:162,1,39.6,10|8,1:2|2:0,2:0:0:0:
324,114,59229,2,0,L|329:153,1,39.6,10|8,2:0|2:0,2:0:0:0:
226,75,59406,5,12,1:2:0:0:
146,322,59582,1,8,2:0:0:0:
176,297,59670,1,8,2:0:0:0:
214,285,59758,1,10,1:2:0:0:
253,286,59847,1,8,2:0:0:0:
290,301,59935,1,8,2:0:0:0:
319,327,60023,1,8,2:0:0:0:
338,362,60111,6,0,P|350:270|361:178,1,184.8,4|10,1:0|2:0,2:0:0:0:
226,75,60641,1,2,1:2:0:0:
226,75,60729,1,8,2:0:0:0:
226,75,60817,2,0,P|232:120|237:166,1,92.4,0|0,1:0|1:0,2:0:0:0:
41,297,61170,2,0,P|106:279|162:316,1,138.6,10|8,2:0|2:0,2:0:0:0:
241,377,61523,6,0,P|245:331|252:285,1,92.4,2|0,1:2|1:0,2:0:0:0:
472,240,61876,1,10,2:0:0:0:
335,120,62053,1,2,1:2:0:0:
335,120,62141,1,8,2:0:0:0:
335,120,62229,1,0,1:0:0:0:
373,307,62406,1,0,1:0:0:0:
512,96,62582,2,0,P|445:110|387:76,1,138.6,10|8,2:0|2:0,2:0:0:0:
303,21,62935,6,0,P|292:112|284:204,1,184.8,2|8,1:2|2:0,2:0:0:0:
149,384,63464,1,2,1:2:0:0:
149,384,63553,1,8,2:0:0:0:
149,384,63641,1,0,1:0:0:0:
86,225,63817,1,0,1:0:0:0:
267,291,63994,2,0,P|312:282|358:275,1,92.4,8|2,2:0|1:2,2:0:0:0:
403,265,64258,5,8,2:0:0:0:
403,265,64347,2,0,P|412:220|419:174,1,92.4,2|0,1:2|1:0,2:0:0:0:
248,97,64700,1,8,2:0:0:0:
388,18,64876,5,2,1:2:0:0:
388,18,64964,1,8,2:0:0:0:
388,18,65053,1,2,1:2:0:0:
316,189,65229,1,0,1:0:0:0:
141,50,65406,2,0,P|152:118|162:186,1,138.6,10|8,2:0|2:0,2:0:0:0:
84,225,65758,6,0,B|192:197|143:283|256:252,1,184.8,6|10,1:2|2:0,2:0:0:0:
419,188,66288,1,2,1:2:0:0:
419,188,66376,1,8,2:0:0:0:
419,188,66464,1,0,1:0:0:0:
209,128,66641,1,2,1:2:0:0:
344,32,66817,1,10,2:0:0:0:
256,252,66994,5,2,1:2:0:0:
256,252,67082,1,8,2:0:0:0:
256,252,67170,2,0,B|298:219|344:238|344:238|366:283|418:279,1,184.8,0|10,1:0|2:0,2:0:0:0:
445,107,67700,1,2,1:2:0:0:
445,107,67788,1,8,2:0:0:0:
445,106,67876,2,0,P|417:141|418:187,1,92.4,0|2,1:0|1:2,2:0:0:0:
298,336,68229,2,0,P|241:299|177:317,1,138.6,8|8,2:0|2:0,2:0:0:0:
114,379,68582,6,0,B|132:315|132:315|110:272|110:272|127:204,1,184.8,2|8,1:2|2:0,2:0:0:0:
53,33,69111,1,2,1:2:0:0:
53,33,69200,1,8,2:0:0:0:
53,33,69288,2,0,P|98:24|143:16,1,92.4,2|0,1:2|1:0,2:0:0:0:
299,145,69641,2,0,P|254:136|209:128,1,92.4,8|0,2:0|1:0,2:0:0:0:
167,118,69906,5,8,2:0:0:0:
167,118,69994,1,6,1:2:0:0:
358,44,70170,1,0,1:0:0:0:
418,278,70347,2,0,P|363:238|296:248,1,138.6,10|8,2:0|2:0,2:0:0:0:
219,211,70700,2,0,L|210:256,1,46.2,14|8,1:2|2:0,2:0:0:0:
134,356,70876,1,8,2:0:0:0:
88,360,70964,1,8,2:0:0:0:
45,343,71053,1,10,1:2:0:0:
15,309,71141,1,8,2:0:0:0:
5,264,71229,1,8,2:0:0:0:
13,220,71317,1,8,2:0:0:0:
43,184,71406,6,0,B|146:160|114:235|218:210,1,184.8,4|10,1:0|2:0,2:0:0:0:
389,168,71935,1,2,1:2:0:0:
389,168,72023,1,8,2:0:0:0:
389,168,72111,1,0,1:0:0:0:
180,123,72288,1,2,1:2:0:0:
310,3,72464,1,8,2:0:0:0:
278,192,72641,5,2,1:2:0:0:
278,192,72729,1,8,2:0:0:0:
278,192,72817,2,0,B|259:261|259:261|282:301|282:301|266:366,1,184.8,0|10,1:0|2:0,2:0:0:0:
443,267,73347,1,2,1:2:0:0:
443,267,73435,1,8,2:0:0:0:
443,267,73523,2,0,P|406:240|361:243,1,92.4,0|0,1:0|1:0,2:0:0:0:
193,139,73876,2,0,P|260:142|308:95,1,138.6,8|8,2:0|2:0,2:0:0:0:
180,123,74229,6,0,P|193:214|205:306,1,184.8,2|10,1:2|2:0,2:0:0:0:
308,94,74758,1,2,1:2:0:0:
308,94,74847,1,8,2:0:0:0:
308,94,74935,1,0,1:0:0:0:
110,40,75111,1,2,1:2:0:0:
194,213,75288,2,0,P|239:204|284:196,1,92.4,8|2,2:0|1:2,2:0:0:0:
467,113,75641,5,0,1:0:0:0:
221,47,75817,1,2,1:2:0:0:
372,230,75994,1,10,2:0:0:0:
363,0,76170,5,2,1:2:0:0:
363,0,76258,1,8,2:0:0:0:
363,0,76347,1,0,1:0:0:0:
284,195,76523,1,0,1:0:0:0:
512,136,76700,1,8,2:0:0:0:
416,352,76876,5,10,2:0:0:0:
416,352,76964,1,8,2:0:0:0:
416,352,77053,2,0,P|351:288|264:303,1,184.8,4|10,1:2|2:0,2:0:0:0:
109,199,77582,1,2,1:2:0:0:
109,199,77670,1,8,2:0:0:0:
109,198,77758,2,0,P|119:243|127:288,1,92.4,0|2,1:0|1:2,2:0:0:0:
384,126,78111,2,0,P|316:134|263:92,1,138.6,10|8,2:0|2:0,2:0:0:0:
226,18,78464,6,0,B|254:126|168:77|199:190,1,184.8,0|8,1:0|2:0,2:0:0:0:
339,347,78994,1,2,1:2:0:0:
127,288,79170,5,2,1:2:0:0:
290,154,79347,1,0,1:0:0:0:
290,154,79435,1,2,2:0:0:0:
290,154,79523,1,8,2:0:0:0:
234,371,79700,1,2,1:2:0:0:
145,185,79876,5,2,1:2:0:0:
376,269,80053,1,0,1:0:0:0:
330,48,80229,1,8,2:0:0:0:
261,256,80406,5,2,2:0:0:0:
261,256,80494,1,0,2:0:0:0:
261,256,80582,1,2,1:2:0:0:
490,200,80758,1,0,1:0:0:0:
330,48,80935,2,0,P|322:93|316:139,1,92.4,12|0,2:0|1:0,2:0:0:0:
376,269,81288,5,8,1:2:0:0:
376,269,81376,1,8,2:0:0:0:
376,269,81464,2,0,L|384:223,1,46.2,0|8,2:0|2:0,2:0:0:0:
219,106,81641,5,8,1:3:0:0:
219,106,81729,1,0,2:0:0:0:
219,106,81817,2,0,L|227:151,1,46.2,8|8,2:0|2:0,2:0:0:0:
179,353,81994,5,14,1:2:0:0:
147,368,82082,1,8,2:0:0:0:
113,370,82170,1,8,2:0:0:0:
81,358,82258,1,8,2:0:0:0:
56,333,82347,1,10,1:2:0:0:
46,290,82435,1,8,2:0:0:0:
58,245,82523,1,8,2:0:0:0:
91,214,82611,1,8,2:0:0:0:
133,202,82700,6,0,B|201:211|201:211|231:248|231:248|300:254,1,184.8,4|10,1:0|2:0,2:0:0:0:
476,188,83229,1,0,1:0:0:0:
476,188,83317,1,8,2:0:0:0:
476,188,83406,1,0,1:0:0:0:
297,139,83582,1,0,1:0:0:0:
422,18,83758,2,0,P|412:71|404:113,1,92.4,10|0,2:0|1:0,2:0:0:0:
476,188,84023,5,8,2:0:0:0:
476,188,84111,2,0,B|370:174|414:252|307:235,1,184.8,2|10,1:2|2:0,2:0:0:0:
154,29,84641,1,2,1:2:0:0:
154,29,84729,1,8,2:0:0:0:
154,28,84817,2,0,P|165:72|174:117,1,92.4,0|0,1:0|1:0,2:0:0:0:
120,271,85170,1,10,2:0:0:0:
31,126,85347,1,0,1:0:0:0:
54,382,85523,6,0,P|119:321|205:340,1,184.8,2|8,1:2|2:0,2:0:0:0:
297,139,86053,1,2,1:2:0:0:
297,139,86141,1,8,2:0:0:0:
297,139,86229,2,0,P|252:151|207:163,1,92.4,0|0,1:0|1:0,2:0:0:0:
405,302,86582,2,0,P|417:257|429:212,1,92.4,8|2,2:0|1:2,2:0:0:0:
297,139,86935,5,2,1:2:0:0:
486,63,87111,1,0,1:0:0:0:
350,0,87288,1,8,2:0:0:0:
429,212,87464,5,2,1:2:0:0:
429,212,87553,1,8,2:0:0:0:
429,212,87641,1,2,1:2:0:0:
185,139,87817,1,0,1:0:0:0:
350,0,87994,1,8,2:0:0:0:
295,254,88170,5,10,2:0:0:0:
295,254,88258,1,8,2:0:0:0:
295,254,88347,2,0,B|222:239|222:239|165:251|141:307,1,184.8,6|8,1:2|2:0,2:0:0:0:
46,109,88876,1,0,1:2:0:0:
46,109,88964,1,8,2:0:0:0:
46,109,89053,2,0,P|91:118|136:127,1,92.4,2|0,1:2|1:0,2:0:0:0:
185,139,89317,1,2,2:0:0:0:
185,139,89406,1,8,2:0:0:0:
340,47,89582,1,2,1:2:0:0:
295,254,89758,6,0,P|360:314|447:296,1,184.8,2|10,1:2|2:0,2:0:0:0:
414,119,90288,1,2,1:2:0:0:
414,119,90376,1,8,2:0:0:0:
413,119,90464,2,0,P|368:131|323:143,1,92.4,0|2,1:0|1:2,2:0:0:0:
207,14,90817,1,8,2:0:0:0:
227,210,90994,5,2,1:2:0:0:
227,210,91082,1,8,2:0:0:0:
227,210,91170,2,0,B|219:248|206:275|206:275|223:318|223:318|209:346|203:384,1,184.8,6|8,1:2|2:0,2:0:0:0:
41,336,91700,1,2,1:2:0:0:
41,336,91788,1,8,2:0:0:0:
40,336,91876,2,0,P|84:323|130:321,1,92.4,2|0,1:2|1:0,2:0:0:0:
301,160,92229,2,0,P|232:156|166:138,1,138.6,8|0,2:0|2:0,2:0:0:0:
127,111,92582,5,12,2:0:0:0:
348,25,92758,1,0,1:0:0:0:
302,254,92935,1,8,2:0:0:0:
221,40,93111,1,0,1:0:0:0:
468,99,93288,5,10,1:2:0:0:
301,160,93464,1,8,2:3:0:0:
301,160,93553,1,8,2:3:0:0:
301,160,93641,2,0,L|292:114,1,46.2,0|4,1:0|2:3,2:0:0:0:
445,204,93817,2,0,L|436:249,1,46.2,4|4,2:3|2:3,2:0:0:0:
354,366,93994,6,0,P|287:306|201:328,1,184.8,4|2,1:0|1:2,2:0:0:0:
32,274,94523,2,0,P|41:319|51:364,1,92.4,2|0,2:0|1:0,2:0:0:0:
188,220,94876,1,2,2:0:0:0:
116,109,95053,2,0,P|106:154|96:199,1,92.4,0|2,1:0|2:0,2:0:0:0:
201,328,95406,6,0,P|267:268|353:290,1,184.8,0|0,1:0|1:0,2:0:0:0:
468,155,95935,1,2,2:0:0:0:
405,26,96111,2,0,P|386:92|372:160,1,138.6,2|2,1:2|2:0,2:0:0:0:
292,114,96464,2,0,P|247:124|201:133,1,92.4,0|2,1:0|2:0,2:0:0:0:
128,202,96817,6,0,P|106:115|158:43,1,184.8,2|2,1:2|1:2,2:0:0:0:
157,311,97347,2,0,P|111:303|65:295,1,92.4,2|0,2:0|1:0,2:0:0:0:
201,132,97700,2,0,P|208:177|216:223,1,92.4,2|0,2:0|1:0,2:0:0:0:
443,326,98053,5,2,2:0:0:0:
443,326,98141,1,0,2:0:0:0:
443,326,98229,1,14,2:0:0:0:
216,223,98406,1,0,1:0:0:0:
412,104,98582,1,2,1:2:0:0:
296,372,98758,1,14,2:0:0:0:
296,372,99111,5,14,2:0:0:0:
509,245,99288,2,0,P|463:235|418:225,1,92.4,0|10,2:0|2:0,2:0:0:0:
349,259,99553,5,8,2:0:0:0:
349,260,99641,2,0,P|290:209|215:222,1,158.4,4|0,1:0|3:0,2:0:0:0:
54,101,100170,1,0,1:0:0:0:
54,101,100347,2,0,P|58:140|63:179,1,79.2000000000001,8|2,3:2|2:0,2:0:0:0:
215,221,100700,2,0,P|210:260|205:299,1,79.2000000000001,0|8,3:0|2:0,2:0:0:0:
176,132,100964,5,8,2:0:0:0:
176,132,101053,2,0,P|236:179|312:168,1,158.4,2|0,1:2|3:0,2:0:0:0:
512,108,101582,1,0,1:0:0:0:
301,39,101758,5,10,3:2:0:0:
441,208,101935,1,8,2:0:0:0:
428,3,102111,1,10,3:2:0:0:
312,168,102288,1,8,2:0:0:0:
176,132,102464,5,2,2:0:0:0:
176,132,103700,2,0,L|179:108,3,23.4666666666667,2|2|2|2,2:0|2:0|2:0|2:0,2:0:0:0:
369,38,104935,5,10,2:0:0:0:
419,23,105023,1,8,2:0:0:0:
467,40,105111,1,10,2:0:0:0:
493,85,105200,1,8,2:0:0:0:
485,136,105288,6,0,B|377:112|416:192|311:167,1,184.8,4|8,1:0|2:0,2:0:0:0:
163,40,105817,1,0,1:0:0:0:
163,40,105906,1,8,2:0:0:0:
163,40,105994,2,0,P|169:85|175:131,1,92.4,0|2,1:0|1:2,2:0:0:0:
262,269,106347,1,10,2:0:0:0:
47,222,106523,1,2,1:2:0:0:
122,384,106700,6,0,P|167:374|215:364,1,92.4,2|0,1:2|1:0,2:0:0:0:
311,167,107053,2,0,P|378:181|450:197,1,138.6,10|8,2:0|2:0,2:0:0:0:
486,219,107406,2,0,P|506:178|504:132,1,92.4,2|0,1:2|1:0,2:0:0:0:
286,27,107758,2,0,P|293:72|301:118,1,92.4,10|4,2:0|2:3,2:0:0:0:
311,167,108023,5,4,2:3:0:0:
311,167,108111,1,14,2:0:0:0:
47,222,108285,1,0,1:0:0:0:
158,19,108459,1,8,2:0:0:0:
210,291,108634,1,2,1:2:0:0:
446,196,108808,5,10,2:0:0:0:
194,116,108983,1,0,1:0:0:0:
387,17,109157,1,8,2:0:0:0:
303,269,109331,1,4,2:3:0:0:
237,14,109506,5,14,1:2:0:0:
496,98,109682,1,8,2:0:0:0:
222,201,109858,1,10,1:2:0:0:
451,281,110035,1,8,2:0:0:0:
418,59,110211,5,10,1:2:0:0:
418,59,110300,1,0,2:0:0:0:
418,59,110390,2,0,L|406:103,1,46.2,8|8,2:0|2:0,2:0:0:0:
371,232,110570,1,10,1:2:0:0:
345,193,110660,1,8,2:0:0:0:
305,172,110749,1,8,2:0:0:0:
259,175,110839,1,8,2:0:0:0:
222,201,110929,6,0,B|169:242|169:242|102:252|62:203,1,184.799994360352,4|8,1:0|2:0,2:0:0:0:
123,10,111458,1,2,1:2:0:0:
123,10,111546,1,8,2:0:0:0:
123,10,111634,2,0,P|129:55|136:101,1,92.3999971801759,2|0,1:2|1:0,2:0:0:0:
145,145,111899,1,2,2:0:0:0:
145,145,111987,1,8,2:0:0:0:
291,35,112164,5,2,1:2:0:0:
291,35,112252,1,8,2:0:0:0:
291,35,112340,2,0,B|387:9|387:9|432:33|414:80,1,184.799994360352,2|10,1:2|2:0,2:0:0:0:
305,172,112870,1,2,1:2:0:0:
305,172,112958,1,8,2:0:0:0:
305,172,113046,2,0,P|311:223|318:277,1,92.3999971801759,0|2,1:0|2:0,2:0:0:0:
404,336,113399,1,8,2:0:0:0:
208,300,113576,5,2,1:2:0:0:
208,300,113664,1,8,2:0:0:0:
208,300,113752,2,0,B|98:279|133:358|25:331,1,184.799994360352,0|8,1:0|2:0,2:0:0:0:
59,190,114281,1,0,1:0:0:0:
59,190,114370,1,8,2:0:0:0:
59,190,114458,2,0,L|68:237,2,46.1999985900879,0|8|2,1:0|2:0|1:2,2:0:0:0:
204,144,114811,1,10,2:0:0:0:
103,51,114987,5,2,1:2:0:0:
103,51,115076,1,8,2:0:0:0:
103,51,115164,2,0,P|189:60|258:-3,1,184.799994360352,0|8,1:0|2:0,2:0:0:0:
398,86,115693,1,0,1:0:0:0:
398,86,115781,1,8,2:0:0:0:
398,86,115870,2,0,P|405:42|416:-8,1,92.3999971801759,2|0,1:2|1:0,2:0:0:0:
305,172,116223,2,0,P|374:166|428:211,1,138.599995770264,10|0,2:0|2:0,2:0:0:0:
448,241,116576,6,0,B|358:230|384:303|286:289,1,176,0|8,1:0|2:0,2:0:0:0:
142,193,117105,1,2,1:2:0:0:
142,193,117193,1,8,2:0:0:0:
142,193,117281,1,2,1:2:0:0:
195,366,117458,1,0,1:0:0:0:
3,312,117634,1,8,2:0:0:0:
232,258,117811,5,2,1:2:0:0:
232,258,117899,1,8,2:0:0:0:
232,258,117987,2,0,P|239:214|247:171,1,88,2|0,1:2|1:0,2:0:0:0:
63,126,118340,1,10,2:0:0:0:
189,48,118517,1,2,1:2:0:0:
189,48,118605,1,8,2:0:0:0:
189,48,118693,2,0,L|182:4,2,44,0|8|2,1:0|2:0|1:2,2:0:0:0:
142,193,119046,1,8,2:0:0:0:
340,149,119223,5,2,1:2:0:0:
340,149,119311,1,8,2:0:0:0:
340,149,119399,2,0,B|397:154|442:168|442:168|450:206|486:222,1,176,2|8,2:0|2:0,2:0:0:0:
424,78,119929,1,2,1:2:0:0:
424,78,120017,1,8,2:0:0:0:
424,77,120105,2,0,P|428:55|433:34,2,44,2|8|0,1:2|2:0|1:0,2:0:0:0:
239,170,120458,2,0,P|248:212|257:255,1,88,8|0,2:0|1:0,2:0:0:0:
329,330,120723,5,8,2:0:0:0:
329,330,120811,2,0,P|338:287|347:244,1,88,2|0,1:2|1:0,2:0:0:0:
145,214,121164,1,10,2:0:0:0:
310,72,121340,5,0,1:0:0:0:
310,72,121429,1,8,2:0:0:0:
310,72,121517,1,2,1:2:0:0:
257,255,121693,1,0,1:0:0:0:
185,75,121870,1,10,2:0:0:0:
399,143,122046,1,0,3:0:0:0:
145,214,122223,6,0,P|83:154|84:68,1,176,0|10,1:0|2:0,2:0:0:0:
191,31,122752,1,0,1:0:0:0:
191,31,122840,1,8,2:0:0:0:
191,31,122928,2,0,P|187:52|184:74,2,44,2|8|0,1:2|2:0|1:0,2:0:0:0:
269,167,123281,2,0,P|261:210|256:254,1,88,10|0,2:0|1:0,2:0:0:0:
184,295,123546,5,8,2:0:0:0:
184,295,123634,2,0,P|265:272|328:329,1,176,0|8,1:0|2:0,2:0:0:0:
508,293,124164,1,2,1:2:0:0:
375,123,124340,2,0,P|384:166|393:209,1,88,2|0,1:2|1:0,2:0:0:0:
406,251,124605,1,2,2:0:0:0:
406,251,124693,1,8,2:0:0:0:
502,109,124870,1,2,1:2:0:0:
283,49,125046,6,0,B|241:15|191:49|191:49|179:86|134:92,1,176,2|10,1:2|2:0,2:0:0:0:
0,60,125576,1,2,1:2:0:0:
0,60,125664,1,8,2:0:0:0:
0,60,125752,2,0,P|10:102|18:146,1,88,0|2,1:0|1:2,2:0:0:0:
184,295,126105,2,0,P|192:251|202:208,1,88,10|0,2:0|1:0,2:0:0:0:
93,322,126370,5,8,2:0:0:0:
93,322,126458,2,0,B|135:299|176:319|176:319|199:364|247:364,1,176,0|8,1:0|2:0,2:0:0:0:
406,251,126987,1,0,1:0:0:0:
406,251,127076,1,8,2:0:0:0:
406,251,127164,2,0,L|399:207,2,44,2|8|0,1:2|2:0|1:0,2:0:0:0:
503,144,127517,1,10,3:2:0:0:
340,107,127693,5,2,2:0:0:0:
340,107,127781,1,0,2:0:0:0:
340,107,127870,2,0,P|296:115|253:125,1,88,0|2,1:0|1:2,2:0:0:0:
50,86,128223,1,10,2:0:0:0:
181,0,128399,1,0,1:0:0:0:
181,0,128487,1,8,2:0:0:0:
181,0,128576,1,0,1:0:0:0:
128,199,128752,1,0,1:0:0:0:
338,137,128928,2,0,P|330:202|321:267,1,132,10|0,2:0|2:0,2:0:0:0:
385,327,129281,6,0,B|281:300|320:379|219:351,1,176,2|10,1:2|2:0,2:0:0:0:
55,298,129811,1,2,1:2:0:0:
55,298,129899,1,0,2:0:0:0:
55,298,129987,1,4,1:2:0:0:
235,254,130164,1,2,1:2:0:0:
115,128,130340,1,8,2:0:0:0:
219,351,130517,5,2,2:0:0:0:
219,351,130605,1,0,2:0:0:0:
219,351,130693,2,0,P|261:340|304:329,1,88,4|2,1:2|1:2,2:0:0:0:
490,286,131046,1,10,2:0:0:0:
274,221,131223,1,0,1:0:0:0:
274,221,131311,1,0,1:0:0:0:
274,221,131399,1,0,1:0:0:0:
436,137,131576,1,0,1:0:0:0:
409,351,131752,2,0,P|398:308|387:265,1,88,10|0,2:0|1:0,2:0:0:0:
169,186,132105,5,6,1:2:0:0:
329,122,132281,1,8,2:0:0:0:
329,122,132370,1,8,2:0:0:0:
329,122,132458,2,0,P|323:100|318:79,1,44,2|4,1:2|2:3,2:0:0:0:
212,18,132634,2,0,P|206:39|201:60,1,44,12|4,2:3|2:3,2:0:0:0:
0,222,132811,5,2,1:2:0:0:
30,210,132899,1,8,2:0:0:0:
63,214,132987,1,4,2:3:0:0:
90,232,133076,1,4,2:3:0:0:
107,260,133164,1,2,1:2:0:0:
134,278,133252,1,4,2:3:0:0:
166,284,133340,1,4,2:3:0:0:
198,276,133428,1,4,2:3:0:0:
224,256,133517,6,0,B|327:273|327:273|356:310|332:338,1,176,6|10,1:2|2:0,2:0:0:0:
494,221,134046,1,2,1:2:0:0:
331,337,134223,2,0,P|308:301|312:258,1,88,0|2,1:0|1:2,2:0:0:0:
381,49,134576,1,10,2:0:0:0:
494,221,134752,5,0,1:0:0:0:
494,221,134840,1,0,1:0:0:0:
493,220,134928,2,0,P|429:165|346:184,1,176,0|8,1:0|2:0,2:0:0:0:
212,18,135458,1,2,1:2:0:0:
212,18,135546,1,8,2:0:0:0:
212,18,135634,2,0,P|218:61|225:104,1,88,2|0,1:2|1:0,2:0:0:0:
238,152,135899,1,2,2:0:0:0:
238,152,135987,1,12,2:0:0:0:
49,107,136164,1,2,2:0:0:0:
134,278,136340,6,0,B|158:236|214:242|214:242|243:277|287:265,1,176,6|10,1:2|2:0,2:0:0:0:
431,116,136870,1,2,1:2:0:0:
431,116,136958,1,0,2:0:0:0:
431,116,137046,1,0,1:0:0:0:
238,152,137223,1,2,1:2:0:0:
309,0,137399,1,14,2:0:0:0:
346,210,137576,5,0,1:0:0:0:
346,210,137664,1,0,1:0:0:0:
346,210,137752,2,0,L|356:167,1,44,8|4,1:2|2:3,2:0:0:0:
201,15,137929,1,8,2:0:0:0:
208,23,138017,1,4,2:3:0:0:
215,30,138105,2,0,L|204:72,1,44,0|8,1:0|2:0,2:0:0:0:
97,168,138281,2,0,L|86:125,1,44,8|8,2:3|2:0,2:0:0:0:
21,257,138458,5,2,1:2:0:0:
49,241,138546,1,8,2:0:0:0:
81,240,138634,1,8,2:3:0:0:
112,253,138723,1,8,2:3:0:0:
134,278,138811,1,2,1:2:0:0:
162,295,138899,1,4,2:3:0:0:
194,299,138987,1,4,2:3:0:0:
225,288,139076,1,4,2:3:0:0:
249,266,139164,5,6,1:2:0:0:
203,72,139870,5,6,2:0:0:0:
440,97,140576,5,6,2:0:0:0:
224,175,140752,1,4,2:3:0:0:
292,28,140928,1,4,2:3:0:0:
346,210,141105,1,4,2:3:0:0:
136,155,141281,5,2,2:0:0:0:
348,96,141458,1,4,2:3:0:0:
287,281,141634,1,10,2:0:0:0:
287,281,141723,1,8,2:0:0:0:
287,281,141811,1,8,2:0:0:0:
287,281,141899,1,8,2:0:0:0:
287,281,141987,6,0,P|369:299|432:243,1,176,4|8,1:0|2:0,2:0:0:0:
209,88,142517,1,2,1:2:0:0:
209,88,142605,1,8,2:0:0:0:
209,88,142693,2,0,P|216:131|223:174,1,88,2|0,1:2|1:0,2:0:0:0:
272,367,143046,2,0,P|279:324|287:281,1,88,8|0,2:0|1:0,2:0:0:0:
113,202,143399,5,2,1:2:0:0:
344,150,143576,1,0,1:0:0:0:
199,0,143752,1,8,2:0:0:0:
233,201,143928,5,2,1:2:0:0:
233,201,144017,1,8,2:0:0:0:
233,201,144105,1,0,1:0:0:0:
413,81,144281,1,0,1:0:0:0:
448,340,144458,2,0,P|397:300|334:310,1,132,14|0,2:0|2:0,2:0:0:0:
287,281,144811,6,0,P|279:324|272:367,1,88,6|8,1:2|2:0,2:0:0:0:
113,202,145164,1,10,1:2:0:0:
344,150,145340,1,10,2:0:0:0:
192,18,145517,5,8,1:2:0:0:
236,221,145693,1,10,2:0:0:0:
0,160,145870,1,8,1:2:0:0:
269,80,146046,1,10,2:0:0:0:
170,293,146223,5,12,1:2:0:0:
96,79,146399,1,8,2:0:0:0:
96,79,146487,1,8,2:0:0:0:
96,79,146576,2,0,L|138:91,1,44,10|8,1:2|2:0,2:0:0:0:
278,208,146752,2,0,L|235:220,1,44,10|8,2:0|2:0,2:0:0:0:
304,33,146928,5,8,1:2:0:0:
324,58,147017,1,8,2:0:0:0:
353,74,147105,1,8,2:0:0:0:
385,78,147193,1,8,2:0:0:0:
417,70,147281,2,0,L|425:26,1,44,10|8,1:2|2:0,2:0:0:0:
498,175,147458,2,0,L|506:218,1,44,8|8,2:0|2:0,2:0:0:0:
472,361,147634,6,0,P|407:301|319:314,1,184.8,4|10,1:0|2:0,2:0:0:0:
203,276,148164,1,0,1:2:0:0:
203,276,148252,1,8,2:0:0:0:
203,276,148340,2,0,P|209:321|214:367,1,92.4,0|0,1:0|1:0,2:0:0:0:
0,184,148693,2,0,P|65:202|121:165,1,138.6,10|8,2:0|2:0,2:0:0:0:
165,180,149046,6,0,P|171:135|176:89,1,92.4,2|0,1:2|1:0,2:0:0:0:
278,239,149399,1,10,2:0:0:0:
122,356,149576,1,2,1:2:0:0:
122,356,149664,1,8,2:0:0:0:
122,356,149752,2,0,P|167:362|213:367,1,92.4,0|0,1:0|1:0,2:0:0:0:
389,301,150105,1,10,2:0:0:0:
164,179,150281,5,2,1:2:0:0:
164,179,150370,1,8,2:0:0:0:
164,179,150458,2,0,P|252:196|319:137,1,184.8,2|8,1:2|2:0,2:0:0:0:
96,19,150987,1,2,1:2:0:0:
96,19,151076,1,8,2:0:0:0:
96,19,151164,2,0,P|89:64|81:110,1,92.4,2|0,1:2|1:0,2:0:0:0:
273,243,151517,2,0,P|266:197|258:151,1,92.4,8|2,2:0|1:2,2:0:0:0:
112,300,151870,6,0,B|155:268|201:294|201:294|229:337|277:329,1,184.8,2|8,1:2|2:0,2:0:0:0:
413,223,152399,5,2,1:2:0:0:
413,223,152487,1,8,2:0:0:0:
413,223,152576,2,0,P|367:230|321:236,1,92.4,2|0,1:2|1:0,2:0:0:0:
273,243,152840,1,2,2:0:0:0:
273,243,152928,1,8,2:0:0:0:
411,102,153105,1,2,1:2:0:0:
203,59,153281,6,0,B|162:19|109:43|109:43|97:87|51:95,1,184.8,6|8,1:2|2:0,2:0:0:0:
273,243,153811,1,2,1:2:0:0:
273,243,153899,1,8,2:0:0:0:
273,243,153987,2,0,P|280:197|287:151,1,92.4,2|0,1:2|1:0,2:0:0:0:
69,193,154340,2,0,P|76:238|83:284,1,92.4,8|2,2:0|1:2,2:0:0:0:
0,331,154605,5,8,2:0:0:0:
0,331,154693,2,0,B|42:298|88:317|88:317|110:362|162:358,1,184.8,2|10,1:2|2:0,2:0:0:0:
195,143,155223,1,2,1:2:0:0:
195,143,155311,1,8,2:0:0:0:
195,142,155399,2,0,P|167:177|168:223,1,92.4,0|2,1:0|1:2,2:0:0:0:
277,328,155752,2,0,P|345:319|414:308,1,138.6,8|0,2:0|2:0,2:0:0:0:
456,327,156105,6,0,B|461:291|474:263|474:263|452:220|452:220|465:188|469:152,1,184.8,2|8,1:2|2:0,2:0:0:0:
272,27,156634,1,2,1:2:0:0:
272,27,156723,1,0,2:0:0:0:
272,27,156811,2,0,P|281:72|289:117,1,92.4,2|0,1:2|1:0,2:0:0:0:
318,240,157164,1,12,2:0:0:0:
115,163,157340,5,0,1:0:0:0:
115,163,157428,1,0,1:0:0:0:
115,163,157517,1,12,2:0:0:0:
272,27,157693,1,0,1:0:0:0:
213,307,157870,2,0,P|158:267|91:277,1,138.6,8|0,2:0|2:0,2:0:0:0:
21,186,158223,6,0,L|12:231,1,46.2,14|0,2:0|2:0,2:0:0:0:
115,163,158399,1,8,2:0:0:0:
115,163,158487,1,10,2:0:0:0:
115,163,158576,2,0,L|106:118,1,46.2,8|8,1:2|2:0,2:0:0:0:
35,28,158752,2,0,L|26:73,1,46.2,6|4,2:3|2:3,2:0:0:0:
234,209,158928,6,0,P|297:157|377:173,1,167.2,4|2,1:0|1:2,2:0:0:0:
499,285,159458,2,0,L|512:201,1,83.5999999999999,2|0,2:0|1:0,2:0:0:0:
318,240,159811,2,0,L|331:323,1,83.5999999999999,2|0,2:0|1:0,2:0:0:0:
238,379,160164,1,2,2:0:0:0:
238,379,160340,6,0,P|168:336|90:360,1,167.2,0|0,1:0|1:0,2:0:0:0:
17,188,160870,1,2,2:0:0:0:
17,188,161046,2,0,L|145:212,1,125.4,2|2,1:2|2:0,2:0:0:0:
217,168,161399,2,0,P|227:128|210:90,1,83.5999999999999,0|2,1:0|2:0,2:0:0:0:
141,212,161752,6,0,P|155:294|167:376,1,167.2,2|2,1:2|1:2,2:0:0:0:
318,240,162281,2,0,P|310:281|304:322,2,83.5999999999999,2|0|2,2:0|1:0|2:0,2:0:0:0:
445,161,162811,2,0,P|451:202|458:243,1,88,4|2,1:2|2:0,2:0:0:0:
210,90,163164,5,14,2:0:0:0:
370,2,163340,1,0,1:0:0:0:
318,240,163517,1,2,1:2:0:0:
88,150,163693,1,14,2:0:0:0:
88,150,164046,5,14,2:0:0:0:
210,90,164218,2,0,P|217:131|224:172,1,88,0|10,2:0|2:0,2:0:0:0:
320,240,164477,5,8,2:0:0:0:
320,240,164563,2,0,P|230:230|171:297,1,184.799994360352,4|8,1:0|2:0,2:0:0:0:
88,150,165092,1,0,1:0:0:0:
88,150,165180,1,8,2:0:0:0:
88,149,165268,2,0,P|78:194|70:239,1,92.4,0|0,1:0|1:0,2:0:0:0:
95,344,165621,2,0,P|160:330|216:368,1,138.6,8|0,2:0|2:0,2:0:0:0:
301,330,165974,6,0,P|309:284|319:239,1,92.4,2|0,1:2|1:0,2:0:0:0:
205,137,166327,1,8,2:0:0:0:
402,64,166504,1,0,1:0:0:0:
402,64,166592,1,8,2:0:0:0:
402,64,166680,1,2,1:2:0:0:
319,239,166857,1,0,1:0:0:0:
188,46,167033,2,0,P|196:91|204:136,1,92.4,10|8,2:0|2:0,2:0:0:0:
301,330,167386,6,0,B|404:304|358:393|470:366,1,184.8,6|10,1:2|2:0,2:0:0:0:
445,161,167915,1,2,1:2:0:0:
445,161,168004,1,8,2:0:0:0:
445,161,168092,2,0,P|433:205|423:250,1,92.4,0|2,1:0|1:2,2:0:0:0:
204,136,168445,1,8,2:0:0:0:
359,36,168621,5,2,1:2:0:0:
359,36,168710,1,0,2:0:0:0:
359,36,168798,1,14,1:2:0:0:
319,239,168976,1,8,2:0:0:0:
319,239,169065,1,8,2:0:0:0:
319,239,169155,2,0,P|314:216|308:194,1,46.2,8|8,1:2|2:0,2:0:0:0:
204,136,169333,2,0,P|208:113|214:91,1,46.2,10|8,2:0|2:0,2:0:0:0:
73,249,169512,5,10,1:2:0:0:
113,227,169601,1,8,2:0:0:0:
159,228,169690,1,8,2:0:0:0:
199,249,169780,1,8,2:0:0:0:
225,287,169869,1,10,1:2:0:0:
250,324,169958,1,8,2:0:0:0:
290,346,170048,1,10,2:0:0:0:
336,346,170137,1,8,2:0:0:0:
377,325,170226,5,4,1:0:0:0:
367,129,177284,5,2,3:2:0:0:
270,111,177637,5,2,3:2:0:0:
173,93,177990,5,4,3:2:0:0:
173,93,178167,1,2,2:0:0:0:
63,223,178343,2,0,P|125:211|173:253,1,132,0|0,1:0|1:0,2:0:0:0:
166,288,178689,6,0,B|286:258|232:353|363:321,1,211.2,4|2,1:0|1:2,2:0:0:0:
510,278,179394,5,10,2:0:0:0:
297,200,179571,1,0,1:0:0:0:
363,320,179747,2,0,P|372:277|382:234,1,88,8|2,2:0|1:2,2:0:0:0:
447,134,180100,5,10,2:0:0:0:
230,75,180277,1,0,1:0:0:0:
277,298,180453,1,8,2:0:0:0:
350,76,180627,1,2,1:2:0:0:
127,155,180801,2,0,L|83:146,3,44,8|8|10|8,1:2|2:0|2:0|2:0,2:0:0:0:
39,73,181150,2,0,L|82:64,1,44,10|8,1:2|2:0,2:0:0:0:
206,198,181325,2,0,L|214:154,1,44,8|8,2:0|2:0,2:0:0:0:
124,292,181512,5,4,1:0:0:0:
341,227,181688,1,8,2:0:0:0:
341,227,181775,1,8,2:0:0:0:
341,227,181864,1,8,1:2:0:0:
184,81,182040,1,10,2:0:0:0:
184,81,182128,1,8,2:0:0:0:
184,81,182217,2,0,L|191:35,3,46.2,10|8|10|8,1:2|2:0|2:0|2:0,2:0:0:0:
292,101,182570,2,0,L|299:147,3,46.2,10|8|10|8,1:2|2:0|2:0|2:0,2:0:0:0:
359,24,182923,6,0,P|445:2|512:61,1,184.8,10|10,1:2|1:2,2:0:0:0:
341,227,183452,1,10,2:0:0:0:
341,227,183540,1,8,2:0:0:0:
341,227,183629,2,0,L|331:181,3,46.2,8|8|10|8,1:2|2:0|2:0|2:0,2:0:0:0:
387,117,183981,1,8,1:2:0:0:
484,292,184158,5,10,2:0:0:0:
484,292,184246,1,8,2:0:0:0:
484,292,184335,2,0,B|370:263|415:340|308:316,1,184.8,14|8,1:2|1:2,2:0:0:0:
116,246,184864,1,10,2:0:0:0:
116,246,184952,1,8,2:0:0:0:
116,246,185041,2,0,L|123:291,3,46.2,10|8|8|8,1:2|2:0|2:0|2:0,2:0:0:0:
210,326,185394,2,0,L|202:371,3,46.2,10|8|10|8,1:2|2:0|2:0|2:0,2:0:0:0:
213,217,185746,5,14,1:2:0:0:
10,242,185922,1,8,2:0:0:0:
112,56,186099,1,8,1:2:0:0:
123,291,186275,1,10,2:0:0:0:
326,200,186452,5,2,1:2:0:0:
110,149,186628,1,10,2:0:0:0:
110,149,186717,1,8,2:0:0:0:
110,149,186805,2,0,L|154:137,1,46.2,10|8,1:2|2:0,2:0:0:0:
246,11,186981,2,0,L|201:0,1,46.2,10|8,2:0|2:0,2:0:0:0:
286,122,187159,6,0,B|325:168|393:147|393:147|432:93,1,184.8,4|8,1:0|2:0,2:0:0:0:
512,288,187687,1,2,1:2:0:0:
512,288,187775,1,8,2:0:0:0:
512,288,187864,2,0,P|466:280|420:274,1,92.4,2|2,1:2|1:2,2:0:0:0:
265,347,188217,1,10,2:0:0:0:
286,122,188393,5,2,1:2:0:0:
286,122,188481,1,8,2:0:0:0:
286,122,188569,1,0,1:0:0:0:
332,283,188746,1,2,1:2:0:0:
144,224,188923,2,0,P|99:236|54:247,1,92.4,8|0,2:0|1:0,2:0:0:0:
184,106,189275,5,2,1:2:0:0:
226,287,189452,1,0,1:0:0:0:
367,180,189629,2,0,P|434:168|491:205,1,138.6,8|8,2:0|2:0,2:0:0:0:
332,209,189982,6,0,P|324:163|318:117,1,92.4,2|0,1:2|1:0,2:0:0:0:
144,224,190334,1,8,2:0:0:0:
164,27,190511,1,2,1:2:0:0:
164,27,190599,1,0,2:0:0:0:
164,27,190687,1,2,1:2:0:0:
249,208,190864,1,0,1:0:0:0:
11,154,191040,2,0,P|56:144|101:134,1,92.4,8|0,2:0|1:0,2:0:0:0:
367,180,191393,5,2,1:2:0:0:
184,106,191570,1,0,1:0:0:0:
318,0,191746,1,8,2:0:0:0:
249,208,191922,5,0,1:0:0:0:
249,208,192011,1,0,2:0:0:0:
249,208,192099,1,0,1:0:0:0:
480,137,192275,1,0,1:0:0:0:
376,342,192452,2,0,P|321:302|256:317,1,138.6,14|0,2:0|1:0,2:0:0:0:
216,294,192805,6,0,P|206:339|196:384,1,92.4,4|0,1:0|1:0,2:0:0:0:
80,191,193158,1,14,2:0:0:0:
294,135,193334,1,2,3:2:0:0:
294,135,193422,1,0,2:0:0:0:
294,135,193511,1,4,1:2:0:0:
177,0,193687,1,2,1:2:0:0:
249,208,193864,1,12,2:0:0:0:
410,66,194040,1,2,2:0:0:0:
170,144,194217,5,0,1:0:0:0:
347,270,194393,1,8,2:0:0:0:
347,270,194481,1,8,2:0:0:0:
347,270,194570,2,0,L|354:224,1,46.2,10|8,1:2|2:0,2:0:0:0:
286,89,194747,2,0,L|293:134,1,46.2,10|8,2:0|2:0,2:0:0:0:
397,351,194924,5,8,1:2:0:0:
366,366,195011,1,8,2:0:0:0:
332,369,195098,1,8,2:0:0:0:
299,358,195185,1,8,2:0:0:0:
274,334,195272,1,8,1:2:0:0:
244,300,195360,1,8,2:0:0:0:
201,283,195447,1,8,2:0:0:0:
156,288,195534,1,8,2:0:0:0:
117,313,195621,6,0,L|48:295,2,70.4,4|0|0,1:0|3:0|3:0,2:0:0:0:
192,248,196504,1,2,2:0:0:0:
192,248,196680,2,0,L|201:282,1,35.2,2|2,3:2|2:0,2:0:0:0:
133,158,197033,6,0,L|64:176,2,70.4,2|2|2,3:2|3:2|3:2,2:0:0:0:
173,234,198092,1,2,3:2:0:0:
173,234,198268,1,0,1:0:0:0:
150,90,198445,6,0,L|133:159,2,70.4,2|0|0,1:2|3:0|3:0,2:0:0:0:
244,57,199337,1,2,2:0:0:0:
244,57,199516,2,0,L|235:91,1,35.2,2|2,3:2|2:0,2:0:0:0:
150,90,199873,6,0,L|133:159,2,70.4,2|2|2,3:2|3:2|3:2,2:0:0:0:
173,234,200755,1,0,1:0:0:0:
38,164,200931,1,2,3:2:0:0:
117,313,201108,1,0,1:0:0:0:
263,204,201284,6,0,L|331:221,2,70.4,2|0|0,1:2|3:0|3:0,2:0:0:0:
224,128,202167,1,2,2:0:0:0:
224,128,202343,6,0,L|258:119,1,35.2,2|2,3:2|2:0,2:0:0:0:
263,204,202696,2,0,L|331:187,1,70.4,2|2,3:2|3:2,2:0:0:0:
448,224,203402,2,0,L|465:156,1,70.4,2|2,3:2|3:2,2:0:0:0:
339,49,203931,1,0,1:0:0:0:
339,49,204108,6,0,L|322:117,1,70.4,2|0,1:2|3:0,2:0:0:0:
263,204,204631,1,2,2:0:0:0:
263,204,204805,2,0,L|254:170,1,35.2,2|0,3:2|2:0,2:0:0:0:
432,322,205154,6,0,B|368:290|368:290|306:306|321:363,1,171.6,12|4,3:2|2:3,2:0:0:0:
321,363,205503,5,2,1:2:0:0:
137,332,205679,1,8,2:0:0:0:
263,204,205855,1,8,1:2:0:0:
225,382,206032,1,8,2:0:0:0:
72,283,206208,5,10,1:2:0:0:
77,266,206328,2,0,P|97:245|125:237,1,58.6666666666667,8|4,2:0|2:3,2:0:0:0:
270,162,206569,5,4,2:3:0:0:
254,169,206689,2,0,P|226:161|205:140,1,59.1536,4|4,2:3|2:3,2:0:0:0:
84,30,206915,6,0,P|104:133|125:237,1,211.2,4|0,1:0|1:0,2:0:0:0:
205,140,207620,2,0,P|271:123|330:159,1,140.8,8|0,3:2|3:0,2:0:0:0:
440,30,208150,5,4,2:3:0:0:
440,30,208238,1,4,2:3:0:0:
440,30,208326,2,0,P|406:39|372:49,1,70.4,2|8,1:2|2:0,2:0:0:0:
416,233,208679,2,0,P|430:182|445:131,1,105.6,2|0,3:2|2:0,2:0:0:0:
423,248,209032,2,0,P|389:257|355:267,1,70.4,10|0,3:2|1:0,2:0:0:0:
205,140,209385,2,0,P|238:149|272:159,1,70.4,2|4,3:2|2:3,2:0:0:0:
306,359,209738,6,0,P|250:319|184:338,1,140.8,2|0,1:2|3:0,2:0:0:0:
50,216,210267,1,2,1:2:0:0:
49,215,210444,2,0,P|65:283|78:352,1,140.8,10|0,3:2|3:0,2:0:0:0:
198,236,210973,1,2,2:0:0:0:
27,126,211150,5,2,1:2:0:0:
119,29,211326,2,0,P|127:63|133:97,1,70.4,8|0,2:0|3:0,2:0:0:0:
198,236,211679,1,4,2:3:0:0:
198,236,211856,2,0,P|204:201|212:167,1,70.4,10|0,3:2|2:0,2:0:0:0:
295,25,212209,1,8,1:2:0:0:
315,63,212297,1,8,2:0:0:0:
352,86,212385,1,8,2:3:0:0:
395,88,212473,1,8,2:0:0:0:
434,69,212562,6,0,B|431:102|423:132|423:132|445:173|445:173|436:202|434:237,1,176,4|8,1:0|2:0,2:0:0:0:
212,167,213091,1,0,1:0:0:0:
212,167,213179,1,8,2:0:0:0:
212,167,213267,2,0,P|255:159|298:151,1,88,0|0,1:0|1:0,2:0:0:0:
268,308,213620,1,10,2:0:0:0:
75,259,213797,5,2,2:0:0:0:
75,259,213885,1,2,2:0:0:0:
75,259,213973,2,0,P|82:302|90:345,1,88,2|0,1:2|1:0,2:0:0:0:
298,151,214326,1,10,2:0:0:0:
126,47,214503,5,2,1:2:0:0:
126,47,214591,1,8,2:0:0:0:
126,47,214679,1,0,1:0:0:0:
217,245,214856,1,2,1:2:0:0:
9,170,215032,2,0,P|52:162|95:154,1,88,8|2,2:0|2:0,2:0:0:0:
321,301,215385,6,0,P|238:287|181:349,1,176,2|8,1:2|2:0,2:0:0:0:
9,170,215915,1,2,1:2:0:0:
9,170,216003,1,8,2:0:0:0:
9,170,216091,2,0,P|52:178|95:186,1,88,0|0,1:0|1:0,2:0:0:0:
165,47,216444,2,0,P|230:35|295:24,1,132,10|0,2:0|2:0,2:0:0:0:
338,17,216797,5,2,1:2:0:0:
409,177,216973,1,0,1:0:0:0:
208,128,217150,2,0,P|251:120|294:112,1,88,10|0,2:0|1:0,2:0:0:0:
341,104,217415,1,8,2:0:0:0:
341,104,217503,1,2,1:2:0:0:
420,289,217679,1,8,2:3:0:0:
203,251,217856,1,2,1:2:0:0:
326,206,218032,1,4,2:3:0:0:
256,352,218209,6,0,P|189:312|115:333,1,158.4,4|0,1:0|3:0,2:0:0:0:
9,170,218738,1,0,1:0:0:0:
9,170,218915,2,0,B|90:155|90:155|147:196|147:196|230:180,1,237.6,10|0,3:2|1:0,2:0:0:0:
437,144,219620,1,2,3:2:0:0:
285,85,219797,1,8,2:0:0:0:
383,13,219973,1,2,3:2:0:0:
316,189,220150,1,0,1:0:0:0:
183,25,220326,6,0,P|173:63|165:102,1,79.2000000000001,10|0,3:2|1:0,2:0:0:0:
123,283,220679,1,14,2:0:0:0:
123,283,221032,6,0,P|206:268|265:328,1,176,6|8,1:2|1:2,2:0:0:0:
481,237,221562,1,8,2:0:0:0:
317,149,221738,1,8,1:2:0:0:
393,344,221915,1,8,2:0:0:0:
465,127,222091,1,8,1:2:0:0:
221,238,222267,1,8,2:0:0:0:
291,12,222444,5,10,1:2:0:0:
379,233,222620,1,8,2:0:0:0:
120,169,222797,1,8,1:2:0:0:
397,73,222973,1,8,2:0:0:0:
299,297,223150,5,8,1:2:0:0:
186,63,223326,1,8,2:0:0:0:
463,168,223503,1,10,1:2:0:0:
221,238,223679,1,8,2:0:0:0:
291,12,223856,1,2,2:0:0:0:
465,127,233738,6,0,B|387:113|411:169|332:152,1,140.8,2|2,2:0|2:0,2:0:0:0:
249,100,234620,1,0,3:0:0:0:
249,100,234797,1,6,2:0:0:0:
113,268,235150,6,0,P|60:260|8:251,1,105.6,6|2,2:0|2:0,2:0:0:0:
8,251,235679,1,2,3:2:0:0:
151,371,236032,2,0,P|202:361|255:354,1,105.6,2|2,2:0|2:0,2:0:0:0:
339,383,236562,6,0,P|361:336|351:285,1,105.6,0|2,3:0|2:0,2:0:0:0:
281,214,237091,2,0,P|332:204|385:197,1,105.6,2|0,3:2|2:0,2:0:0:0:
481,139,237620,2,0,P|484:112|489:86,1,52.7999999999999,0|2,2:0|2:0,2:0:0:0:
376,10,237973,6,0,P|385:61|392:114,1,105.6,2|2,3:2|2:0,2:0:0:0:
392,114,238503,1,2,3:2:0:0:
237,183,238856,2,0,P|246:131|253:78,1,105.6,2|2,2:0|2:0,2:0:0:0:
253,79,239385,5,0,1:0:0:0:
155,64,239738,1,2,1:2:0:0:
57,49,240091,1,4,1:2:0:0:
138,208,240267,5,8,2:0:0:0:
138,208,240356,1,8,2:0:0:0:
138,208,240444,2,0,L|146:164,1,44,8|8,1:2|2:0,2:0:0:0:
8,251,240620,2,0,L|16:294,1,44,10|8,2:0|2:0,2:0:0:0:
184,367,240797,6,0,B|216:330|269:347|269:347|294:384|339:383,1,176,4|10,1:0|1:2,2:0:0:0:
466,279,241326,1,10,2:0:0:0:
257,223,241503,1,8,1:2:0:0:
409,104,241679,1,10,2:0:0:0:
345,300,241856,1,10,1:2:0:0:
229,145,242032,5,8,2:0:0:0:
229,145,242120,1,0,2:0:0:0:
229,145,242209,1,8,1:2:0:0:
465,198,242385,1,8,2:0:0:0:
388,0,242562,1,8,1:2:0:0:
342,226,242738,1,10,2:0:0:0:
126,88,242914,5,10,1:2:0:0:
294,18,243091,1,8,2:0:0:0:
294,18,243179,1,10,2:0:0:0:
294,18,243267,2,0,L|286:61,1,44,8|8,1:2|2:0,2:0:0:0:
183,221,243444,2,0,L|176:178,1,44,10|8,2:0|2:0,2:0:0:0:
314,330,243620,5,6,1:2:0:0:
140,229,243797,1,8,2:0:0:0:
140,229,243885,1,8,2:0:0:0:
140,229,243973,2,0,L|183:221,1,44,8|0,1:2|2:0,2:0:0:0:
294,140,244150,2,0,L|250:132,1,44,8|0,2:3|2:0,2:0:0:0:
205,48,244326,1,2,1:2:0:0:
205,48,244414,1,8,2:0:0:0:
205,48,244503,1,8,2:0:0:0:
342,226,244679,1,12,2:0:0:0:
434,35,244856,5,10,2:0:0:0:
434,35,244944,1,8,2:0:0:0:
434,35,245032,1,10,1:2:0:0:
250,132,245209,1,8,2:0:0:0:
250,132,245297,1,8,2:0:0:0:
250,132,245385,2,0,L|242:88,1,44,4|8,1:2|2:0,2:0:0:0:
349,182,245562,2,0,L|341:226,1,44,8|8,2:0|2:0,2:0:0:0:
385,318,245738,5,10,1:2:0:0:
354,330,245826,1,0,2:0:0:0:
321,329,245914,1,8,2:0:0:0:
291,316,246003,1,8,2:0:0:0:
268,292,246091,2,0,L|260:336,1,44,10|8,1:2|2:0,2:0:0:0:
132,376,246267,2,0,L|124:332,1,44,8|8,2:0|2:0,2:0:0:0:
0,177,246444,6,0,B|37:134|87:155|87:155|114:194|164:186,1,184.8,4|10,1:0|2:0,2:0:0:0:
238,40,246973,1,2,1:2:0:0:
238,40,247062,1,8,2:0:0:0:
238,40,247150,2,0,P|244:85|249:131,1,92.4,0|0,1:0|1:0,2:0:0:0:
267,292,247503,2,0,P|332:276|385:318,1,138.6,10|8,2:0|2:0,2:0:0:0:
463,277,247856,6,0,P|458:231|451:185,1,92.4,2|0,1:2|1:0,2:0:0:0:
420,20,248209,1,10,2:0:0:0:
326,137,248385,2,0,B|225:155|258:80|153:97,1,184.8,6|0,1:2|1:0,2:0:0:0:
47,236,248914,1,10,2:0:0:0:
189,194,249091,5,0,1:0:0:0:
189,194,249179,1,8,2:0:0:0:
189,194,249267,2,0,B|193:232|212:261|212:261|197:303|197:303|214:332|218:367,1,184.8,2|8,1:2|2:0,2:0:0:0:
391,313,249797,1,2,1:2:0:0:
391,313,249885,1,8,2:0:0:0:
391,313,249973,2,0,P|346:306|300:298,1,92.4,2|0,1:2|1:0,2:0:0:0:
471,152,250326,2,0,P|478:198|486:244,1,92.4,8|2,2:0|1:2,2:0:0:0:
395,82,250679,6,0,P|335:147|249:131,1,184.8,2|8,1:2|2:0,2:0:0:0:
57,49,251209,1,2,1:2:0:0:
57,49,251297,1,8,2:0:0:0:
57,49,251385,2,0,P|64:95|70:141,1,92.4,2|0,1:2|1:0,2:0:0:0:
77,189,251650,1,2,2:0:0:0:
77,189,251738,1,12,2:0:0:0:
249,131,251914,1,2,1:2:0:0:
71,327,252091,6,0,P|157:308|223:368,1,184.8,6|8,1:2|2:0,2:0:0:0:
351,233,252620,1,0,1:0:0:0:
351,233,252709,1,8,2:0:0:0:
351,233,252797,2,0,P|305:240|259:247,1,92.4,2|0,1:2|1:0,2:0:0:0:
57,49,253150,2,0,P|102:56|148:63,1,92.4,8|2,2:0|1:2,2:0:0:0:
187,37,253414,5,8,2:0:0:0:
187,37,253503,2,0,B|244:16|284:51|284:51|290:97|331:112,1,184.8,2|10,1:2|2:0,2:0:0:0:
512,215,254032,1,2,1:2:0:0:
512,215,254120,1,8,2:0:0:0:
512,215,254209,1,0,1:0:0:0:
285,252,254385,1,2,1:2:0:0:
441,108,254562,1,8,2:0:0:0:
421,325,254738,1,2,1:2:0:0:
301,125,254914,6,0,B|229:139|229:139|187:116|187:116|124:128,1,184.8,6|8,1:2|2:0,2:0:0:0:
144,304,255444,1,2,1:2:0:0:
144,304,255532,1,8,2:0:0:0:
144,304,255620,2,0,P|153:259|161:214,1,92.4,2|0,1:2|1:0,2:0:0:0:
11,40,255973,1,8,2:0:0:0:
61,241,256150,5,0,1:0:0:0:
61,241,256238,1,0,2:0:0:0:
61,241,256326,1,12,2:0:0:0:
301,125,256503,1,0,1:0:0:0:
106,0,256679,1,8,2:0:0:0:
161,213,256856,1,0,1:0:0:0:
304,36,257032,6,0,L|349:45,1,46.2,2|4,1:2|2:3,2:0:0:0:
211,137,257209,1,8,2:3:0:0:
211,137,257297,1,4,2:3:0:0:
211,137,257385,2,0,L|202:92,1,46.2,0|4,1:0|2:3,2:0:0:0:
406,185,257562,2,0,L|397:230,1,46.2,4|12,2:3|2:3,2:0:0:0:
281,365,257738,6,0,P|344:313|424:329,1,167.2,4|2,1:0|1:2,2:0:0:0:
481,264,258267,2,0,L|494:180,1,83.5999999999999,2|0,2:0|1:0,2:0:0:0:
301,125,258620,2,0,L|314:208,1,83.5999999999999,2|0,2:0|1:0,2:0:0:0:
281,365,258973,1,2,2:0:0:0:
281,365,259150,6,0,P|211:322|133:346,1,167.2,0|0,1:0|1:0,2:0:0:0:
7,141,259679,1,2,2:0:0:0:
7,141,259856,2,0,P|53:182|115:179,1,125.4,2|2,1:2|2:0,2:0:0:0:
148,154,260209,2,0,P|140:201|134:238,1,83.5999999999999,0|2,1:0|2:0,2:0:0:0:
190,47,260562,6,0,B|252:35|252:35|291:57|291:57|348:44,1,167.2,2|2,1:2|1:2,2:0:0:0:
445,161,261091,2,0,P|451:119|459:78,1,83.5999999999999,2|0,2:0|1:0,2:0:0:0:
274,148,261444,2,0,P|280:189|287:230,1,83.5999999999999,2|0,2:0|1:0,2:0:0:0:
394,365,261797,5,2,2:0:0:0:
394,365,261885,1,0,2:0:0:0:
394,365,261973,1,14,2:0:0:0:
445,161,262150,1,0,1:0:0:0:
195,221,262326,1,2,1:2:0:0:
488,304,262503,1,14,2:0:0:0:
488,304,262856,5,14,2:0:0:0:
346,74,263032,2,0,P|353:115|360:156,1,83.5999999999999,0|10,2:0|2:0,2:0:0:0:
369,201,263297,5,8,2:0:0:0:
369,201,263385,1,4,1:0:0:0:
213,134,263562,2,0,B|122:120|151:188|55:165,1,167.2,0|0,1:0|1:0,2:0:0:0:
111,318,264091,2,0,B|156:328|179:369|179:369|243:300|194:220,1,250.8,8|8,3:2|2:0,2:0:0:0:
194,220,264709,1,8,2:0:0:0:
194,220,264797,5,2,1:2:0:0:
351,282,264973,2,0,P|359:241|368:200,1,83.5999999999999,8|0,2:0|3:0,2:0:0:0:
290,0,265326,1,0,1:0:0:0:
290,0,265414,1,4,2:3:0:0:
290,0,265503,1,10,2:0:0:0:
274,203,265679,1,8,2:0:0:0:
408,40,265856,1,10,2:0:0:0:
199,95,266032,1,8,2:0:0:0:
406,172,266209,5,2,2:0:0:0:
406,172,267620,6,0,L|393:259,1,88,12|0,1:2|2:0,2:0:0:0:
469,363,267885,1,8,2:0:0:0:
469,363,267973,2,0,L|462:319,1,44,8|0,2:0|2:0,2:0:0:0:
320,190,268150,2,0,L|313:233,1,44,2|8,1:2|2:0,2:0:0:0:
236,323,268326,5,10,2:0:0:0:
198,345,268414,1,8,2:0:0:0:
154,348,268503,1,8,2:0:0:0:
114,332,268591,1,8,2:0:0:0:
85,299,268679,1,10,1:2:0:0:
74,257,268767,1,8,2:0:0:0:
82,214,268856,1,10,2:0:0:0:
108,180,268944,1,8,2:0:0:0:
147,160,269032,6,0,B|248:136|209:219|319:189,1,184.8,4|8,1:0|2:0,2:0:0:0:
304,17,269562,1,0,1:0:0:0:
304,17,269650,1,8,2:0:0:0:
304,17,269738,2,0,P|293:62|284:107,1,92.4,0|2,1:0|1:2,2:0:0:0:
428,223,270091,1,10,2:0:0:0:
388,81,270267,1,2,1:2:0:0:
326,297,270444,6,0,P|411:274|478:333,1,184.8,2|10,1:2|2:0,2:0:0:0:
436,177,270973,1,0,1:0:0:0:
436,177,271062,1,8,2:0:0:0:
436,177,271150,2,0,P|432:199|427:222,2,46.2,2|8|0,1:2|2:0|1:0,2:0:0:0:
251,141,271503,1,10,2:0:0:0:
349,25,271679,5,0,1:0:0:0:
349,25,271767,1,8,2:0:0:0:
349,25,271856,2,0,B|332:86|332:86|354:132|354:132|336:200,1,184.8,2|8,1:2|2:0,2:0:0:0:
198,345,272385,1,0,1:0:0:0:
198,345,272473,1,8,2:0:0:0:
198,344,272562,2,0,P|183:277|166:210,1,138.6,2|2,1:2|2:0,2:0:0:0:
178,164,272914,2,0,P|132:170|92:150,1,92.4,8|2,2:0|1:2,2:0:0:0:
120,16,273267,6,0,B|221:-8|182:75|292:45,1,184.8,2|8,1:2|2:0,2:0:0:0:
431,174,273797,1,0,1:0:0:0:
469,0,273973,1,2,1:2:0:0:
327,154,274150,1,8,2:0:0:0:
327,154,274238,1,8,2:0:0:0:
327,154,274326,2,0,L|336:199,1,46.2,8|8,1:2|2:0,2:0:0:0:
469,307,274503,2,0,L|479:262,1,46.2,8|8,2:0|2:0,2:0:0:0:
411,83,274679,6,0,L|430:173,1,92.4,4|0,1:0|1:0,2:0:0:0:
376,364,275032,2,0,B|347:369|347:369|321:348|321:348|252:376|196:343,1,191.4,12|0,2:0|2:0,2:0:0:0:
165,309,275385,2,0,P|174:263|183:218,1,92.4,2|0,1:2|1:0,2:0:0:0:
113,37,275738,1,8,2:0:0:0:
323,93,275914,5,2,2:0:0:0:
323,93,276003,1,2,2:0:0:0:
323,93,276091,2,0,B|388:105|388:105|437:79|437:79|498:88,1,184.8,2|12,1:2|2:0,2:0:0:0:
281,228,276620,1,0,2:0:0:0:
281,228,276709,1,0,2:0:0:0:
281,228,276797,1,10,2:0:0:0:
221,28,276973,1,0,1:0:0:0:
51,170,277150,2,0,P|95:159|140:148,1,92.4,10|0,2:0|2:0,2:0:0:0:
438,278,277503,6,0,B|408:244|366:260|366:260|343:317|284:312,1,184.8,6|8,1:2|1:2,2:0:0:0:
51,170,278032,1,10,2:0:0:0:
272,67,278209,1,10,1:2:0:0:
191,292,278385,1,8,2:0:0:0:
133,53,278562,1,8,1:2:0:0:
373,164,278738,1,8,2:0:0:0:
116,235,278914,5,10,1:2:0:0:
370,309,279091,1,8,2:0:0:0:
302,81,279267,1,8,1:2:0:0:
231,364,279444,1,8,2:0:0:0:
511,262,279620,1,10,1:2:0:0:
223,143,279797,5,8,2:0:0:0:
223,143,279885,1,8,2:0:0:0:
223,143,279973,2,0,L|232:189,1,46.2,8|8,1:2|2:0,2:0:0:0:
370,309,280150,2,0,L|379:263,1,46.2,8|8,2:0|2:0,2:0:0:0:
412,32,280326,5,4,1:0:0:0:
256,192,280444,12,0,283150,2:0:0:0:
