osu file format v14

[General]
AudioFilename: audio.mp3
AudioLeadIn: 0
PreviewTime: 147278
Countdown: 0
SampleSet: Soft
StackLeniency: 0.3
Mode: 0
LetterboxInBreaks: 0
WidescreenStoryboard: 1

[Editor]
Bookmarks: 23406,34700,43170,60111,82700,105288,110929,133517,147634,170210,181504,195621,206915,223856,235150,246444,269032,280326,283150
DistanceSpacing: 1.2
BeatDivisor: 4
GridSize: 32
TimelineZoom: 2.4

[Metadata]
Title:Hajimari no Sokudo
TitleUnicode:はじまりの速度
Artist:Sangatsu no Phantasia
ArtistUnicode:三月のパンタシア
Creator:-Mikan
Version:Hikan's Hard
Source:キズナイーバー
Tags:Hikan Affirmation NeoskyLove adioni wenect Unranked mapper wenet Kazato Asa Shizuku- Akitoshi -Laura- Corinn kiznaiver ending trigger ed japanese jpop j-pop pop anime
BeatmapID:2301603
BeatmapSetID:1098561

[Difficulty]
HPDrainRate:5
CircleSize:3.6
OverallDifficulty:7
ApproachRate:8
SliderMultiplier:1.3
SliderTickRate:1

[Events]
//Background and Video events
0,0,"7VOx0Oj.jpg",0,0
Video,0,"Sangatsu No Phantasia - Hajimarino Sokudo.avi"
//Break Periods
2,195821,197500
2,199002,199987
2,201836,203167
2,224103,233721
//Storyboard Layer 0 (Background)
//Storyboard Layer 1 (Fail)
//Storyboard Layer 2 (Pass)
//Storyboard Layer 3 (Foreground)
//Storyboard Layer 4 (Overlay)
//Storyboard Sound Samples

[TimingPoints]
653,346.820809248555,4,2,1,20,1,0
826,340.909090909091,4,2,1,20,1,0
1337,375,4,2,1,20,1,0
1712,352.941176470588,4,2,1,20,1,0
2241,338.983050847458,4,2,1,20,1,0
2579,359.281437125748,4,2,1,20,1,0
3656,387.096774193548,4,2,1,20,1,0
4043,329.67032967033,4,2,1,20,1,0
4207,333.333333333333,4,2,1,20,1,0
4873,357.142857142857,4,2,1,20,1,0
5408,346.820809248555,4,2,1,20,1,0
5581,352.941176470588,4,2,1,20,1,0
6463,352.941176470588,4,2,1,20,1,0
6992,375,4,2,1,20,1,0
7367,352.941176470588,4,2,1,20,1,0
7896,346.820809248555,4,2,1,20,1,0
8589,365.853658536585,4,2,1,20,1,0
8954,352.941176470588,4,2,1,20,1,0
9306,368.098159509202,4,2,1,20,1,0
9674,352.941176470588,4,2,1,20,1,0
10203,327.868852459016,4,2,1,20,1,0
10530,363.636363636364,4,2,1,20,1,0
11075,359.281437125748,4,2,1,20,1,0
11434,329.67032967033,4,2,1,20,1,0
11598,-100,4,2,3,40,0,0
11763,363.636363636364,4,2,3,40,1,0
12126,352.941176470588,4,2,3,50,1,0
12307,-100,4,2,1,50,0,0
13008,375,4,2,1,50,1,0
13195,350.877192982456,4,2,1,50,1,0
14949,346.820809248555,4,2,1,50,1,0
15816,365.853658536585,4,2,1,50,1,0
16364,348.837209302326,4,2,1,50,1,0
16886,-100,4,2,1,60,0,0
17759,352.941176470588,4,2,1,60,1,0
20934,-100,4,2,1,40,0,0
21111,-100,4,2,1,45,0,0
21288,-100,4,2,1,50,0,0
21464,-100,4,2,1,55,0,0
21641,-100,4,2,1,60,0,0
21994,-101.83299389002,4,2,1,60,0,0
23416,352.941176470588,4,2,1,40,1,0
23935,-100,4,2,1,40,0,0
24111,-125,4,2,1,40,0,0
32592,-121.359223300971,4,2,1,40,0,0
32945,333.333333333333,4,2,1,40,1,0
33278,357.142857142857,4,2,1,40,1,0
34347,-125,4,2,0,40,0,0
34700,352.941176470588,4,2,1,50,1,0
34700,-125,4,2,1,50,0,0
35053,-125,4,2,4,50,0,0
40170,-125,4,2,1,50,0,0
40700,-125,4,2,4,50,0,0
42464,-125,4,2,1,50,0,0
43170,-100,4,2,1,60,0,0
47934,-100,4,2,2,60,0,0
49169,-100,4,2,1,60,0,0
51993,-100,4,2,2,60,0,0
54464,-100,4,2,1,60,0,0
56935,-100,4,2,3,60,0,0
57288,-100,4,2,1,60,0,0
57464,-100,4,2,1,45,0,0
57641,-100,4,2,1,50,0,0
57817,-100,4,2,1,55,0,0
57994,-100,4,2,1,60,0,0
58170,-100,4,2,1,65,0,0
58347,-100,4,2,1,70,0,0
58788,-100,4,2,1,60,0,0
59053,-100,4,2,1,70,0,0
59141,-100,4,2,1,60,0,0
59406,-100,4,2,1,70,0,0
59582,-100,4,2,1,60,0,0
59758,-100,4,2,1,70,0,0
59847,-100,4,2,1,60,0,0
60111,-100,4,2,2,70,0,1
60464,-100,4,2,1,70,0,1
70700,-100,4,2,2,70,0,1
70788,-100,4,2,1,60,0,1
71053,-100,4,2,1,70,0,1
71141,-100,4,2,1,60,0,1
71406,-100,4,2,1,70,0,1
81994,-100,4,2,2,70,0,1
82082,-100,4,2,1,60,0,1
82347,-100,4,2,1,70,0,1
82435,-100,4,2,1,60,0,1
82611,-100,4,2,1,60,0,0
82699,-100,4,2,1,70,0,1
92582,-100,4,2,2,70,0,1
92935,-100,4,2,1,70,0,1
93288,-100,4,2,1,60,0,1
93552,-100,4,2,1,55,0,1
93817,-100,4,2,1,45,0,1
93994,-100,4,2,1,60,0,1
98229,-100,4,2,1,70,0,1
98758,-100,4,2,3,70,0,1
99641,-100,4,2,1,60,0,1
100347,-100,4,2,2,60,0,1
102464,-100,4,2,1,50,0,0
107229,-100,4,2,1,60,0,0
108111,348.837209302326,4,2,1,60,1,0
109506,352.941176470588,4,2,1,60,1,0
110211,359.281437125748,4,2,1,60,1,0
110929,352.941176470588,4,2,1,50,1,0
114281,-100,4,2,1,50,0,0
116399,-100,4,2,2,50,0,0
120693,-100,4,2,1,50,0,0
122046,-100,4,2,2,50,0,0
122840,-100,4,2,1,50,0,0
127516,-100,4,2,2,50,0,0
129104,-100,4,2,1,50,0,0
130164,-100,4,2,1,60,0,0
132458,-100,4,2,1,55,0,0
132811,-100,4,2,1,50,0,0
133164,-100,4,2,1,45,0,0
134752,-100,4,2,1,60,0,0
137399,-100,4,2,2,60,0,0
137928,-100,4,2,1,60,0,0
140752,-100,4,2,1,50,0,0
141633,-100,4,2,1,60,0,0
144458,-100,4,2,3,60,0,0
144987,-100,4,2,1,45,0,0
145164,-100,4,2,1,50,0,0
145340,-100,4,2,1,55,0,0
145517,-100,4,2,1,60,0,0
145693,-100,4,2,1,65,0,0
145870,-100,4,2,1,70,0,0
146311,-100,4,2,1,60,0,0
146576,-100,4,2,1,70,0,0
146664,-100,4,2,1,60,0,0
146928,-100,4,2,1,70,0,0
147016,-100,4,2,1,60,0,0
147281,-100,4,2,1,70,0,0
147369,-100,4,2,1,60,0,0
147634,-100,4,2,1,70,0,1
157163,-100,4,2,3,70,0,1
157517,-100,4,2,1,70,0,1
158223,-100,4,2,2,70,0,1
158487,-100,4,2,1,70,0,1
158752,-100,4,2,1,55,0,1
158928,-125,4,2,1,60,0,1
162810,-125,4,2,3,60,0,1
163164,-100,4,2,3,60,0,1
163693,-100,4,2,3,70,0,1
164046,344.827586206897,4,2,3,70,1,1
164563,352.941176470588,4,2,3,70,1,1
164739,-100,4,2,3,60,0,1
164915,-100,4,2,1,60,0,1
168798,357.142857142857,4,2,1,60,1,1
169150,-100,4,2,1,40,0,1
169327,-100,4,2,1,45,0,1
169504,-100,4,2,1,50,0,1
169680,-100,4,2,1,55,0,1
169857,-100,4,2,1,60,0,1
170226,352.941176470588,4,2,3,40,1,0
170226,-100,4,2,1,60,0,0
171092,-166.666666666667,4,2,3,40,0,0
177268,-166.666666666667,4,2,2,50,0,0
177973,-166.666666666667,4,2,1,60,0,0
178343,346.820809248555,4,2,1,60,1,0
178689,352.941176470588,4,2,1,60,1,0
178865,-166.666666666667,4,2,1,60,0,0
179386,-125,4,2,1,60,0,0
180453,348.837209302326,4,2,1,60,1,0
180453,-125,4,2,1,60,0,0
180621,-125,4,2,1,45,0,0
180798,-125,4,2,1,50,0,0
180974,-125,4,2,1,55,0,0
181150,-100,4,2,1,60,0,0
181512,352.941176470588,4,2,1,60,1,0
181512,-100,4,2,1,60,0,1
181856,-100,4,2,1,40,0,1
182210,-100,4,2,1,60,0,1
182386,-100,4,2,1,40,0,1
182562,-100,4,2,1,60,0,1
182738,-100,4,2,1,40,0,1
182915,-100,4,2,1,60,0,1
183445,-100,4,2,1,40,0,1
183621,-100,4,2,1,60,0,1
184151,-100,4,2,1,40,0,1
184679,-100,4,2,1,60,0,1
184857,-100,4,2,1,40,0,1
185033,-100,4,2,1,60,0,1
185563,-100,4,2,1,40,0,1
185915,-100,4,2,1,60,0,1
186445,-100,4,2,1,50,0,1
186798,-100,4,2,1,60,0,1
193151,-100,4,2,3,70,0,1
194386,-100,4,2,1,50,0,1
194562,-100,4,2,1,55,0,1
194924,348.837209302326,4,2,1,55,1,1
195268,-100,4,2,1,65,0,1
195621,352.941176470588,4,2,1,65,1,0
195621,-100,4,2,1,65,0,0
198268,-100,4,2,1,40,0,0
198445,357.142857142857,4,2,1,40,1,0
198445,-200,4,2,1,40,0,0
198802,-200,4,2,4,40,0,0
199873,352.941176470588,4,2,4,40,1,0
200755,-100,4,2,1,40,0,0
201284,-200,4,2,1,40,0,0
201636,-200,4,2,4,40,0,0
203931,-200,4,2,1,40,0,0
204108,348.837209302326,4,2,1,40,1,0
204108,-200,4,2,1,40,0,0
204456,-200,4,2,4,40,0,0
205153,-200,4,2,3,60,0,0
205503,352.941176470588,4,2,3,50,1,0
205679,-100,4,2,1,50,0,0
206208,361.44578313253,4,2,1,60,1,0
206569,-100,4,2,1,50,0,0
206810,315.789473684211,4,2,1,50,1,0
206915,352.941176470588,4,2,1,70,1,0
207620,-100,4,2,2,70,0,0
212385,-100,4,2,1,70,0,0
218737,-100,4,2,1,60,0,0
218915,-100,4,2,2,60,0,0
220679,-100,4,2,3,60,0,0
221296,-100,4,2,1,40,0,0
221738,-100,4,2,1,45,0,0
223503,-100,4,2,1,70,0,0
234620,-100,4,2,3,40,0,0
235150,-125,4,2,1,50,0,0
240091,-125,4,2,1,60,0,0
240797,-100,4,2,1,60,0,0
241238,-125,4,2,1,40,0,0
241326,-100,4,2,1,40,0,0
241502,-100,4,2,1,45,0,0
241856,-100,4,2,1,50,0,0
242209,-100,4,2,1,55,0,0
242562,-100,4,2,1,60,0,0
245032,-100,4,2,1,70,0,0
245120,-100,4,2,1,60,0,0
245738,-100,4,2,1,70,0,0
245914,-100,4,2,1,60,0,0
246091,-100,4,2,1,70,0,0
246179,-100,4,2,1,60,0,0
246444,-100,4,2,1,70,0,1
256326,-100,4,2,2,70,0,1
256679,-100,4,2,1,70,0,1
257032,-100,4,2,1,60,0,1
257296,-100,4,2,1,55,0,1
257561,-100,4,2,1,45,0,1
257738,-100,4,2,1,60,0,1
261973,-100,4,2,1,70,0,1
262503,-100,4,2,3,70,0,1
263385,-100,4,2,1,60,0,1
264091,-100,4,2,2,60,0,1
266209,-100,4,2,1,40,0,0
267620,-100,4,2,1,50,0,0
268679,-100,4,2,1,60,0,0
269032,-100,4,2,1,60,0,1
271032,-100,4,2,1,60,0,1
276444,-100,4,2,3,60,0,1
277855,-100,4,2,3,45,0,1
278032,-100,4,2,1,45,0,1
278209,-100,4,2,1,50,0,1
278562,-100,4,2,1,55,0,1
278914,-100,4,2,1,60,0,1
279267,-100,4,2,1,65,0,1
279620,-100,4,2,1,70,0,1
280326,-222.222222222222,4,2,2,70,0,0
283149,-222.222222222222,4,2,1,5,0,0

[Colours]
Combo1 : 114,252,210
Combo2 : 255,182,108

[HitObjects]
0,252,11598,5,0,3:0:0:0:
0,252,11763,1,6,2:0:0:0:
113,187,12126,6,0,P|133:224|132:266,2,65,6|0|0,2:0|2:0|2:0,2:0:0:0:
163,121,12655,2,0,L|300:132,1,130.368333333333,0|2,3:0|3:2,2:0:0:0:
362,85,13195,2,0,P|363:56|335:15,1,65,2|2,2:0|3:2,2:0:0:0:
369,168,13545,6,0,P|345:216|371:296,1,130,2|2,3:2|2:0,2:0:0:0:
439,320,14072,1,0,3:0:0:0:
439,320,14247,2,0,L|514:314,1,65,2|0,2:0|3:0,2:0:0:0:
430,245,14598,2,0,L|505:239,1,65,2|0,2:0|3:0,2:0:0:0:
369,168,14949,6,0,L|220:158,1,130,2|0,3:2|2:0,2:0:0:0:
183,215,15469,2,0,P|161:159|205:91,1,130.374833333333,0|2,3:0|3:2,2:0:0:0:
267,86,15998,1,2,3:2:0:0:
215,27,16181,5,4,2:3:0:0:
215,27,16273,1,4,2:3:0:0:
215,27,16364,2,0,P|177:23|140:21,1,65,14|0,1:2|1:0,2:0:0:0:
125,94,16712,2,0,P|163:98|200:100,1,65,14|4,1:2|2:3,2:0:0:0:
239,159,17061,2,0,P|235:191|232:213,3,32.5,2|8|8|8,1:2|2:0|2:0|2:0,2:0:0:0:
264,240,17410,2,0,P|267:272|271:294,3,32.5,10|8|8|8,1:2|2:0|2:0|2:0,2:0:0:0:
239,319,17759,6,0,P|311:317|364:353,1,130,4|0,1:0|1:0,2:0:0:0:
415,291,18288,2,0,P|377:229|381:165,1,130,2|0,2:0|2:0,2:0:0:0:
443,118,18817,1,2,1:2:0:0:
387,54,18994,1,8,2:0:0:0:
387,54,19082,1,8,2:0:0:0:
387,54,19170,1,0,1:0:0:0:
324,110,19347,6,0,L|190:100,1,130,2|0,2:0|2:0,2:0:0:0:
125,149,19876,2,0,P|110:111|116:77,1,65,2|8,1:2|2:0,2:0:0:0:
23,105,20229,2,0,P|38:143|32:177,1,65,2|4,1:2|2:3,2:0:0:0:
11,247,20582,6,0,P|97:260|154:296,1,130,4|8,1:0|1:2,2:0:0:0:
194,339,21111,1,8,2:0:0:0:
194,339,21200,1,8,2:0:0:0:
194,339,21288,2,0,P|223:334|234:333,3,32.5,8|8|8|8,1:2|2:0|2:0|2:0,2:0:0:0:
279,352,21641,2,0,P|308:357|319:358,3,32.5,8|8|8|8,1:2|2:0|2:0|2:0,2:0:0:0:
359,339,21994,6,0,B|410:299|396:232|355:202|355:202|268:154|256:83|292:13|353:11|383:7|431:65|412:112|373:127,1,514.799998428955,4|0,1:0|2:0,2:0:0:0:
226,227,23945,1,2,2:0:0:0:
169,281,24121,2,0,P|175:330|178:372,2,78,2|2|2,2:0|2:0|2:0,2:0:0:0:
152,205,24827,6,0,P|100:200|46:198,1,104,2|2,2:0|2:0,2:0:0:0:
53,119,25357,2,0,P|104:123|159:126,1,104,2|2,2:0|2:0,2:0:0:0:
298,3,26063,1,2,2:0:0:0:
224,28,26239,2,0,P|286:80|356:54,1,156,0|0,2:0|2:0,2:0:0:0:
490,130,27121,1,2,2:0:0:0:
490,130,27298,1,2,2:0:0:0:
490,130,27474,2,0,P|498:219|503:291,1,156,2|0,2:0|2:0,2:0:0:0:
361,350,28357,5,2,2:0:0:0:
294,208,28710,1,2,2:0:0:0:
195,329,29063,2,0,P|121:325|77:323,1,104,0|0,2:0|2:0,2:0:0:0:
24,282,29592,2,0,P|0:238|19:167,2,104,2|2|2,2:0|2:0|2:0,2:0:0:0:
94,246,30474,2,0,P|168:250|212:252,1,104,2|2,2:0|2:0,2:0:0:0:
253,195,31004,2,0,P|327:191|371:189,1,104,2|2,2:0|2:0,2:0:0:0:
462,74,31710,1,2,2:0:0:0:
498,142,31886,6,0,P|464:217|467:293,1,156,2|2,2:0|2:0,2:0:0:0:
396,325,32592,2,0,B|274:295|316:398|189:361,1,208,2|2,2:0|2:0,2:0:0:0:
55,309,33635,1,2,2:0:0:0:
172,206,33992,1,2,2:0:0:0:
105,166,34170,1,0,3:0:0:0:
105,166,34260,1,0,3:0:0:0:
105,166,34349,2,0,L|96:97,1,52,6|0,2:0|2:0,2:0:0:0:
148,54,34700,5,4,2:0:0:0:
282,133,35053,2,0,L|335:139,1,52,2|0,3:2|2:0,2:0:0:0:
390,85,35406,5,2,3:2:0:0:
448,229,35758,2,0,L|441:282,1,52,2|0,3:2|2:0,2:0:0:0:
364,266,36111,5,0,3:0:0:0:
225,338,36464,2,0,L|172:345,1,52,0|2,3:0|2:0,2:0:0:0:
121,287,36817,5,2,3:2:0:0:
263,249,37170,2,0,L|270:196,1,52,0|2,3:0|2:0,2:0:0:0:
220,136,37523,5,2,3:2:0:0:
407,117,37876,2,0,L|354:110,1,52,2|2,3:2|2:0,2:0:0:0:
316,42,38229,5,0,3:0:0:0:
161,61,38582,2,0,L|168:114,1,52,2|0,3:2|2:0,2:0:0:0:
111,167,38935,5,0,3:0:0:0:
31,301,39288,2,0,L|84:294,1,52,0|0,3:0|2:0,2:0:0:0:
141,345,39641,5,2,3:2:0:0:
284,283,39994,2,0,L|277:230,1,52,2|2,3:2|2:0,2:0:0:0:
334,178,40347,5,0,1:0:0:0:
400,37,40700,2,0,L|464:43,1,52,2|0,3:2|2:0,2:0:0:0:
507,97,41053,5,0,3:0:0:0:
405,215,41406,2,0,L|399:279,1,52,2|0,3:2|2:0,2:0:0:0:
456,320,41758,5,2,3:2:0:0:
233,341,42111,2,0,L|169:335,1,52,6|2,3:2|2:0,2:0:0:0:
127,279,42464,6,0,L|132:234,3,26,0|8|10|8,1:0|2:0|2:0|2:0,2:0:0:0:
159,206,42817,2,0,L|154:161,3,26,8|8|10|8,1:2|2:0|2:0|2:0,2:0:0:0:
120,138,43170,6,0,L|44:132,1,65,4|2,1:2|1:2,2:0:0:0:
24,39,43523,2,0,P|87:21|139:59,1,130,10|0,2:0|1:0,2:0:0:0:
195,107,44053,1,0,1:0:0:0:
243,45,44229,2,0,P|300:20|356:48,1,130,10|2,2:0|1:2,2:0:0:0:
393,118,44758,1,0,1:0:0:0:
463,84,44935,2,0,P|443:157|437:217,1,130,10|2,2:0|1:2,2:0:0:0:
496,272,45464,5,8,2:0:0:0:
496,282,45553,1,8,2:0:0:0:
495,293,45641,1,10,1:2:0:0:
493,304,45729,1,8,2:0:0:0:
490,314,45817,1,8,2:0:0:0:
431,375,45994,6,0,P|390:360|348:361,1,65,6|0,1:2|1:0,2:0:0:0:
316,291,46347,2,0,P|267:341|187:337,1,130,10|0,2:0|1:0,2:0:0:0:
162,285,46876,1,2,1:2:0:0:
90,327,47053,2,0,P|82:274|75:247,1,65,10|0,2:0|1:0,2:0:0:0:
0,168,47406,1,0,1:0:0:0:
77,183,47582,1,0,1:0:0:0:
52,108,47758,2,0,P|60:55|67:28,1,65,8|6,2:0|2:0,2:0:0:0:
136,69,48111,2,0,P|177:34|238:58,2,97.5,2|2|2,1:2|2:0|1:2,2:0:0:0:
120,145,48817,6,0,P|144:223|149:277,1,130,2|10,1:2|2:0,2:0:0:0:
218,308,49347,2,0,P|265:299|290:301,1,65,2|0,1:2|1:0,2:0:0:0:
345,345,49700,1,2,1:2:0:0:
384,278,49876,2,0,P|360:200|355:146,2,130,10|0|8,2:0|1:0|2:0,2:0:0:0:
509,360,50847,5,8,2:0:0:0:
509,360,50935,2,0,P|479:333|433:343,1,65,2|8,1:2|2:3,2:0:0:0:
384,278,51288,2,0,P|354:305|308:295,1,65,4|0,1:3|2:0,2:0:0:0:
217,347,51641,6,0,L|200:202,1,130,4|2,1:0|3:2,2:0:0:0:
240,150,52170,1,0,1:0:0:0:
323,225,52347,6,0,L|340:80,1,130,10|2,3:2|3:2,2:0:0:0:
309,24,52876,1,8,2:0:0:0:
309,24,52964,1,8,2:0:0:0:
309,24,53053,1,2,1:2:0:0:
192,74,53229,6,0,P|105:33|58:60,1,130,8|0,2:0|1:0,2:0:0:0:
105,128,53758,2,0,P|132:172|132:206,1,65,10|0,3:2|1:0,2:0:0:0:
212,200,54111,2,0,P|190:245|157:262,1,65,10|8,3:2|2:0,2:0:0:0:
141,267,54376,1,8,2:0:0:0:
141,267,54464,6,0,L|10:256,1,130,4|8,1:0|2:0,2:0:0:0:
37,338,54994,1,0,1:0:0:0:
37,338,55170,2,0,L|102:343,1,65,2|0,1:2|1:0,2:0:0:0:
175,378,55523,1,8,2:0:0:0:
295,315,55876,6,0,L|306:184,1,130,2|8,1:2|2:0,2:0:0:0:
369,138,56406,1,2,1:2:0:0:
369,138,56494,1,8,2:0:0:0:
369,138,56582,2,0,L|434:143,1,65,0|0,1:0|1:0,2:0:0:0:
285,109,56935,2,0,L|186:117,1,97.5,14|0,2:0|2:0,2:0:0:0:
143,100,57288,6,0,P|125:71|131:25,1,65,6|8,1:2|2:0,2:0:0:0:
107,182,57641,2,0,P|78:200|32:194,1,65,10|10,1:2|2:0,2:0:0:0:
189,218,57994,2,0,P|207:247|201:293,1,65,8|10,1:2|2:0,2:0:0:0:
225,136,58347,2,0,P|254:118|300:124,1,65,8|10,1:2|2:0,2:0:0:0:
352,154,58700,6,0,L|397:159,3,32.5,12|8|8|8,1:2|2:0|2:0|2:0,2:0:0:0:
425,177,59053,2,0,L|470:172,3,32.5,10|8|10|8,1:2|2:0|2:0|2:0,2:0:0:0:
504,150,59406,1,12,1:2:0:0:
478,245,59582,1,8,2:0:0:0:
471,253,59670,1,8,2:0:0:0:
465,262,59758,1,10,1:2:0:0:
460,272,59847,1,8,2:0:0:0:
457,282,59935,1,8,2:0:0:0:
434,364,60111,6,0,L|527:357,1,65,4|0,1:0|1:0,2:0:0:0:
371,306,60464,1,10,2:0:0:0:
371,306,60641,2,0,L|234:295,1,130,2|0,1:2|1:0,2:0:0:0:
168,325,61170,2,0,P|149:361|149:395,1,65,10|0,2:0|1:0,2:0:0:0:
179,246,61523,6,0,P|156:188|82:178,1,130,2|10,1:2|2:0,2:0:0:0:
63,246,62053,2,0,P|17:173|38:122,1,130,2|0,1:2|1:0,2:0:0:0:
95,98,62582,2,0,L|87:30,1,65,10|0,2:0|1:0,2:0:0:0:
163,136,62935,6,0,B|237:129|210:184|294:176,1,130,2|8,1:2|2:0,2:0:0:0:
336,120,63464,1,2,1:2:0:0:
336,120,63641,2,0,L|328:52,1,65,0|0,1:0|1:0,2:0:0:0:
406,48,63994,2,0,L|413:112,1,65,8|2,2:0|1:2,2:0:0:0:
384,191,64347,6,0,P|348:155|265:175,1,130,2|8,1:2|2:0,2:0:0:0:
221,228,64876,1,2,1:2:0:0:
221,228,65053,2,0,P|185:263|102:243,1,130,2|10,1:2|2:0,2:0:0:0:
34,236,65582,5,8,2:0:0:0:
31,233,65670,1,8,2:0:0:0:
28,230,65758,2,0,L|18:94,1,130,6|10,1:2|2:0,2:0:0:0:
63,35,66288,2,0,L|199:25,1,130,2|2,1:2|1:2,2:0:0:0:
250,85,66817,1,10,2:0:0:0:
250,85,66994,2,0,P|303:46|372:67,1,130,2|0,1:2|1:0,2:0:0:0:
412,129,67523,5,10,2:0:0:0:
474,86,67700,2,0,P|453:175|447:239,1,130,2|2,1:2|1:2,2:0:0:0:
505,358,68406,1,2,1:2:0:0:
439,316,68582,6,0,P|382:318|307:334,1,130,2|8,1:2|2:0,2:0:0:0:
252,280,69111,1,2,1:2:0:0:
220,351,69288,2,0,P|156:364|91:367,1,130,2|8,1:2|2:0,2:0:0:0:
91,367,69817,1,0,1:0:0:0:
32,317,69994,6,0,L|39:244,1,65,6|0,1:2|1:0,2:0:0:0:
6,174,70347,2,0,L|-1:101,1,65,10|0,2:0|2:0,2:0:0:0:
48,48,70700,2,0,L|98:44,3,32.5,14|8|8|8,1:2|2:0|2:0|2:0,2:0:0:0:
127,63,71053,2,0,L|177:67,3,32.5,10|8|8|8,1:2|2:0|2:0|2:0,2:0:0:0:
204,45,71406,6,0,L|361:37,1,130,4|10,1:0|2:0,2:0:0:0:
392,90,71935,2,0,P|382:124|430:207,1,130,2|2,1:2|1:2,2:0:0:0:
496,175,72464,1,8,2:0:0:0:
481,251,72641,5,2,1:2:0:0:
479,257,72729,1,8,2:0:0:0:
476,262,72817,2,0,L|483:331,1,65,0|0,1:0|1:0,2:0:0:0:
415,367,73170,1,10,2:0:0:0:
357,313,73347,2,0,L|221:302,1,130,2|0,1:2|1:0,2:0:0:0:
157,338,73876,2,0,P|148:296|159:262,1,65,8|2,2:0|1:2,2:0:0:0:
213,226,74229,6,0,L|342:236,1,130,2|10,1:2|2:0,2:0:0:0:
396,178,74758,2,0,L|391:111,1,65,2|0,1:2|1:0,2:0:0:0:
434,48,75111,2,0,L|498:43,1,65,2|8,1:2|2:0,2:0:0:0:
355,26,75464,2,0,B|278:18|302:75|217:58,1,130,2|2,1:2|1:2,2:0:0:0:
156,49,75994,1,10,2:0:0:0:
156,49,76170,2,0,P|171:142|175:197,1,130,2|0,1:2|1:0,2:0:0:0:
96,165,76700,1,8,2:0:0:0:
130,244,76876,5,10,2:0:0:0:
130,244,76964,1,8,2:0:0:0:
130,244,77053,2,0,P|92:209|1:228,1,130,4|10,1:2|2:0,2:0:0:0:
2,291,77582,2,0,P|14:338|20:374,1,65,2|0,1:2|1:0,2:0:0:0:
91,322,77935,1,2,1:2:0:0:
144,378,78111,2,0,P|185:369|277:359,2,130,10|0|8,2:0|1:0|2:0,2:0:0:0:
91,322,78994,1,2,1:2:0:0:
84,319,79082,1,8,2:0:0:0:
78,316,79170,2,0,P|85:266|92:220,2,97.5,2|2|2,1:2|2:0|1:2,2:0:0:0:
168,280,79876,6,0,P|226:283|262:347,1,130,2|8,1:2|2:0,2:0:0:0:
341,347,80406,1,2,2:0:0:0:
388,285,80582,2,0,P|377:223|421:178,1,130,2|12,1:2|2:0,2:0:0:0:
496,157,81111,1,0,1:0:0:0:
441,101,81288,6,0,L|394:95,3,32.5,8|8|0|8,1:2|2:0|2:0|2:0,2:0:0:0:
356,79,81641,2,0,L|309:85,3,32.5,8|0|8|8,1:3|2:0|2:0|2:0,2:0:0:0:
284,117,81994,2,0,L|237:111,3,32.5,14|8|8|8,1:2|2:0|2:0|2:0,2:0:0:0:
199,95,82347,2,0,L|152:101,3,32.5,10|8|8|8,1:2|2:0|2:0|2:0,2:0:0:0:
125,138,82700,6,0,L|144:227,1,65,4|0,1:0|1:0,2:0:0:0:
99,269,83053,2,0,P|15:265|-8:226,1,130,10|0,2:0|1:0,2:0:0:0:
45,173,83582,1,0,1:0:0:0:
6,105,83758,2,0,P|1:51|-3:18,1,65,10|0,2:0|1:0,2:0:0:0:
72,12,84111,6,0,B|144:14|124:66|190:68,1,130,2|10,1:2|2:0,2:0:0:0:
262,64,84641,2,0,P|250:140|247:195,1,130,2|0,1:2|1:0,2:0:0:0:
267,267,85170,2,0,P|235:271|206:259,1,65,10|0,2:0|1:0,2:0:0:0:
323,212,85523,6,0,P|387:216|451:226,1,130,2|8,1:2|2:0,2:0:0:0:
492,294,86053,1,2,1:2:0:0:
492,294,86229,2,0,B|473:321|462:347|462:347|409:330|373:332,1,130,0|8,1:0|2:0,2:0:0:0:
317,349,86758,1,2,1:2:0:0:
317,349,86935,2,0,B|288:332|270:307|270:307|234:324|187:327,1,130,2|8,1:2|2:0,2:0:0:0:
135,291,87464,1,2,1:2:0:0:
135,291,87641,2,0,P|125:331|155:387,2,97.5,2|2|10,1:2|2:0|2:0,2:0:0:0:
201,249,88347,6,0,P|221:185|178:110,1,130,6|8,1:2|2:0,2:0:0:0:
123,106,88876,1,0,1:2:0:0:
182,54,89053,2,0,P|232:48|292:37,2,97.5,2|2|2,1:2|2:0|1:2,2:0:0:0:
123,106,89758,6,0,P|87:77|-8:107,1,130,2|10,1:2|2:0,2:0:0:0:
43,158,90288,2,0,P|60:230|72:299,1,130,2|2,1:2|1:2,2:0:0:0:
66,363,90817,2,0,P|30:356|-2:354,1,65,8|2,2:0|1:2,2:0:0:0:
139,319,91170,2,0,B|174:317|213:310|213:310|234:336|257:351,1,130,6|8,1:2|2:0,2:0:0:0:
320,307,91700,5,2,1:2:0:0:
320,307,91876,2,0,B|355:309|394:316|394:316|415:290|438:275,1,130,2|8,1:2|2:0,2:0:0:0:
502,316,92406,1,0,1:0:0:0:
503,238,92582,2,0,P|506:195|511:159,1,65,12|0,2:0|1:0,2:0:0:0:
415,198,92935,2,0,P|411:155|407:119,1,65,8|0,2:0|1:0,2:0:0:0:
340,85,93288,2,0,P|299:88|238:92,2,97.5,10|8|4,1:2|2:3|2:3,2:0:0:0:
397,214,93994,6,0,B|475:209|438:264|530:262,1,130,4|2,1:0|1:2,2:0:0:0:
467,345,94523,2,0,P|431:347|394:365,1,65,2|0,2:0|1:0,2:0:0:0:
334,322,94876,2,0,P|332:286|314:249,1,65,2|0,2:0|1:0,2:0:0:0:
246,234,95229,6,0,P|174:252|110:165,1,195,2|0,2:0|1:0,2:0:0:0:
178,126,95935,1,2,2:0:0:0:
109,87,96111,2,0,P|29:105|5:112,2,97.5,2|2|2,1:2|2:0|2:0,2:0:0:0:
174,44,96817,6,0,P|221:56|268:66,1,97.5,2|0,1:2|2:0,2:0:0:0:
304,48,97170,1,2,1:2:0:0:
362,116,97347,2,0,P|327:156|343:235,1,130,2|2,2:0|2:0,2:0:0:0:
405,266,97876,1,0,1:0:0:0:
483,282,98053,1,2,2:0:0:0:
455,362,98229,6,0,P|402:343|386:343,2,65,14|0|2,2:0|1:0|1:2,2:0:0:0:
405,266,98758,1,14,2:0:0:0:
180,329,99111,1,14,2:0:0:0:
53,169,99464,1,10,2:0:0:0:
53,169,99553,1,8,2:0:0:0:
53,169,99641,1,4,1:0:0:0:
133,208,99817,6,0,P|136:137|149:66,1,130,0|0,1:0|1:0,2:0:0:0:
76,36,100347,2,0,P|123:-1|202:21,1,130,8|0,3:2|3:0,2:0:0:0:
249,74,100876,1,8,2:0:0:0:
249,74,100964,1,8,2:0:0:0:
249,74,101053,1,2,1:2:0:0:
331,19,101229,6,0,P|333:83|343:148,1,130,8|0,2:0|1:0,2:0:0:0:
273,190,101758,2,0,P|308:224|333:227,1,65,10|8,3:2|2:0,2:0:0:0:
414,191,102111,2,0,P|425:143|416:120,1,65,10|8,3:2|2:0,2:0:0:0:
401,275,102464,5,2,2:0:0:0:
68,341,103700,2,0,L|66:374,3,21.6666666666667,2|2|2|2,2:0|2:0|2:0|2:0,2:0:0:0:
68,341,104935,5,10,2:0:0:0:
67,331,105023,1,8,2:0:0:0:
66,322,105111,1,10,2:0:0:0:
65,312,105200,1,8,2:0:0:0:
64,303,105288,2,0,L|-12:310,1,65,4|0,1:0|1:0,2:0:0:0:
124,249,105641,2,0,L|276:263,1,130,8|0,2:0|1:0,2:0:0:0:
307,324,106170,1,2,1:2:0:0:
307,324,106347,2,0,P|335:254|312:212,1,97.5,10|8,2:0|2:0,2:0:0:0:
305,199,106700,6,0,P|304:166|314:131,1,65,2|0,1:2|1:0,2:0:0:0:
327,58,107053,2,0,P|294:59|259:49,1,65,10|0,2:0|1:0,2:0:0:0:
185,43,107406,2,0,P|186:76|176:111,1,65,2|0,1:2|1:0,2:0:0:0:
163,184,107758,2,0,P|196:183|231:193,1,65,10|4,2:0|2:3,2:0:0:0:
299,299,108111,6,0,L|293:380,1,65,14|0,2:0|1:0,2:0:0:0:
220,316,108459,1,8,2:0:0:0:
151,352,108634,1,2,1:2:0:0:
151,352,108808,2,0,L|70:346,1,65,10|0,2:0|1:0,2:0:0:0:
90,269,109157,2,0,L|171:275,1,65,8|4,2:0|2:3,2:0:0:0:
227,185,109506,6,0,L|92:193,1,130,14|10,1:2|1:2,2:0:0:0:
35,144,110035,1,8,2:0:0:0:
35,144,110211,1,10,1:2:0:0:
53,61,110390,5,8,2:0:0:0:
60,55,110480,1,8,2:0:0:0:
69,51,110570,1,10,1:2:0:0:
80,50,110660,1,8,2:0:0:0:
88,51,110749,1,8,2:0:0:0:
160,105,110929,6,0,L|153:180,1,65,4|0,1:0|1:0,2:0:0:0:
244,204,111281,2,0,L|237:129,1,65,8|2,2:0|1:2,2:0:0:0:
287,78,111634,2,0,P|361:87|405:93,2,97.5,2|2|2,1:2|2:0|1:2,2:0:0:0:
225,29,112340,6,0,P|161:38|142:41,1,65,2|0,1:2|1:0,2:0:0:0:
88,8,112693,1,10,2:0:0:0:
62,81,112870,2,0,P|66:113|71:145,1,65,2|0,1:2|1:0,2:0:0:0:
45,219,113223,2,0,P|2:193|-7:151,1,65,2|8,2:0|2:0,2:0:0:0:
126,203,113576,6,0,P|114:286|108:337,1,130,2|0,1:2|1:0,2:0:0:0:
169,382,114105,2,0,L|244:373,1,65,8|0,2:0|1:0,2:0:0:0:
264,302,114458,2,0,L|199:294,1,65,0|2,1:0|1:2,2:0:0:0:
210,217,114811,1,10,2:0:0:0:
265,162,114987,6,0,P|356:153|421:149,1,130,2|0,1:2|1:0,2:0:0:0:
452,82,115517,2,0,P|406:68|386:40,1,65,8|0,2:0|1:0,2:0:0:0:
322,12,115870,2,0,P|308:58|280:78,1,65,2|0,1:2|1:0,2:0:0:0:
222,94,116223,1,10,2:0:0:0:
153,56,116399,1,0,3:0:0:0:
70,112,116576,6,0,P|77:182|80:205,1,65,0|0,1:0|1:0,2:0:0:0:
145,213,116928,2,0,P|138:283|135:306,1,65,8|2,2:0|1:2,2:0:0:0:
87,337,117281,2,0,P|22:329|-20:323,2,97.5,2|2|2,1:2|2:0|1:2,2:0:0:0:
165,348,117987,6,0,P|218:357|263:291,1,130,2|10,1:2|2:0,2:0:0:0:
219,237,118517,2,0,P|202:202|213:156,1,65,2|0,1:2|1:0,2:0:0:0:
233,150,118781,1,8,2:0:0:0:
233,150,118870,2,0,L|324:161,1,65,2|8,1:2|2:0,2:0:0:0:
365,118,119223,1,2,1:2:0:0:
416,176,119399,6,0,P|407:223|404:261,1,65,2|0,2:0|1:0,2:0:0:0:
305,248,119752,2,0,P|309:280|315:312,1,65,8|2,2:0|1:2,2:0:0:0:
347,334,120017,1,8,2:0:0:0:
347,334,120105,2,0,P|408:328|456:385,1,130,2|8,1:2|2:0,2:0:0:0:
503,302,120634,5,0,1:0:0:0:
507,297,120723,1,8,2:0:0:0:
511,292,120811,2,0,P|506:259|500:227,1,65,2|0,1:2|1:0,2:0:0:0:
435,183,121164,2,0,P|402:187|370:193,1,65,10|0,2:0|1:0,2:0:0:0:
510,151,121517,2,0,B|533:82|463:98|497:12,1,130,2|10,1:2|2:0,2:0:0:0:
413,15,122046,1,0,3:0:0:0:
374,82,122223,6,0,P|297:70|284:69,1,65,0|0,1:0|1:0,2:0:0:0:
267,137,122576,1,10,2:0:0:0:
198,99,122752,1,0,1:0:0:0:
198,99,122840,1,8,2:0:0:0:
198,99,122928,2,0,P|192:50|186:11,1,65,2|0,1:2|1:0,2:0:0:0:
112,47,123281,2,0,P|106:96|100:135,1,65,10|0,2:0|1:0,2:0:0:0:
146,177,123634,6,0,P|85:159|32:193,1,130,0|8,1:0|2:0,2:0:0:0:
0,272,124164,1,2,1:2:0:0:
0,272,124340,2,0,P|6:341|8:385,2,97.5,2|2|2,1:2|2:0|1:2,2:0:0:0:
77,262,125046,6,0,P|134:268|203:320,1,130,2|10,1:2|2:0,2:0:0:0:
255,355,125576,2,0,P|272:313|255:268,1,65,2|0,1:2|1:0,2:0:0:0:
250,218,125929,1,2,1:2:0:0:
250,218,126105,2,0,L|318:223,1,65,10|0,2:0|1:0,2:0:0:0:
371,289,126458,5,0,1:0:0:0:
371,289,126634,1,0,1:0:0:0:
397,209,126811,2,0,L|387:67,2,130,8|2|10,2:0|1:2|3:2,2:0:0:0:
472,231,127693,1,2,2:0:0:0:
451,308,127870,6,0,L|456:379,1,65,0|2,1:0|1:2,2:0:0:0:
371,289,128223,2,0,B|293:278|321:336|235:323,1,130,10|0,2:0|1:0,2:0:0:0:
197,266,128752,1,0,1:0:0:0:
134,312,128928,2,0,P|118:267|123:240,1,65,10|0,2:0|2:0,2:0:0:0:
183,176,129281,6,0,P|297:191|320:195,1,130,2|10,1:2|2:0,2:0:0:0:
367,139,129811,2,0,P|360:78|356:54,1,65,2|4,1:2|1:2,2:0:0:0:
433,183,130164,2,0,P|428:215|425:247,1,65,2|8,1:2|2:0,2:0:0:0:
468,313,130517,1,2,2:0:0:0:
406,360,130693,6,0,P|375:327|277:339,1,130,4|10,1:2|2:0,2:0:0:0:
88,214,131399,2,0,P|50:162|61:100,1,130,0|10,1:0|2:0,2:0:0:0:
203,34,132105,6,0,L|260:40,3,32.5,6|8|8|8,1:2|2:0|2:0|2:0,2:0:0:0:
272,65,132458,2,0,L|329:59,3,32.5,2|4|12|4,1:2|2:3|2:3|2:3,2:0:0:0:
341,51,132811,2,0,L|398:57,3,32.5,2|8|4|4,1:2|2:0|2:3|2:3,2:0:0:0:
410,82,133164,2,0,L|467:76,3,32.5,2|4|4|4,1:2|2:3|2:3|2:3,2:0:0:0:
495,70,133517,6,0,P|511:124|497:151,1,65,6|0,1:2|1:0,2:0:0:0:
452,183,133870,2,0,P|400:163|320:163,1,130,10|0,2:0|1:0,2:0:0:0:
266,212,134399,1,2,1:2:0:0:
266,212,134576,2,0,P|272:243|276:276,1,65,10|0,2:0|1:0,2:0:0:0:
222,332,134928,1,0,1:0:0:0:
163,280,135105,1,0,1:0:0:0:
93,316,135281,2,0,P|37:302|0:302,1,65,8|2,2:0|1:2,2:0:0:0:
8,221,135634,2,0,P|69:208|92:170,2,97.5,2|2|2,1:2|2:0|2:0,2:0:0:0:
19,143,136340,6,0,P|39:58|43:3,1,130,6|10,1:2|2:0,2:0:0:0:
129,25,136870,2,0,P|119:67|117:95,1,65,2|0,1:2|1:0,2:0:0:0:
166,149,137223,1,2,1:2:0:0:
233,87,137399,2,0,P|295:92|325:124,1,97.5,14|0,2:0|1:0,2:0:0:0:
341,146,137752,2,0,P|330:194|326:232,1,65,8|8,1:2|2:0,2:0:0:0:
365,277,138105,2,0,P|413:288|451:292,1,65,0|8,1:0|2:3,2:0:0:0:
486,237,138458,6,0,P|492:207|494:194,3,32.5,2|8|8|8,1:2|2:0|2:3|2:3,2:0:0:0:
470,155,138811,2,0,P|472:138|476:123,3,32.5,2|4|4|4,1:2|2:3|2:3|2:3,2:0:0:0:
511,78,139164,5,6,1:2:0:0:
263,20,139870,1,6,2:0:0:0:
88,205,140576,2,0,P|86:244|105:275,1,65,6|4,2:0|2:3,2:0:0:0:
42,322,140928,2,0,P|74:343|111:342,1,65,4|4,2:3|2:3,2:0:0:0:
168,307,141281,2,0,B|184:283|181:255|181:255|205:213|259:216,1,130,2|10,2:0|2:0,2:0:0:0:
317,271,141811,5,8,2:0:0:0:
317,271,141899,1,8,2:0:0:0:
317,271,141987,2,0,P|405:264|465:263,1,130,4|8,1:0|2:0,2:0:0:0:
439,182,142517,1,2,1:2:0:0:
439,182,142693,2,0,P|403:186|374:187,1,65,2|0,1:2|1:0,2:0:0:0:
343,114,143046,1,8,2:0:0:0:
217,150,143399,6,0,P|224:222|227:280,1,130,2|8,1:2|2:0,2:0:0:0:
300,324,143928,1,2,1:2:0:0:
300,324,144017,1,8,2:0:0:0:
300,324,144105,2,0,P|263:355|226:353,1,65,0|0,1:0|1:0,2:0:0:0:
171,339,144458,2,0,P|121:332|72:329,1,97.5,14|0,2:0|2:0,2:0:0:0:
35,335,144811,6,0,P|7:291|13:256,1,65,6|8,1:2|2:0,2:0:0:0:
47,213,145164,2,0,P|80:172|115:167,1,65,10|10,1:2|2:0,2:0:0:0:
167,186,145517,2,0,P|215:205|231:236,1,65,8|10,1:2|2:0,2:0:0:0:
229,291,145870,2,0,P|225:343|200:367,1,65,8|10,1:2|2:0,2:0:0:0:
109,364,146223,6,0,P|107:345|103:318,3,32.5,12|8|8|8,1:2|2:0|2:0|2:0,2:0:0:0:
136,284,146576,2,0,P|138:265|142:238,3,32.5,10|8|10|8,1:2|2:0|2:0|2:0,2:0:0:0:
128,204,146928,2,0,P|126:185|122:158,3,32.5,8|8|8|8,1:2|2:0|2:0|2:0,2:0:0:0:
155,126,147281,2,0,P|157:107|161:80,3,32.5,10|8|8|8,1:2|2:0|2:0|2:0,2:0:0:0:
150,37,147634,6,0,P|96:45|73:76,1,65,4|0,1:0|1:0,2:0:0:0:
238,72,147987,1,10,2:0:0:0:
238,72,148164,2,0,P|307:111|354:89,1,130,0|0,1:2|1:0,2:0:0:0:
398,32,148693,2,0,P|424:63|424:105,1,65,10|0,2:0|1:0,2:0:0:0:
394,157,149046,6,0,B|376:176|369:193|369:193|387:228|407:298,1,130,2|10,1:2|2:0,2:0:0:0:
458,324,149576,2,0,P|381:348|330:300,1,130,2|0,1:2|1:0,2:0:0:0:
282,275,150105,2,0,P|287:242|290:204,1,65,10|2,2:0|1:2,2:0:0:0:
273,350,150458,6,0,B|201:330|218:389|137:366,1,130,2|8,1:2|2:0,2:0:0:0:
112,306,150987,1,2,1:2:0:0:
112,306,151164,2,0,B|94:271|77:249|77:249|90:214|98:160,1,130,2|8,1:2|2:0,2:0:0:0:
61,116,151693,5,2,1:2:0:0:
61,116,151870,2,0,L|207:106,1,130,2|8,1:2|2:0,2:0:0:0:
255,152,152399,1,2,1:2:0:0:
317,105,152576,2,0,P|324:43|331:-8,2,97.5,2|2|2,1:2|2:0|1:2,2:0:0:0:
326,182,153281,6,0,P|394:189|433:131,1,130,6|8,1:2|2:0,2:0:0:0:
409,64,153811,1,2,1:2:0:0:
409,64,153987,2,0,P|455:71|516:79,2,97.5,2|2|2,1:2|2:0|1:2,2:0:0:0:
328,8,154693,6,0,P|250:0|212:62,1,130,2|10,1:2|2:0,2:0:0:0:
181,102,155223,2,0,P|103:110|65:48,1,130,2|2,1:2|1:2,2:0:0:0:
7,219,155928,1,2,1:2:0:0:
57,278,156105,6,0,P|111:289|202:335,1,130,2|8,1:2|2:0,2:0:0:0:
246,279,156634,1,2,1:2:0:0:
246,279,156811,2,0,P|300:287|401:275,1,130,2|12,1:2|2:0,2:0:0:0:
450,144,157517,2,0,P|437:97|432:68,1,65,12|0,2:0|1:0,2:0:0:0:
358,60,157870,2,0,P|351:91|341:122,1,65,8|0,2:0|1:0,2:0:0:0:
277,167,158223,2,0,P|326:199|386:184,2,97.5,14|10|6,2:0|2:0|2:3,2:0:0:0:
235,100,158928,6,0,P|193:103|117:112,1,104,4|2,1:0|1:2,2:0:0:0:
151,274,159634,2,0,P|109:271|33:262,1,104,0|0,1:0|1:0,2:0:0:0:
29,131,160340,6,0,P|26:89|17:13,1,104,0|0,1:0|1:0,2:0:0:0:
151,274,161046,2,0,P|154:232|163:156,1,104,2|0,1:2|1:0,2:0:0:0:
338,40,161752,6,0,P|380:43|456:52,1,104,2|2,1:2|1:2,2:0:0:0:
300,199,162458,2,0,P|342:196|418:187,1,104,0|4,1:0|1:2,2:0:0:0:
403,189,163164,6,0,P|351:245|357:303,1,130,14|2,2:0|1:2,2:0:0:0:
481,302,163693,2,0,P|456:273|419:269,1,65,14|0,2:0|2:0,2:0:0:0:
277,288,164046,2,0,P|277:326|303:353,1,65,14|0,2:0|2:0,2:0:0:0:
197,244,164390,5,10,2:0:0:0:
197,244,164477,1,8,2:0:0:0:
197,244,164563,2,0,P|203:191|207:150,1,65,4|0,1:0|1:0,2:0:0:0:
139,304,164915,2,0,P|77:294|-14:288,1,130,8|0,2:0|1:0,2:0:0:0:
17,210,165445,1,0,1:0:0:0:
17,210,165621,2,0,P|64:197|87:167,1,65,8|0,2:0|2:0,2:0:0:0:
57,110,165974,2,0,P|109:115|131:135,1,65,2|0,1:2|1:0,2:0:0:0:
157,53,166327,2,0,P|193:92|180:170,2,130,8|2|10,2:0|1:2|2:0,2:0:0:0:
82,28,167210,5,8,2:0:0:0:
82,28,167298,1,8,2:0:0:0:
82,28,167386,2,0,P|80:76|97:101,1,65,6|0,1:2|1:0,2:0:0:0:
39,163,167739,1,10,2:0:0:0:
39,163,167915,2,0,L|171:174,1,130,2|2,1:2|1:2,2:0:0:0:
243,151,168445,2,0,P|245:199|228:224,1,65,8|2,2:0|1:2,2:0:0:0:
204,283,168798,6,0,P|264:252|330:270,1,130,14|8,1:2|1:2,2:0:0:0:
395,319,169333,1,10,2:0:0:0:
395,319,169512,2,0,L|399:264,3,32.5,10|8|8|8,1:2|2:0|2:0|2:0,2:0:0:0:
431,240,169869,2,0,L|427:185,3,32.5,10|8|10|8,1:2|2:0|2:0|2:0,2:0:0:0:
409,156,170226,5,4,1:0:0:0:
149,70,171108,2,0,L|154:21,2,38.9999999999999,2|2|2,2:0|3:2|2:0,2:0:0:0:
106,137,171637,6,0,L|118:227,1,77.9999999999998,2|2,3:2|3:2,2:0:0:0:
68,270,172167,2,0,L|158:282,1,77.9999999999998,2|2,2:0|2:0,2:0:0:0:
222,290,172696,2,0,P|234:311|238:333,1,38.9999999999999,2|0,3:2|1:0,2:0:0:0:
307,364,173049,5,0,1:0:0:0:
414,134,173931,2,0,L|465:129,2,38.9999999999999,2|2|2,2:0|3:2|2:0,2:0:0:0:
352,90,174461,6,0,L|267:82,1,77.9999999999998,2|2,3:2|3:2,2:0:0:0:
198,54,174990,2,0,P|194:94|214:134,1,77.9999999999998,2|2,2:0|2:0,2:0:0:0:
276,168,175520,2,0,L|266:220,1,38.9999999999999,2|0,3:2|1:0,2:0:0:0:
208,255,175873,5,0,1:0:0:0:
56,295,176402,1,2,2:0:0:0:
56,295,176578,2,0,P|18:288|-3:270,2,58.4999999999999,2|2|2,3:2|2:0|2:0,2:0:0:0:
52,218,177284,6,0,L|46:127,2,77.9999999999998,2|2|4,3:2|3:2|3:2,2:0:0:0:
126,240,178167,1,2,2:0:0:0:
60,335,178343,1,0,1:0:0:0:
60,335,178689,5,4,1:0:0:0:
138,315,178865,2,0,L|234:322,1,77.9999999999998,0|2,1:0|1:2,2:0:0:0:
282,359,179394,6,0,P|294:316|286:289,1,52,10|0,2:0|1:0,2:0:0:0:
370,299,179747,2,0,P|351:258|328:242,1,52,8|2,2:0|1:2,2:0:0:0:
398,196,180100,2,0,P|357:176|329:179,1,52,10|0,2:0|1:0,2:0:0:0:
353,99,180453,2,0,P|309:110|290:130,1,52,8|2,2:0|1:2,2:0:0:0:
250,185,180801,5,8,1:2:0:0:
240,189,180889,1,8,2:0:0:0:
232,193,180976,1,10,2:0:0:0:
222,194,181063,1,8,2:0:0:0:
211,195,181150,2,0,L|176:189,3,32.5,10|8|8|8,1:2|2:0|2:0|2:0,2:0:0:0:
160,168,181512,6,0,L|174:36,1,130,4|8,1:0|1:2,2:0:0:0:
96,24,182041,1,10,2:0:0:0:
83,100,182218,2,0,L|10:109,1,65,10|10,1:2|2:0,2:0:0:0:
29,185,182570,2,0,L|93:177,1,65,10|10,1:2|2:0,2:0:0:0:
150,230,182923,6,0,P|125:284|118:364,1,130,10|10,1:2|1:2,2:0:0:0:
193,333,183453,2,0,P|240:341|260:364,1,65,10|8,2:0|1:2,2:0:0:0:
296,287,183806,2,0,P|326:323|327:353,1,65,10|8,2:0|1:2,2:0:0:0:
400,307,184159,1,10,2:0:0:0:
480,361,184335,6,0,P|493:279|510:208,1,130,14|8,1:2|1:2,2:0:0:0:
462,166,184865,1,10,2:0:0:0:
462,166,185041,2,0,P|389:168|343:128,1,130,10|10,1:2|1:2,2:0:0:0:
376,61,185571,5,10,2:0:0:0:
376,61,185659,1,8,2:0:0:0:
376,61,185747,2,0,P|416:65|446:70,1,65,14|8,1:2|2:0,2:0:0:0:
284,64,186100,2,0,P|288:23|293:-6,1,65,8|10,1:2|2:0,2:0:0:0:
225,137,186453,2,0,P|229:177|234:207,1,65,2|10,1:2|2:0,2:0:0:0:
157,91,186806,2,0,P|118:99|105:104,3,32.5,10|8|10|8,1:2|2:0|2:0|2:0,2:0:0:0:
103,129,187159,6,0,P|61:139|-3:72,1,130,4|8,1:0|2:0,2:0:0:0:
35,19,187688,1,2,1:2:0:0:
35,19,187865,2,0,L|107:15,2,65,2|2|10,1:2|1:2|2:0,2:0:0:0:
0,86,188394,2,0,P|11:139|11:157,1,65,2|0,1:2|1:0,2:0:0:0:
11,227,188747,2,0,P|74:212|138:205,1,130,2|0,1:2|1:0,2:0:0:0:
208,240,189276,2,0,P|205:166|171:136,2,97.5,2|2|2,1:2|2:0|1:2,2:0:0:0:
145,286,189982,6,0,B|247:272|220:367|332:340,1,195,2|2,1:2|1:2,2:0:0:0:
377,288,190688,1,2,1:2:0:0:
377,288,190865,1,0,1:0:0:0:
458,320,191041,2,0,P|470:241|484:167,2,130,8|2|8,2:0|1:2|2:0,2:0:0:0:
352,210,192100,1,0,1:0:0:0:
352,210,192276,1,0,1:0:0:0:
263,253,192453,2,0,P|256:190|250:161,1,65,14|0,2:0|1:0,2:0:0:0:
290,95,192806,5,4,1:0:0:0:
216,120,192982,1,0,1:0:0:0:
141,66,193159,2,0,P|151:9|153:-10,1,65,14|2,2:0|3:2,2:0:0:0:
70,123,193512,2,0,P|13:113|-6:111,1,65,4|2,1:2|1:2,2:0:0:0:
123,198,193865,2,0,P|135:257|145:332,1,130,12|0,2:0|1:0,2:0:0:0:
231,363,194394,5,8,2:0:0:0:
231,363,194482,1,8,2:0:0:0:
231,363,194570,2,0,P|237:325|239:313,3,32.5,10|8|10|8,1:2|2:0|2:0|2:0,2:0:0:0:
274,285,194924,2,0,P|306:265|317:258,3,32.5,8|8|8|8,1:2|2:0|2:0|2:0,2:0:0:0:
361,267,195272,2,0,P|397:279|408:283,3,32.5,8|8|8|8,1:2|2:0|2:0|2:0,2:0:0:0:
432,316,195621,5,4,1:0:0:0:
36,91,198268,5,0,1:0:0:0:
113,128,198445,2,0,B|120:160|122:191|122:191|122:190,1,65,2|0,1:2|3:0,2:0:0:0:
426,75,200755,5,0,1:0:0:0:
426,75,201108,1,0,1:0:0:0:
346,121,201284,2,0,B|339:153|337:184|337:184|337:183,1,65,2|0,1:2|3:0,2:0:0:0:
217,151,203931,5,0,1:0:0:0:
278,207,204108,2,0,B|270:250|266:263|266:263|264:271,1,65,2|0,1:2|3:0,2:0:0:0:
159,286,204631,5,2,2:0:0:0:
144,297,204805,2,0,B|148:340|151:353|151:353|152:361,1,65,2|12,3:2|3:2,2:0:0:0:
370,236,205503,5,2,1:2:0:0:
451,248,205679,1,8,2:0:0:0:
441,325,205855,1,8,1:2:0:0:
358,315,206032,1,8,2:0:0:0:
370,236,206208,2,0,L|364:183,2,43.3333333333333,10|8|4,1:2|2:0|2:3,2:0:0:0:
341,312,206569,2,0,L|335:365,2,43.5131666666666,4|4|4,2:3|2:3|2:3,2:0:0:0:
288,254,206915,5,4,1:0:0:0:
288,254,207091,2,0,L|272:96,1,130,0|0,1:0|1:0,2:0:0:0:
295,46,207620,2,0,B|191:28|209:122|101:94,1,195,8|4,3:2|2:3,2:0:0:0:
94,80,208238,1,4,2:3:0:0:
94,80,208326,1,2,1:2:0:0:
25,128,208503,6,0,P|54:187|58:216,1,65,8|2,2:0|3:2,2:0:0:0:
117,230,208856,1,0,1:0:0:0:
48,266,209032,2,0,P|106:276|197:307,1,130,10|2,3:2|3:2,2:0:0:0:
244,356,209562,1,4,2:3:0:0:
244,356,209650,1,4,2:3:0:0:
244,356,209738,1,2,1:2:0:0:
251,265,209915,6,0,P|261:208|271:188,1,65,0|0,1:0|3:0,2:0:0:0:
345,167,210267,1,2,1:2:0:0:
345,167,210444,2,0,B|390:169|414:184|414:184|442:209|489:201,1,130,10|0,3:2|3:0,2:0:0:0:
471,125,210973,1,2,2:0:0:0:
374,74,211150,1,2,1:2:0:0:
437,12,211326,6,0,P|492:22|514:27,2,65,8|0|4,2:0|3:0|2:3,2:0:0:0:
300,39,211856,1,10,3:2:0:0:
471,125,212209,5,8,1:2:0:0:
469,133,212297,1,8,2:0:0:0:
468,141,212385,1,8,2:3:0:0:
466,149,212473,1,8,2:0:0:0:
465,157,212562,2,0,L|474:227,1,65,4|0,1:0|1:0,2:0:0:0:
415,274,212915,6,0,B|346:252|356:317|280:290,1,130,8|0,2:0|1:0,2:0:0:0:
232,241,213444,1,0,1:0:0:0:
168,298,213620,2,0,P|190:336|181:369,1,65,10|2,2:0|2:0,2:0:0:0:
94,320,213973,2,0,P|94:351|114:377,1,65,2|0,1:2|1:0,2:0:0:0:
105,239,214326,5,10,2:0:0:0:
105,239,214503,2,0,L|23:235,1,65,2|0,1:2|1:0,2:0:0:0:
5,147,214856,2,0,L|70:144,2,65,2|8|2,1:2|2:0|2:0,2:0:0:0:
35,60,215385,6,0,P|84:54|150:108,1,130,2|8,1:2|2:0,2:0:0:0:
203,29,215915,2,0,P|233:74|218:152,1,130,2|0,1:2|1:0,2:0:0:0:
221,234,216444,2,0,P|281:213|313:158,1,130,10|2,2:0|1:2,2:0:0:0:
386,205,216973,2,0,P|398:142|365:87,1,130,0|0,1:0|1:0,2:0:0:0:
333,76,217415,1,8,2:0:0:0:
333,76,217503,6,0,L|256:82,1,65,2|8,1:2|2:3,2:0:0:0:
192,112,217856,2,0,P|186:72|203:34,1,65,2|4,1:2|2:3,2:0:0:0:
262,162,218209,1,4,1:0:0:0:
182,225,218385,6,0,P|111:213|39:209,1,130,0|0,1:0|1:0,2:0:0:0:
45,286,218915,2,0,P|109:290|173:301,1,130,10|0,3:2|1:0,2:0:0:0:
247,355,219444,2,0,P|260:316|258:287,1,65,0|2,1:0|3:2,2:0:0:0:
334,249,219797,2,0,P|384:282|462:283,1,130,8|0,2:0|1:0,2:0:0:0:
505,225,220326,2,0,P|473:207|434:209,1,65,10|0,3:2|1:0,2:0:0:0:
413,126,220679,2,0,P|444:107|462:72,1,65,14|0,2:0|2:0,2:0:0:0:
443,7,221032,6,0,L|327:0,1,97.5,6|0,1:2|2:0,2:0:0:0:
329,13,221385,6,0,L|337:80,1,65,8|8,1:2|2:0,2:0:0:0:
248,24,221738,2,0,L|256:91,1,65,8|8,1:2|2:0,2:0:0:0:
328,158,222091,6,0,L|320:225,1,65,8|8,1:2|2:0,2:0:0:0:
409,169,222444,2,0,L|401:236,1,65,10|8,1:2|2:0,2:0:0:0:
346,307,222797,5,8,1:2:0:0:
264,290,222973,1,8,2:0:0:0:
198,359,223150,5,8,1:2:0:0:
166,261,223326,1,8,2:0:0:0:
235,188,223503,5,10,1:2:0:0:
264,290,223679,1,8,2:0:0:0:
173,253,223856,5,2,2:0:0:0:
0,252,234620,5,0,3:0:0:0:
0,252,234797,1,6,2:0:0:0:
84,160,235150,6,0,P|139:165|196:174,1,104,6|2,2:0|2:0,2:0:0:0:
254,212,235679,2,0,P|309:207|366:198,1,104,2|2,3:2|2:0,2:0:0:0:
452,40,236385,5,2,2:0:0:0:
452,40,236473,1,0,3:0:0:0:
452,40,236562,2,0,P|422:119|413:153,1,104,0|2,3:0|2:0,2:0:0:0:
437,215,237091,2,0,P|452:264|472:312,1,104,2|0,3:2|2:0,2:0:0:0:
333,364,237797,5,2,2:0:0:0:
333,364,237885,1,0,3:0:0:0:
333,364,237973,2,0,P|282:352|230:345,1,104,2|2,3:2|2:0,2:0:0:0:
185,273,238503,2,0,P|225:262|255:259,1,52,2|0,3:2|2:0,2:0:0:0:
115,317,238856,2,0,P|110:291|83:215,1,104,2|2,2:0|2:0,2:0:0:0:
128,149,239385,6,0,L|192:156,1,52,0|2,1:0|2:0,2:0:0:0:
242,98,239738,2,0,L|306:91,1,52,2|2,1:2|2:0,2:0:0:0:
335,197,240091,2,0,L|399:190,1,52,4|8,1:2|2:0,2:0:0:0:
498,145,240444,5,8,1:2:0:0:
504,139,240532,1,8,2:0:0:0:
509,132,240620,1,10,2:0:0:0:
510,123,240709,1,8,2:0:0:0:
509,115,240797,6,0,L|369:104,1,130,4|10,1:0|1:2,2:0:0:0:
269,41,241326,2,0,L|339:33,1,65,10|8,2:0|1:2,2:0:0:0:
194,93,241679,1,10,2:0:0:0:
194,93,241856,2,0,P|177:67|186:23,1,65,10|8,1:2|2:0,2:0:0:0:
274,177,242209,2,0,P|289:151|282:107,1,65,8|8,1:2|2:0,2:0:0:0:
184,237,242562,2,0,P|165:209|176:167,1,65,8|10,1:2|2:0,2:0:0:0:
261,263,242914,2,0,L|257:296,4,32.5,10|0|8|10|8,1:2|2:0|2:0|2:0|1:2,2:0:0:0:
347,232,243444,5,10,2:0:0:0:
347,232,243532,1,8,2:0:0:0:
347,232,243620,2,0,P|334:309|326:369,1,130,6|8,1:2|1:2,2:0:0:0:
409,339,244150,1,8,2:3:0:0:
317,355,244326,2,0,P|240:342|180:334,1,130,2|12,1:2|2:0,2:0:0:0:
100,365,244856,1,10,2:0:0:0:
50,294,245032,6,0,L|55:238,3,32.5,10|8|8|8,1:2|2:0|2:0|2:0,2:0:0:0:
90,219,245385,2,0,L|85:163,3,32.5,4|8|8|8,1:2|2:0|2:0|2:0,2:0:0:0:
63,140,245738,2,0,L|68:84,3,32.5,10|0|8|8,1:2|2:0|2:0|2:0,2:0:0:0:
103,65,246091,2,0,L|98:9,3,32.5,10|8|8|8,1:2|2:0|2:0|2:0,2:0:0:0:
57,1,246444,6,0,P|15:3|-19:36,1,65,4|0,1:0|1:0,2:0:0:0:
185,49,246797,1,10,2:0:0:0:
185,49,246973,2,0,P|265:85|319:57,1,130,2|0,1:2|1:0,2:0:0:0:
374,108,247503,2,0,P|383:58|363:23,1,65,10|0,2:0|1:0,2:0:0:0:
302,185,247856,6,0,L|439:196,1,130,2|10,1:2|2:0,2:0:0:0:
505,167,248385,2,0,B|529:231|468:234|499:300,1,130,6|0,1:2|1:0,2:0:0:0:
447,353,248914,2,0,L|377:341,1,65,10|0,2:0|1:0,2:0:0:0:
260,260,249267,6,0,P|348:257|384:201,1,130,2|8,1:2|2:0,2:0:0:0:
372,151,249797,1,2,1:2:0:0:
372,151,249973,2,0,B|347:133|323:109|323:109|285:121|246:122,1,130,2|8,1:2|2:0,2:0:0:0:
189,80,250503,5,2,1:2:0:0:
189,80,250679,2,0,B|164:98|140:122|140:122|102:109|63:109,1,130,2|8,1:2|2:0,2:0:0:0:
14,155,251209,1,2,1:2:0:0:
14,155,251385,2,0,P|0:88|25:51,2,97.5,2|2|2,1:2|2:0|1:2,2:0:0:0:
84,189,252091,6,0,B|191:194|136:267|264:276,1,195,6|0,1:2|1:0,2:0:0:0:
316,233,252797,2,0,P|330:278|313:323,2,97.5,2|2|2,1:2|2:0|1:2,2:0:0:0:
282,148,253503,6,0,P|352:157|419:166,1,130,2|10,1:2|2:0,2:0:0:0:
421,86,254032,2,0,P|351:77|284:68,1,130,2|2,1:2|1:2,2:0:0:0:
217,93,254562,2,0,P|215:45|240:9,1,65,8|2,2:0|1:2,2:0:0:0:
146,7,254914,6,0,L|15:22,1,130,6|8,1:2|2:0,2:0:0:0:
30,103,255444,1,2,1:2:0:0:
30,103,255620,2,0,P|100:107|140:163,1,130,2|8,1:2|2:0,2:0:0:0:
215,284,256326,6,0,P|174:328|144:328,1,65,12|0,2:0|1:0,2:0:0:0:
285,228,256679,2,0,P|302:285|287:311,1,65,8|0,2:0|1:0,2:0:0:0:
306,139,257032,2,0,P|349:159|374:218,2,97.5,2|4|4,1:2|2:3|2:3,2:0:0:0:
217,96,257738,6,0,B|182:103|155:124|155:124|122:107|76:118,1,130,4|2,1:0|1:2,2:0:0:0:
36,167,258267,2,0,P|16:133|21:95,1,65,2|0,2:0|1:0,2:0:0:0:
112,191,258620,2,0,P|92:225|57:239,1,65,2|0,2:0|1:0,2:0:0:0:
17,313,258973,2,0,P|119:320|221:345,1,195,2|0,2:0|1:0,2:0:0:0:
238,255,259679,1,2,2:0:0:0:
324,282,259856,2,0,P|311:326|294:406,2,97.5,2|2|2,1:2|2:0|2:0,2:0:0:0:
386,233,260562,6,0,P|432:234|472:184,1,97.5,2|0,1:2|2:0,2:0:0:0:
468,158,260914,1,2,1:2:0:0:
408,91,261091,2,0,P|354:107|336:182,1,130,2|2,2:0|2:0,2:0:0:0:
273,222,261620,1,0,1:0:0:0:
190,187,261797,1,2,2:0:0:0:
114,268,261973,6,0,P|119:312|120:344,2,65,14|0|2,2:0|1:0|1:2,2:0:0:0:
48,224,262503,1,14,2:0:0:0:
206,52,262856,1,14,2:0:0:0:
433,102,263209,1,10,2:0:0:0:
433,102,263297,1,8,2:0:0:0:
433,102,263385,1,4,1:0:0:0:
477,198,263562,6,0,P|402:179|323:165,1,130,0|0,1:0|1:0,2:0:0:0:
293,228,264091,2,0,P|267:173|314:99,1,130,8|0,3:2|3:0,2:0:0:0:
354,64,264620,1,8,2:0:0:0:
354,64,264709,1,8,2:0:0:0:
354,64,264797,1,2,1:2:0:0:
271,24,264973,6,0,P|207:36|144:52,1,130,8|0,2:0|1:0,2:0:0:0:
66,28,265503,2,0,P|62:68|83:102,1,65,10|8,2:0|2:0,2:0:0:0:
164,129,265856,2,0,P|200:112|219:77,1,65,10|8,2:0|2:0,2:0:0:0:
83,179,266209,5,2,2:0:0:0:
439,250,267444,1,2,2:0:0:0:
439,250,267532,1,2,2:0:0:0:
439,250,267620,2,0,B|420:265|405:283|405:283|374:271|343:268,1,97.5,12|8,1:2|2:0,2:0:0:0:
305,296,267973,2,0,P|254:304|216:314,1,65,8|2,2:0|1:2,2:0:0:0:
165,336,268326,2,0,P|172:362|175:375,2,32.5,10|8|8,2:0|2:0|2:0,2:0:0:0:
181,252,268679,5,10,1:2:0:0:
181,243,268767,1,8,2:0:0:0:
182,235,268856,1,10,2:0:0:0:
183,227,268944,1,8,2:0:0:0:
184,219,269032,2,0,P|176:183|172:146,1,65,4|0,1:0|1:0,2:0:0:0:
172,70,269385,2,0,B|243:65|222:129|308:113,1,130,8|0,2:0|1:0,2:0:0:0:
358,80,269914,2,0,P|348:33|342:4,2,65,2|10|2,1:2|2:0|1:2,2:0:0:0:
419,129,270444,2,0,P|396:264|393:286,1,130,2|10,1:2|2:0,2:0:0:0:
455,326,270973,5,0,1:0:0:0:
455,326,271062,1,8,2:0:0:0:
455,326,271150,2,0,P|410:343|367:335,1,65,2|0,1:2|1:0,2:0:0:0:
317,294,271503,2,0,P|315:262|301:233,1,65,10|0,2:0|1:0,2:0:0:0:
222,204,271856,5,2,1:2:0:0:
222,204,272032,1,0,1:0:0:0:
292,149,272209,2,0,L|367:154,1,65,8|0,2:0|1:0,2:0:0:0:
208,114,272562,2,0,P|182:77|208:5,2,97.5,2|2|2,1:2|2:0|1:2,2:0:0:0:
222,204,273267,2,0,P|202:245|117:251,1,130,2|8,1:2|2:0,2:0:0:0:
53,115,273973,2,0,P|93:103|152:155,1,97.5,2|8,1:2|2:0,2:0:0:0:
143,142,274326,2,0,L|139:185,2,32.5,8|8|8,1:2|2:0|2:0,2:0:0:0:
211,67,274679,6,0,L|279:61,1,65,4|0,1:0|1:0,2:0:0:0:
324,125,275032,1,12,2:0:0:0:
483,13,275385,6,0,L|477:81,1,65,2|0,1:2|1:0,2:0:0:0:
398,69,275738,1,8,2:0:0:0:
347,218,276091,6,0,L|415:224,1,65,2|0,1:2|1:0,2:0:0:0:
456,290,276444,1,12,2:0:0:0:
276,349,276797,6,0,L|282:281,1,65,10|0,2:0|1:0,2:0:0:0:
224,230,277150,1,10,2:0:0:0:
129,143,277503,6,0,L|-7:157,1,130,6|8,1:2|1:2,2:0:0:0:
26,75,278032,1,10,2:0:0:0:
26,75,278209,2,0,L|90:68,1,65,10|8,1:2|2:0,2:0:0:0:
129,143,278562,2,0,L|193:149,1,65,8|8,1:2|2:0,2:0:0:0:
238,51,278914,2,0,L|302:57,1,65,10|8,1:2|2:0,2:0:0:0:
352,159,279267,2,0,L|416:152,1,65,8|8,1:2|2:0,2:0:0:0:
484,67,279620,1,10,1:2:0:0:
506,168,279797,5,8,2:0:0:0:
499,176,279885,1,8,2:0:0:0:
494,186,279973,1,8,1:2:0:0:
490,196,280062,1,8,2:0:0:0:
487,206,280150,1,8,2:0:0:0:
493,286,280326,6,0,B|386:252|224:295|169:362|169:362|124:319|55:327,1,468.000000000001,4|0,1:0|2:0,2:0:0:0:
