osu file format v14

[General]
AudioFilename: audio.mp3
AudioLeadIn: 0
PreviewTime: 147278
Countdown: 0
SampleSet: Soft
StackLeniency: 0.5
Mode: 0
LetterboxInBreaks: 0
WidescreenStoryboard: 1

[Editor]
Bookmarks: 170210,178680,195621,205503,223856,235150
DistanceSpacing: 1.2
BeatDivisor: 4
GridSize: 32
TimelineZoom: 1.8

[Metadata]
Title:Hajimari no Sokudo
TitleUnicode:はじまりの速度
Artist:Sangatsu no Phantasia
ArtistUnicode:三月のパンタシア
Creator:-Mikan
Version:Akitoshi's Insane
Source:キズナイーバー
Tags:Hikan Affirmation NeoskyLove adioni wenect Unranked mapper wenet Kazato Asa Shizuku- Akitoshi -Laura- Corinn kiznaiver ending trigger ed japanese jpop j-pop pop anime
BeatmapID:2305425
BeatmapSetID:1098561

[Difficulty]
HPDrainRate:5.5
CircleSize:4
OverallDifficulty:8.5
ApproachRate:9
SliderMultiplier:1.5
SliderTickRate:1

[Events]
//Background and Video events
0,0,"__3.jpg",0,0
Video,0,"Sangatsu No Phantasia - Hajimarino Sokudo.avi"
//Break Periods
2,170426,172254
2,173249,175077
2,195821,204546
2,224070,233840
//Storyboard Layer 0 (Background)
//Storyboard Layer 1 (Fail)
//Storyboard Layer 2 (Pass)
//Storyboard Layer 3 (Foreground)
//Storyboard Layer 4 (Overlay)
//Storyboard Sound Samples

[TimingPoints]
653,346.820809248555,4,2,1,40,1,0
826,340.909090909091,4,2,1,40,1,0
826,-166.666666666667,4,2,1,40,0,0
1337,375,4,2,1,40,1,0
1712,352.941176470588,4,2,1,40,1,0
1888,-100,4,2,1,40,0,0
2241,338.983050847458,4,2,1,40,1,0
2579,359.281437125748,4,2,1,40,1,0
3656,387.096774193548,4,2,1,40,1,0
3656,-166.666666666667,4,2,1,40,0,0
4043,329.67032967033,4,2,1,40,1,0
4207,333.333333333333,4,2,1,40,1,0
4207,-166.666666666667,4,2,1,40,0,0
4873,357.142857142857,4,2,1,40,1,0
5051,-166.666666666667,4,2,1,40,0,0
5408,346.820809248555,4,2,1,40,1,0
5581,352.941176470588,4,2,1,40,1,0
5933,-166.666666666667,4,2,1,40,0,0
6463,352.941176470588,4,2,1,40,1,0
6463,-166.666666666667,4,2,1,40,0,0
6992,375,4,2,1,40,1,0
7367,352.941176470588,4,2,1,40,1,0
7896,346.820809248555,4,2,1,40,1,0
8589,365.853658536585,4,2,1,40,1,0
8954,352.941176470588,4,2,1,40,1,0
9306,368.098159509202,4,2,1,40,1,0
9306,-166.666666666667,4,2,1,40,0,0
9674,352.941176470588,4,2,1,40,1,0
10203,327.868852459016,4,2,1,40,1,0
10530,363.636363636364,4,2,1,40,1,0
11075,359.281437125748,4,2,1,40,1,0
11434,329.67032967033,4,2,1,40,1,0
11434,-166.666666666667,4,2,1,40,0,0
11613,-166.666666666667,4,2,3,40,0,0
11763,363.636363636364,4,2,3,50,1,0
12126,352.941176470588,4,2,1,50,1,0
12126,-142.857142857143,4,2,1,50,0,0
13008,375,4,2,1,50,1,0
13195,350.877192982456,4,2,1,50,1,0
13545,-142.857142857143,4,2,1,50,0,0
14949,346.820809248555,4,2,1,50,1,0
14949,-142.857142857143,4,2,1,50,0,0
15816,365.853658536585,4,2,1,50,1,0
16364,348.837209302326,4,2,1,50,1,0
16886,-100,4,2,1,60,0,0
17759,352.941176470588,4,2,1,60,1,0
20758,-100,4,2,1,35,0,0
20935,-100,4,2,1,40,0,0
21111,-100,4,2,1,45,0,0
21288,-100,4,2,1,50,0,0
21464,-100,4,2,1,55,0,0
21641,-100,4,2,1,60,0,0
21994,-142.857142857143,4,2,1,60,0,0
23416,352.941176470588,4,2,1,40,1,0
23416,-166.666666666667,4,2,1,40,0,0
32945,333.333333333333,4,2,1,40,1,0
33278,357.142857142857,4,2,1,40,1,0
33278,-166.666666666667,4,2,1,40,0,0
34346,-166.666666666667,4,2,0,40,0,0
34700,352.941176470588,4,2,1,50,1,0
34700,-166.666666666667,4,2,1,50,0,0
35053,-142.857142857143,4,2,4,50,0,0
40170,-142.857142857143,4,2,1,50,0,0
40699,-142.857142857143,4,2,4,50,0,0
42464,-111.111111111111,4,2,1,50,0,0
43170,-100,4,2,1,60,0,0
47935,-100,4,2,2,60,0,0
48464,-100,4,2,1,60,0,0
50140,-100,4,2,1,5,0,0
50229,-100,4,2,1,60,0,0
51641,-125,4,2,1,60,0,0
51993,-125,4,2,2,60,0,0
54464,-100,4,2,1,60,0,0
56935,-100,4,2,3,60,0,0
57288,-100,4,2,1,60,0,0
57464,-100,4,2,1,45,0,0
57641,-100,4,2,1,50,0,0
57817,-100,4,2,1,55,0,0
57994,-100,4,2,1,60,0,0
58170,-100,4,2,1,65,0,0
58347,-100,4,2,1,70,0,0
58876,-100,4,2,1,60,0,0
59053,-100,4,2,1,70,0,0
59141,-100,4,2,1,60,0,0
59406,-100,4,2,1,70,0,0
59582,-100,4,2,1,60,0,0
59758,-100,4,2,1,70,0,0
59846,-100,4,2,1,60,0,0
60111,-90.9090909090909,4,2,2,70,0,1
60463,-90.9090909090909,4,2,1,70,0,1
70700,-90.9090909090909,4,2,2,70,0,1
70788,-90.9090909090909,4,2,1,60,0,1
71053,-90.9090909090909,4,2,1,70,0,1
71141,-90.9090909090909,4,2,1,60,0,1
71406,-90.9090909090909,4,2,1,70,0,1
81994,-90.9090909090909,4,2,2,70,0,0
82082,-90.9090909090909,4,2,1,60,0,0
82347,-90.9090909090909,4,2,1,70,0,0
82435,-90.9090909090909,4,2,1,60,0,0
82699,-90.9090909090909,4,2,1,70,0,1
92582,-90.9090909090909,4,2,2,70,0,1
92935,-90.9090909090909,4,2,1,70,0,1
93288,-90.9090909090909,4,2,1,60,0,1
93464,-90.9090909090909,4,2,1,55,0,1
93641,-90.9090909090909,4,2,1,50,0,1
93817,-90.9090909090909,4,2,1,45,0,1
93994,-111.111111111111,4,2,1,60,0,0
98229,-90.9090909090909,4,2,1,70,0,0
98758,-90.9090909090909,4,2,3,70,0,0
99641,-90.9090909090909,4,2,1,60,0,0
99817,-111.111111111111,4,2,1,60,0,0
100347,-111.111111111111,4,2,2,60,0,0
102464,-111.111111111111,4,2,1,50,0,0
103700,-142.857142857143,4,2,1,50,0,0
105288,-100,4,2,1,50,0,0
107317,-100,4,2,1,60,0,0
107406,-100,4,2,1,60,0,0
108111,348.837209302326,4,2,1,60,1,0
109506,352.941176470588,4,2,1,60,1,0
110211,359.281437125748,4,2,1,60,1,0
110929,352.941176470588,4,2,1,50,1,0
110929,-100,4,2,1,50,0,0
116399,-100,4,2,2,50,0,0
129281,-111.111111111111,4,2,2,60,0,0
129633,-111.111111111111,4,2,1,60,0,0
130164,-100,4,2,1,60,0,0
132458,-100,4,2,1,55,0,0
132811,-100,4,2,1,50,0,0
133164,-100,4,2,1,45,0,0
134840,-100,4,2,1,60,0,0
137399,-100,4,2,2,60,0,0
137929,-100,4,2,1,60,0,0
140576,-166.666666666667,4,2,1,50,0,0
141634,-166.666666666667,4,2,1,60,0,0
141987,-100,4,2,1,60,0,0
143399,-100,4,2,1,60,0,0
144458,-100,4,2,3,60,0,0
144987,-100,4,2,1,45,0,0
145164,-100,4,2,1,50,0,0
145340,-100,4,2,1,55,0,0
145517,-100,4,2,1,60,0,0
145693,-100,4,2,1,65,0,0
145870,-100,4,2,1,70,0,0
146399,-100,4,2,1,60,0,0
146576,-100,4,2,1,70,0,0
146664,-100,4,2,1,60,0,0
146928,-100,4,2,1,70,0,0
147016,-100,4,2,1,60,0,0
147281,-100,4,2,1,70,0,0
147369,-100,4,2,1,60,0,0
147634,-90.9090909090909,4,2,2,70,0,1
147986,-90.9090909090909,4,2,1,70,0,1
157164,-90.9090909090909,4,2,3,70,0,1
157517,-90.9090909090909,4,2,1,70,0,1
158223,-90.9090909090909,4,2,2,70,0,1
158399,-90.9090909090909,4,2,1,70,0,1
158576,-90.9090909090909,4,2,1,60,0,1
158752,-90.9090909090909,4,2,1,55,0,1
158928,-111.111111111111,4,2,1,60,0,0
162810,-111.111111111111,4,2,3,60,0,0
163164,-90.9090909090909,4,2,1,70,0,0
163693,-90.9090909090909,4,2,3,70,0,0
164046,344.827586206897,4,2,3,70,1,0
164046,-90.9090909090909,4,2,3,70,0,0
164563,352.941176470588,4,2,3,70,1,0
164915,-100,4,2,1,60,0,0
165621,-90.9090909090909,4,2,1,60,0,0
168798,357.142857142857,4,2,1,60,1,0
168974,-90.9090909090909,4,2,1,35,0,0
169151,-90.9090909090909,4,2,1,40,0,0
169327,-90.9090909090909,4,2,1,45,0,0
169504,-90.9090909090909,4,2,1,50,0,0
169680,-90.9090909090909,4,2,1,55,0,0
169857,-90.9090909090909,4,2,1,60,0,0
170226,352.941176470588,4,2,3,40,1,0
172857,-90.9090909090909,4,2,1,40,0,0
177268,-142.857142857143,4,2,2,50,0,0
177973,-142.857142857143,4,2,1,60,0,0
178343,346.820809248555,4,2,1,60,1,0
178343,-142.857142857143,4,2,1,60,0,0
178689,352.941176470588,4,2,1,60,1,0
178857,-111.111111111111,4,2,1,60,0,0
180453,348.837209302326,4,2,1,60,1,0
180621,-111.111111111111,4,2,1,45,0,0
180798,-100,4,2,1,50,0,0
180974,-100,4,2,1,55,0,0
181151,-100,4,2,1,60,0,0
181512,352.941176470588,4,2,1,60,1,0
181680,-100,4,2,1,40,0,0
182210,-100,4,2,1,60,0,0
182386,-100,4,2,1,40,0,0
182474,-100,4,2,1,60,0,0
182739,-100,4,2,1,40,0,0
182915,-100,4,2,1,60,0,0
183091,-100,4,2,1,40,0,0
183268,-100,4,2,1,60,0,0
183445,-100,4,2,1,40,0,0
183621,-100,4,2,1,60,0,0
184150,-100,4,2,1,40,0,0
184679,-100,4,2,1,60,0,0
184857,-100,4,2,1,40,0,0
185033,-100,4,2,1,60,0,0
185209,-100,4,2,1,40,0,0
185386,-100,4,2,1,60,0,0
185562,-100,4,2,1,40,0,0
185915,-100,4,2,1,60,0,0
186445,-100,4,2,1,50,0,0
186798,-100,4,2,1,60,0,0
193150,-100,4,2,3,70,0,0
194386,-100,4,2,1,50,0,0
194562,-100,4,2,1,55,0,0
194924,348.837209302326,4,2,1,55,1,0
195268,-100,4,2,1,65,0,0
195621,352.941176470588,4,2,1,65,1,0
198445,357.142857142857,4,2,1,65,1,0
199873,352.941176470588,4,2,1,65,1,0
204108,348.837209302326,4,2,1,65,1,0
205154,-76.923076923077,4,2,3,60,0,0
205415,-76.923076923077,4,2,1,50,0,0
205503,352.941176470588,4,2,1,50,1,0
205503,-111.111111111111,4,2,1,50,0,0
206208,361.44578313253,4,2,1,60,1,0
206569,-100,4,2,1,50,0,0
206689,-111.111111111111,4,2,1,50,0,0
206810,315.789473684211,4,2,1,50,1,0
206915,352.941176470588,4,2,1,70,1,0
206915,-111.111111111111,4,2,1,70,0,0
207267,-111.111111111111,4,2,2,70,0,0
212385,-111.111111111111,4,2,1,70,0,0
212562,-100,4,2,1,70,0,0
218385,-111.111111111111,4,2,1,60,0,0
218915,-111.111111111111,4,2,2,60,0,0
220679,-100,4,2,3,60,0,0
221208,-100,4,2,1,40,0,0
221738,-100,4,2,1,45,0,0
223503,-100,4,2,1,70,0,0
234620,-100,4,2,3,40,0,0
234797,-166.666666666667,4,2,3,50,0,0
235150,-125,4,2,1,50,0,0
241032,-125,4,2,1,60,0,0
241150,-125,4,2,1,40,0,0
241503,-125,4,2,1,45,0,0
241856,-125,4,2,1,50,0,0
242209,-125,4,2,1,55,0,0
242562,-125,4,2,1,60,0,0
243620,-100,4,2,1,60,0,0
245032,-100,4,2,1,70,0,0
245120,-100,4,2,1,60,0,0
245738,-100,4,2,1,70,0,0
245914,-100,4,2,1,60,0,0
246091,-100,4,2,1,70,0,0
246179,-100,4,2,1,60,0,0
246444,-90.9090909090909,4,2,2,70,0,1
246796,-90.9090909090909,4,2,1,70,0,1
251738,-90.9090909090909,4,2,3,70,0,1
252091,-90.9090909090909,4,2,1,70,0,1
256326,-90.9090909090909,4,2,2,70,0,1
256679,-90.9090909090909,4,2,1,70,0,1
257032,-90.9090909090909,4,2,1,60,0,1
257208,-90.9090909090909,4,2,1,55,0,1
257385,-90.9090909090909,4,2,1,50,0,1
257562,-90.9090909090909,4,2,1,45,0,1
257738,-111.111111111111,4,2,1,60,0,0
261973,-90.9090909090909,4,2,1,70,0,0
262503,-90.9090909090909,4,2,3,70,0,0
263385,-90.9090909090909,4,2,1,60,0,0
263562,-111.111111111111,4,2,1,60,0,0
264091,-111.111111111111,4,2,2,60,0,0
266209,-111.111111111111,4,2,1,40,0,0
267620,-111.111111111111,4,2,1,50,0,0
267649,-111.111111111111,4,2,1,40,0,0
267884,-111.111111111111,4,2,1,50,0,0
268679,-111.111111111111,4,2,1,60,0,0
269032,-100,4,2,1,60,0,0
276444,-100,4,2,3,60,0,0
277326,-100,4,2,1,60,0,0
277855,-100,4,2,1,45,0,0
278209,-100,4,2,1,50,0,0
278562,-100,4,2,1,55,0,0
278914,-100,4,2,1,60,0,0
279267,-100,4,2,1,65,0,0
279620,-100,4,2,1,70,0,0
280326,-100,4,2,2,70,0,0
283150,-100,4,2,1,10,0,0

[Colours]
Combo1 : 255,83,83
Combo2 : 255,128,128

[HitObjects]
29,158,826,6,0,P|82:145|122:137,1,89.9999972534181,6|0,3:2|2:0,2:0:0:0:
116,137,1337,1,0,2:0:0:0:
253,206,1712,5,2,2:0:0:0:
237,281,1888,1,2,2:0:0:0:
222,356,2064,1,2,2:0:0:0:
296,336,2241,5,2,2:0:0:0:
445,370,2579,1,2,2:0:0:0:
490,223,2938,1,2,2:0:0:0:
341,189,3297,1,2,2:0:0:0:
296,336,3656,6,0,P|226:351|193:359,1,89.9999972534181,2|0,2:0|2:0,2:0:0:0:
148,307,4207,2,0,P|78:292|45:284,1,89.9999972534181,0|2,2:0|2:0,2:0:0:0:
17,228,4706,1,2,2:0:0:0:
17,228,4873,1,2,2:0:0:0:
74,176,5051,6,0,P|117:184|154:150,1,89.9999972534181,2|2,2:0|2:0,2:0:0:0:
98,100,5581,1,2,2:0:0:0:
232,173,5933,2,0,P|276:166|325:159,1,89.9999999999998,2|0,2:0|2:0,2:0:0:0:
378,210,6463,6,0,P|352:258|357:301,1,89.9999999999998,2|0,2:0|2:0,2:0:0:0:
376,365,6992,1,0,2:0:0:0:
486,259,7367,5,2,2:0:0:0:
470,184,7543,1,2,2:0:0:0:
455,109,7719,1,2,2:0:0:0:
379,120,7896,5,2,2:0:0:0:
270,228,8242,1,2,2:0:0:0:
164,117,8589,1,2,2:0:0:0:
273,9,8954,1,2,2:0:0:0:
379,120,9306,6,0,P|357:197|351:225,1,89.9999972534181,2|0,2:0|2:0,2:0:0:0:
329,279,9850,1,0,2:0:0:0:
198,358,10203,5,2,2:0:0:0:
123,342,10366,1,2,2:0:0:0:
48,327,10530,1,2,2:0:0:0:
99,269,10711,5,2,2:0:0:0:
41,127,11075,1,2,2:0:0:0:
191,154,11434,2,0,P|218:158|246:162,2,44.999998626709,2|0|6,2:0|3:0|2:0,2:0:0:0:
285,305,12126,6,0,P|325:284|369:333,1,104.999996795654,6|0,2:0|2:0,2:0:0:0:
434,376,12655,2,0,P|413:336|462:292,1,105.297496795654,0|2,3:0|3:2,2:0:0:0:
499,222,13195,1,2,2:0:0:0:
499,222,13370,1,2,3:2:0:0:
418,184,13545,6,0,P|413:143|397:76,2,105,2|2|2,3:2|2:0|2:0,2:0:0:0:
285,305,14598,2,0,P|265:309|242:316,3,26.25,2|0|0|0,2:0|2:0|3:0|3:0,2:0:0:0:
241,330,14949,6,0,P|210:298|143:310,1,104.999996795654,2|0,3:2|2:0,2:0:0:0:
103,226,15469,2,0,P|72:258|5:246,1,104.999996795654,0|2,3:0|3:2,2:0:0:0:
32,165,15998,1,2,3:2:0:0:
124,145,16181,1,4,2:3:0:0:
124,145,16273,1,4,2:3:0:0:
124,145,16364,6,0,P|168:145|190:125,1,75,14|0,1:2|1:0,2:0:0:0:
290,59,16712,2,0,P|260:36|224:39,1,75,14|4,1:2|2:3,2:0:0:0:
282,153,17061,1,2,1:2:0:0:
379,122,17236,1,8,2:0:0:0:
379,122,17323,1,8,2:0:0:0:
379,122,17410,2,0,L|387:78,3,37.5,10|8|8|8,1:2|2:0|2:0|2:0,2:0:0:0:
390,55,17759,6,0,P|440:39|512:106,1,150,4|0,1:0|1:0,2:0:0:0:
479,204,18288,2,0,P|439:209|399:216,2,75,2|0|0,2:0|1:0|2:0,2:0:0:0:
512,311,18817,1,2,1:2:0:0:
419,373,18994,1,8,2:0:0:0:
419,373,19082,1,8,2:0:0:0:
419,373,19170,5,0,1:0:0:0:
323,312,19347,2,0,P|287:329|245:328,2,75,2|0|0,2:0|1:0|2:0,2:0:0:0:
377,213,19876,5,2,1:2:0:0:
266,234,20053,1,8,2:0:0:0:
217,158,20229,1,2,1:2:0:0:
277,90,20406,1,4,2:3:0:0:
277,90,20494,1,4,2:3:0:0:
277,90,20582,6,0,P|319:93|365:74,1,75,4|8,1:0|2:0,2:0:0:0:
203,25,20935,2,0,L|151:35,3,37.5,8|8|8|8,1:2|2:0|2:0|2:0,2:0:0:0:
148,56,21288,2,0,L|96:46,3,37.5,8|8|8|8,1:2|2:0|2:0|2:0,2:0:0:0:
81,42,21641,5,8,1:2:0:0:
75,75,21729,1,8,2:0:0:0:
69,108,21817,1,8,2:0:0:0:
64,141,21906,1,8,2:0:0:0:
58,175,21994,6,0,P|108:170|25:259,1,315,4|0,1:0|2:0,2:0:0:0:
32,273,23416,6,0,P|20:304|20:329,1,44.9999999999999,0|0,2:0|2:0,2:0:0:0:
5,338,23768,2,0,P|25:363|47:376,1,44.9999999999999,0|2,2:0|2:0,2:0:0:0:
140,372,24121,2,0,P|152:341|152:316,1,44.9999999999999,2|0,2:0|2:0,2:0:0:0:
167,307,24474,2,0,P|146:281|124:268,1,44.9999999999999,0|2,2:0|2:0,2:0:0:0:
229,229,24827,6,0,P|255:231|279:235,1,44.9999999999999,2|0,2:0|2:0,2:0:0:0:
293,251,25180,2,0,P|319:249|343:245,1,44.9999999999999,2|2,2:0|2:0,2:0:0:0:
352,348,25533,2,0,P|326:350|302:354,1,44.9999999999999,0|2,2:0|2:0,2:0:0:0:
288,370,25886,2,0,P|262:368|238:364,1,44.9999999999999,0|2,2:0|2:0,2:0:0:0:
167,307,26239,6,0,P|134:317|121:325,7,44.9999999999999,0|0|0|0|0|2|2|2,2:0|2:0|2:0|2:0|2:0|2:0|2:0|2:0,2:0:0:0:
52,248,27651,6,0,P|19:238|6:230,7,44.9999999999999,0|0|0|0|2|0|2|0,2:0|2:0|2:0|2:0|2:0|2:0|2:0|2:0,2:0:0:0:
69,147,29063,6,0,P|92:140|116:142,1,44.9999999999999,0|0,2:0|2:0,2:0:0:0:
134,125,29416,2,0,P|151:141|161:163,1,44.9999999999999,0|2,2:0|2:0,2:0:0:0:
251,211,29768,2,0,P|244:234|246:258,1,44.9999999999999,2|2,2:0|2:0,2:0:0:0:
229,276,30121,2,0,P|245:293|267:303,1,44.9999999999999,0|2,2:0|2:0,2:0:0:0:
367,313,30474,6,0,P|374:281|377:264,1,44.9999999999999,2|0,2:0|2:0,2:0:0:0:
396,250,30827,2,0,P|389:218|386:201,1,44.9999999999999,2|2,2:0|2:0,2:0:0:0:
306,140,31180,2,0,P|299:108|296:91,1,44.9999999999999,0|2,2:0|2:0,2:0:0:0:
277,77,31533,2,0,P|284:45|287:28,1,44.9999999999999,0|2,2:0|2:0,2:0:0:0:
182,21,31886,6,0,P|153:35|135:37,6,44.9999999999999,2|0|0|2|2|0|0,2:0|2:0|2:0|2:0|2:0|2:0|2:0,2:0:0:0:
37,46,33111,1,0,0:0:0:0:
37,46,33278,6,0,P|75:49|119:129,1,135,2|0,2:0|2:0,2:0:0:0:
59,187,33992,1,2,2:0:0:0:
135,224,34170,2,0,L|172:218,2,22.5,0|0|6,3:0|3:0|2:0,2:0:0:0:
280,361,34700,5,4,2:0:0:0:
280,361,35053,2,0,P|284:328|279:302,1,52.5,2|0,3:2|2:0,2:0:0:0:
351,245,35406,2,0,P|324:225|299:216,1,52.5,2|0,3:2|2:0,2:0:0:0:
284,125,35758,2,0,P|253:138|233:155,1,52.5,2|0,3:2|2:0,2:0:0:0:
168,213,36111,5,0,3:0:0:0:
168,213,36464,2,0,P|135:200|110:201,1,52.5,0|2,3:0|2:0,2:0:0:0:
57,271,36817,2,0,P|62:306|75:327,1,52.5,2|0,3:2|2:0,2:0:0:0:
163,339,37170,2,0,P|190:316|202:294,1,52.5,0|2,3:0|2:0,2:0:0:0:
270,240,37523,6,0,P|322:248|377:257,1,105,2|2,3:2|3:2,2:0:0:0:
436,327,38053,1,2,2:0:0:0:
494,253,38229,2,0,P|505:198|483:153,1,105,0|2,3:0|3:2,2:0:0:0:
484,155,38935,6,0,P|450:152|425:140,1,52.5,0|0,3:0|2:0,2:0:0:0:
339,160,39288,2,0,P|324:129|322:101,1,52.5,0|0,3:0|2:0,2:0:0:0:
245,54,39641,2,0,P|200:75|132:54,1,105,2|2,3:2|3:2,2:0:0:0:
66,15,40170,1,2,2:0:0:0:
14,94,40347,6,0,P|33:138|45:194,1,105,0|2,1:0|3:2,2:0:0:0:
137,215,40876,1,0,2:0:0:0:
137,215,41053,2,0,P|121:261|119:273,1,52.5,0|0,3:0|2:0,2:0:0:0:
210,294,41406,2,0,P|226:340|228:352,1,52.5,2|0,3:2|2:0,2:0:0:0:
315,376,41758,6,0,P|321:350|331:326,1,52.5,2|0,3:2|2:0,2:0:0:0:
404,236,42111,2,0,P|397:204|392:177,1,52.5,6|2,3:2|2:0,2:0:0:0:
338,90,42464,2,0,L|288:82,3,33.75,0|8|10|8,1:0|2:0|2:0|2:0,2:0:0:0:
283,63,42817,1,8,1:2:0:0:
252,67,42906,1,8,2:0:0:0:
222,72,42994,1,10,2:0:0:0:
192,76,43082,1,8,2:0:0:0:
162,81,43170,6,0,B|180:120|180:120|167:161,1,75,4|2,1:2|1:2,2:0:0:0:
123,253,43523,2,0,P|192:238|296:218,1,150,10|0,2:0|1:0,2:0:0:0:
365,283,44053,1,0,1:0:0:0:
274,349,44229,2,0,P|219:358|201:353,1,75,10|0,2:0|2:0,2:0:0:0:
95,269,44582,5,2,1:2:0:0:
52,348,44758,1,0,1:0:0:0:
5,271,44935,2,0,P|5:228|19:195,1,75,10|0,2:0|1:0,2:0:0:0:
113,115,45288,2,0,L|159:126,3,37.5,2|0|8|8,1:2|2:0|2:0|2:0,2:0:0:0:
173,147,45641,1,10,1:2:0:0:
206,140,45729,1,8,2:0:0:0:
239,134,45817,1,8,2:0:0:0:
272,127,45906,1,8,2:0:0:0:
305,121,45994,6,0,B|295:162|295:162|311:201,1,75,6|0,1:2|1:0,2:0:0:0:
407,79,46347,1,10,2:0:0:0:
311,20,46523,2,0,P|263:20|230:31,1,75,0|0,1:0|1:0,2:0:0:0:
137,80,46876,1,2,1:2:0:0:
195,176,47053,2,0,P|186:244|182:294,1,112.5,10|8,2:0|2:0,2:0:0:0:
178,321,47406,6,0,P|136:330|92:318,1,75,0|0,1:0|1:0,2:0:0:0:
5,270,47758,1,8,2:0:0:0:
101,212,47935,1,6,2:0:0:0:
3,156,48111,2,0,P|13:102|20:79,1,75,2|4,1:2|1:2,2:0:0:0:
101,6,48464,1,12,2:0:0:0:
139,111,48641,1,2,1:2:0:0:
227,42,48817,6,0,B|310:31|294:72|376:64,1,150,2|10,1:2|2:0,2:0:0:0:
466,127,49347,2,0,P|444:176|446:203,1,75,2|0,1:2|1:0,2:0:0:0:
480,303,49700,1,2,1:2:0:0:
378,351,49876,2,0,P|307:325|256:320,1,112.5,10|0,2:0|2:0,2:0:0:0:
236,317,50229,6,0,P|228:275|236:242,1,75,0|0,1:0|1:0,2:0:0:0:
286,143,50582,1,8,2:0:0:0:
354,245,50758,1,0,1:0:0:0:
354,245,50847,1,8,2:0:0:0:
354,245,50935,1,2,1:2:0:0:
432,164,51111,1,8,2:3:0:0:
394,58,51288,2,0,P|358:41|308:43,1,75,4|0,1:3|2:0,2:0:0:0:
186,62,51641,6,0,B|176:98|176:98|190:142|190:142|178:187,1,120,4|2,1:0|3:2,2:0:0:0:
155,264,52170,1,0,1:0:0:0:
276,185,52347,2,0,P|325:175|378:228,1,120,10|2,3:2|3:2,2:0:0:0:
303,290,52876,1,8,2:0:0:0:
303,290,52964,1,8,2:0:0:0:
303,290,53053,5,2,1:2:0:0:
252,201,53229,2,0,B|266:129|225:147|242:65,1,120,8|0,2:0|1:0,2:0:0:0:
177,17,53758,1,10,3:2:0:0:
148,102,53935,1,0,1:0:0:0:
88,33,54111,1,10,3:2:0:0:
48,116,54288,1,8,2:0:0:0:
48,116,54376,1,8,2:0:0:0:
48,116,54464,6,0,B|74:200|74:200|47:228|42:262,1,150,4|8,1:0|2:0,2:0:0:0:
100,350,54994,1,0,1:0:0:0:
200,300,55170,2,0,P|212:261|198:229,1,75,2|0,1:2|1:0,2:0:0:0:
322,303,55523,2,0,P|309:337|321:372,1,75,8|0,2:0|2:0,2:0:0:0:
482,307,55876,6,0,P|402:291|321:277,1,150,2|8,1:2|2:0,2:0:0:0:
287,176,56406,2,0,P|343:167|364:152,1,75,2|0,1:2|1:0,2:0:0:0:
289,67,56758,1,0,1:0:0:0:
188,144,56935,2,0,B|174:178|174:178|185:223,1,75,14|0,2:0|2:0,2:0:0:0:
100,343,57288,6,0,B|114:309|114:309|104:271,1,75,6|8,1:2|2:0,2:0:0:0:
78,162,57641,1,10,1:2:0:0:
71,140,57817,1,10,2:0:0:0:
189,231,57994,5,8,1:2:0:0:
192,132,58170,1,10,2:0:0:0:
277,217,58347,5,8,1:2:0:0:
288,73,58523,1,10,2:0:0:0:
364,207,58700,6,0,P|409:212|453:199,1,75,12|8,1:2|2:0,2:0:0:0:
463,183,58964,1,8,2:0:0:0:
463,183,59053,2,0,L|449:135,3,37.5,10|8|10|8,1:2|2:0|2:0|2:0,2:0:0:0:
383,100,59406,2,0,L|397:52,1,37.5,12|0,1:2|2:0,2:0:0:0:
325,22,59582,1,8,2:0:0:0:
325,22,59670,1,8,2:0:0:0:
325,22,59758,2,0,L|273:34,3,37.5,10|8|8|8,1:2|2:0|2:0|2:0,2:0:0:0:
203,52,60111,6,0,B|181:131|181:131|200:177|248:158,1,165,4|10,1:0|2:0,2:0:0:0:
383,131,60641,1,2,1:2:0:0:
383,131,60729,1,8,2:0:0:0:
383,131,60817,1,0,1:0:0:0:
323,249,60994,1,0,1:0:0:0:
458,223,61170,2,0,P|473:268|469:312,1,82.5,10|0,2:0|1:0,2:0:0:0:
316,361,61523,6,0,B|223:333|223:333|199:364|155:376,1,165,2|10,1:2|2:0,2:0:0:0:
43,361,62053,1,2,1:2:0:0:
43,361,62141,1,8,2:0:0:0:
43,361,62229,1,0,1:0:0:0:
130,261,62406,1,0,1:0:0:0:
6,216,62582,2,0,P|14:162|23:134,1,82.5,10|0,2:0|1:0,2:0:0:0:
170,60,62935,6,0,B|232:71|232:71|261:106|261:106|331:123,1,165,2|8,1:2|2:0,2:0:0:0:
184,149,63464,1,2,1:2:0:0:
317,29,63641,2,0,P|369:30|408:49,1,82.5,0|0,1:0|1:0,2:0:0:0:
490,134,63994,2,0,P|438:135|399:154,1,82.5,8|2,2:0|1:2,2:0:0:0:
389,172,64258,1,8,2:0:0:0:
389,172,64347,6,0,P|410:266|424:345,1,165,2|8,1:2|2:0,2:0:0:0:
297,378,64876,1,2,1:2:0:0:
212,275,65053,2,0,P|259:257|305:262,1,82.5,2|0,1:2|1:0,2:0:0:0:
169,381,65406,1,10,2:0:0:0:
64,279,65582,1,8,2:0:0:0:
64,279,65670,1,8,2:0:0:0:
64,279,65758,6,0,B|48:220|48:220|65:184|65:184|49:119,1,165,6|10,1:2|2:0,2:0:0:0:
162,51,66288,2,0,P|194:66|244:64,1,82.5,2|0,1:2|1:0,2:0:0:0:
365,21,66641,1,2,1:2:0:0:
340,150,66817,1,10,2:0:0:0:
472,201,66994,1,2,1:2:0:0:
472,201,67082,1,8,2:0:0:0:
472,201,67170,5,0,1:0:0:0:
446,71,67347,1,0,1:0:0:0:
325,124,67523,1,10,2:0:0:0:
351,253,67700,2,0,P|343:297|336:340,1,82.5,2|0,1:2|1:0,2:0:0:0:
211,375,68053,1,2,1:2:0:0:
163,252,68229,2,0,P|208:249|245:266,1,82.5,8|2,2:0|1:2,2:0:0:0:
66,311,68582,6,0,B|32:265|32:265|74:164,1,165,2|8,1:2|2:0,2:0:0:0:
131,45,69111,1,2,1:2:0:0:
233,127,69288,2,0,B|326:108|296:166|395:144,1,165,2|8,1:2|2:0,2:0:0:0:
485,20,69817,1,0,1:0:0:0:
485,20,69906,1,8,2:0:0:0:
485,20,69994,6,0,P|433:27|394:34,1,82.5,6|0,1:2|1:0,2:0:0:0:
387,176,70347,2,0,P|427:182|468:188,1,82.5,10|0,2:0|2:0,2:0:0:0:
502,328,70700,1,14,1:2:0:0:
477,350,70788,1,8,2:0:0:0:
448,365,70876,1,8,2:0:0:0:
416,371,70964,1,8,2:0:0:0:
383,369,71053,1,10,1:2:0:0:
352,357,71141,1,8,2:0:0:0:
326,337,71229,1,8,2:0:0:0:
306,311,71317,1,8,2:0:0:0:
294,280,71406,6,0,B|213:314|213:314|166:295|181:241,1,165,4|10,1:0|2:0,2:0:0:0:
256,148,71935,1,2,1:2:0:0:
256,148,72023,1,8,2:0:0:0:
256,148,72111,1,0,1:0:0:0:
373,208,72288,1,2,1:2:0:0:
416,82,72464,1,8,2:0:0:0:
295,28,72641,6,0,P|254:36|211:48,1,82.5,2|0,1:2|1:0,2:0:0:0:
92,96,72994,1,0,1:0:0:0:
196,176,73170,1,10,2:0:0:0:
83,239,73347,1,2,1:2:0:0:
83,239,73435,1,8,2:0:0:0:
83,239,73523,2,0,P|35:242|-2:229,1,82.5,0|0,1:0|1:0,2:0:0:0:
171,163,73876,1,8,2:0:0:0:
157,294,74053,1,2,1:2:0:0:
280,249,74229,6,0,P|287:201|296:156,1,82.5,2|0,1:2|1:0,2:0:0:0:
357,51,74582,1,10,2:0:0:0:
429,161,74758,2,0,P|477:162|511:151,1,82.5,2|0,1:2|1:0,2:0:0:0:
360,258,75111,2,0,P|320:246|279:248,1,82.5,2|8,1:2|2:0,2:0:0:0:
159,304,75464,1,2,1:2:0:0:
159,304,75553,1,8,2:0:0:0:
159,304,75641,5,0,1:0:0:0:
287,331,75817,1,2,1:2:0:0:
186,199,75994,1,10,2:0:0:0:
58,230,76170,2,0,P|54:198|44:137,1,82.5,2|0,1:2|1:0,2:0:0:0:
114,34,76523,1,0,1:0:0:0:
183,146,76700,1,8,2:0:0:0:
298,52,76876,1,10,2:0:0:0:
298,52,76964,1,8,2:0:0:0:
298,52,77053,6,0,B|392:34|392:34|422:69|454:76,1,165,4|10,1:2|2:0,2:0:0:0:
493,198,77582,2,0,P|445:206|413:231,1,82.5,2|0,1:2|1:0,2:0:0:0:
328,323,77935,1,2,1:2:0:0:
266,205,78111,1,10,2:0:0:0:
152,264,78288,1,0,1:0:0:0:
152,264,78376,1,8,2:0:0:0:
152,264,78464,6,0,P|161:314|166:351,1,82.5,0|0,1:0|1:0,2:0:0:0:
57,232,78817,1,8,2:0:0:0:
171,166,78994,1,2,1:2:0:0:
60,94,79170,2,0,L|16:102,2,41.25,2|8|0,1:2|2:0|1:0,2:0:0:0:
175,29,79523,2,0,P|219:24|261:43,1,82.5,8|2,2:0|1:2,2:0:0:0:
284,60,79788,1,8,2:0:0:0:
284,60,79876,6,0,B|337:53|381:33|381:33|388:73|414:102,1,165,2|8,1:2|2:0,2:0:0:0:
479,202,80406,1,2,2:0:0:0:
348,183,80582,2,0,P|304:192|264:186,1,82.5,2|0,1:2|1:0,2:0:0:0:
192,296,80935,2,0,P|232:291|272:299,1,82.5,12|0,2:0|1:0,2:0:0:0:
111,365,81288,5,8,1:2:0:0:
94,336,81376,1,8,2:0:0:0:
87,304,81464,1,0,2:0:0:0:
90,271,81553,1,8,2:0:0:0:
102,241,81641,2,0,L|94:181,3,41.25,8|0|8|8,1:3|2:0|2:0|2:0,2:0:0:0:
82,114,81994,5,14,1:2:0:0:
114,109,82082,1,8,2:0:0:0:
147,104,82170,1,8,2:0:0:0:
179,99,82258,1,8,2:0:0:0:
212,94,82347,1,10,1:2:0:0:
245,89,82435,1,8,2:0:0:0:
277,84,82523,1,8,2:0:0:0:
310,79,82611,1,8,2:0:0:0:
342,74,82700,6,0,B|309:166|309:166|336:191|349:236,1,165,4|10,1:0|2:0,2:0:0:0:
324,359,83229,1,0,1:0:0:0:
324,359,83317,1,8,2:0:0:0:
324,359,83406,1,0,1:0:0:0:
241,256,83582,1,0,1:0:0:0:
368,221,83758,2,0,P|459:207|481:178,1,123.75,10|8,2:0|2:0,2:0:0:0:
477,103,84111,6,0,B|390:78|390:78|340:89|330:133,1,165,2|10,1:2|2:0,2:0:0:0:
207,162,84641,2,0,P|197:115|191:80,1,82.5,2|0,1:2|1:0,2:0:0:0:
82,5,84994,1,0,1:0:0:0:
12,116,85170,2,0,P|4:157|14:200,1,82.5,10|0,2:0|1:0,2:0:0:0:
121,321,85523,6,0,B|185:310|185:310|210:278|210:278|285:266,1,165,2|8,1:2|2:0,2:0:0:0:
399,244,86053,1,2,1:2:0:0:
326,134,86229,2,0,P|280:128|239:108,1,82.5,0|0,1:0|1:0,2:0:0:0:
145,28,86582,1,8,2:0:0:0:
28,90,86758,1,2,1:2:0:0:
126,177,86935,6,0,P|111:245|93:344,1,165,2|8,1:2|2:0,2:0:0:0:
220,380,87464,1,2,1:2:0:0:
227,248,87641,1,2,1:2:0:0:
342,330,87817,1,0,1:0:0:0:
342,330,87906,1,2,2:0:0:0:
342,330,87994,1,8,2:0:0:0:
350,198,88170,1,10,2:0:0:0:
207,263,88347,6,0,B|168:223|168:223|193:113,1,165,6|8,1:2|2:0,2:0:0:0:
308,47,88876,1,0,1:2:0:0:
308,47,88964,1,8,2:0:0:0:
308,47,89053,1,2,1:2:0:0:
341,174,89229,1,0,1:0:0:0:
462,120,89406,2,0,P|471:79|460:41,1,82.5,8|2,2:0|1:2,2:0:0:0:
336,206,89758,6,0,B|321:270|321:270|296:292|296:292|283:364,1,165,2|10,1:2|2:0,2:0:0:0:
182,271,90288,2,0,P|173:228|182:188,1,82.5,2|0,1:2|1:0,2:0:0:0:
58,242,90641,2,0,P|65:282|56:322,1,82.5,2|8,1:2|2:0,2:0:0:0:
0,158,90994,1,2,1:2:0:0:
126,122,91170,6,0,B|207:154|207:154|253:132|248:83,1,165,6|8,1:2|2:0,2:0:0:0:
350,7,91700,1,2,1:2:0:0:
425,114,91876,2,0,P|375:124|334:135,1,82.5,2|0,1:2|1:0,2:0:0:0:
270,241,92229,2,0,P|309:251|350:258,1,82.5,8|0,2:0|1:0,2:0:0:0:
204,352,92582,5,12,2:0:0:0:
150,230,92758,1,0,1:0:0:0:
67,332,92935,1,8,2:0:0:0:
20,213,93111,1,0,1:0:0:0:
20,213,93200,1,8,2:0:0:0:
20,213,93288,6,0,L|30:158,3,41.25,10|8|8|8,1:2|2:3|2:3|2:3,2:0:0:0:
87,115,93641,1,0,1:0:0:0:
113,133,93729,1,4,2:3:0:0:
145,140,93817,1,4,2:3:0:0:
178,135,93906,1,4,2:3:0:0:
206,118,93994,6,0,B|225:200|225:200|204:218|195:247,1,135,4|2,1:0|1:2,2:0:0:0:
292,276,94523,2,0,P|325:264|360:262,1,67.5000000000001,2|0,2:0|1:0,2:0:0:0:
407,173,94876,2,0,P|373:170|341:158,1,67.5000000000001,2|0,2:0|1:0,2:0:0:0:
294,69,95229,6,0,P|301:36|308:3,2,67.5000000000001,2|0|0,2:0|1:0|2:0,2:0:0:0:
206,118,95758,1,0,1:0:0:0:
161,27,95935,1,2,2:0:0:0:
78,86,96111,2,0,P|87:140|95:188,1,101.25,2|2,1:2|2:0,2:0:0:0:
121,201,96464,2,0,P|113:242|107:279,1,67.5000000000001,0|2,1:0|2:0,2:0:0:0:
171,347,96817,6,0,P|224:316|261:328,1,101.25,2|0,1:2|2:0,2:0:0:0:
258,326,97170,1,2,1:2:0:0:
355,296,97347,2,0,P|353:257|342:223,1,67.5000000000001,2|0,2:0|1:0,2:0:0:0:
268,163,97700,2,0,P|259:195|257:229,1,67.5000000000001,2|0,2:0|1:0,2:0:0:0:
359,110,98053,1,2,2:0:0:0:
228,40,98229,6,0,B|134:19|134:19|115:54|80:66,1,165,14|2,2:0|1:2,2:0:0:0:
7,192,98758,2,0,P|30:226|35:271,1,82.5,14|0,2:0|1:0,2:0:0:0:
144,367,99111,2,0,P|149:326|172:292,1,82.5,14|0,2:0|2:0,2:0:0:0:
303,216,99464,1,10,2:0:0:0:
303,216,99553,1,8,2:0:0:0:
303,216,99641,5,4,1:0:0:0:
206,185,99817,2,0,P|213:117|223:49,1,135,0|0,1:0|1:0,2:0:0:0:
318,17,100347,2,0,P|370:51|448:26,1,135,8|0,3:2|3:0,2:0:0:0:
512,118,100876,1,8,2:0:0:0:
512,118,100964,1,8,2:0:0:0:
512,118,101053,5,2,1:2:0:0:
449,197,101229,2,0,P|408:191|370:186,1,67.5000000000001,8|0,2:0|3:0,2:0:0:0:
289,180,101582,1,0,1:0:0:0:
289,180,101670,1,0,2:0:0:0:
289,180,101758,1,10,3:2:0:0:
320,296,101935,1,8,2:0:0:0:
200,319,102111,1,10,3:2:0:0:
169,203,102288,1,8,2:0:0:0:
114,280,102464,5,2,2:0:0:0:
114,280,103700,6,0,L|117:302,3,17.4999994659424,2|2|2|2,2:0|2:0|2:0|2:0,2:0:0:0:
116,297,104935,5,10,2:0:0:0:
149,290,105023,1,8,2:0:0:0:
182,283,105111,1,10,2:0:0:0:
215,277,105200,1,8,2:0:0:0:
248,270,105288,6,0,B|258:229|258:229|237:186,1,75,4|0,1:0|1:0,2:0:0:0:
186,102,105641,2,0,P|235:110|348:54,1,150,8|0,2:0|1:0,2:0:0:0:
414,4,106170,1,2,1:2:0:0:
494,82,106347,2,0,P|482:118|477:159,1,75,10|2,2:0|1:2,2:0:0:0:
458,265,106700,5,2,1:2:0:0:
379,184,106876,1,0,1:0:0:0:
289,252,107053,2,0,P|274:293|279:338,1,75,10|0,2:0|1:0,2:0:0:0:
288,359,107317,1,8,2:0:0:0:
288,359,107406,2,0,P|217:370|202:372,1,75,2|0,1:2|1:0,2:0:0:0:
117,312,107758,2,0,P|139:259|90:233,1,112.5,10|4,2:0|2:3,2:0:0:0:
67,236,108111,6,0,B|54:198|54:198|68:158,1,75,14|0,2:0|1:0,2:0:0:0:
121,26,108459,1,8,2:0:0:0:
198,154,108634,1,2,1:2:0:0:
284,32,108808,2,0,P|321:35|357:46,1,75,10|0,2:0|1:0,2:0:0:0:
443,169,109157,2,0,P|405:171|369:182,1,75,8|4,2:0|2:3,2:0:0:0:
230,234,109506,5,14,1:2:0:0:
365,297,109682,1,8,2:0:0:0:
238,378,109858,5,10,1:2:0:0:
103,315,110035,1,8,2:0:0:0:
230,234,110211,5,10,1:2:0:0:
100,179,110390,1,8,2:0:0:0:
100,179,110480,1,8,2:0:0:0:
100,179,110570,2,0,L|50:187,1,37.5,10|8,1:2|2:0,2:0:0:0:
150,98,110749,2,0,L|187:103,1,37.5,8|8,2:0|2:0,2:0:0:0:
277,116,110929,6,0,B|289:79|289:79|279:42,1,75,4|0,1:0|1:0,2:0:0:0:
377,135,111281,2,0,P|371:172|367:208,1,75,8|2,2:0|1:2,2:0:0:0:
355,308,111634,1,2,1:2:0:0:
355,308,111723,1,8,2:0:0:0:
355,308,111811,1,0,1:0:0:0:
267,256,111987,2,0,P|224:257|197:267,1,75,8|2,2:0|1:2,2:0:0:0:
149,352,112340,6,0,P|157:289|93:241,1,150,2|10,1:2|2:0,2:0:0:0:
15,203,112870,2,0,P|18:160|27:129,1,75,2|0,1:2|1:0,2:0:0:0:
108,80,113223,2,0,P|115:112|117:146,1,75,2|8,2:0|2:0,2:0:0:0:
217,196,113576,1,2,1:2:0:0:
217,196,113664,1,8,2:0:0:0:
217,196,113752,6,0,P|273:151|346:167,1,150,0|8,1:0|2:0,2:0:0:0:
423,222,114281,1,0,1:0:0:0:
423,222,114370,1,8,2:0:0:0:
423,222,114458,1,0,1:0:0:0:
494,150,114634,1,2,1:2:0:0:
435,67,114811,2,0,P|388:60|354:55,1,75,10|2,2:0|1:2,2:0:0:0:
348,41,115076,1,8,2:0:0:0:
348,41,115164,6,0,P|279:61|217:14,1,150,0|8,1:0|2:0,2:0:0:0:
125,25,115693,1,0,1:0:0:0:
125,25,115781,1,8,2:0:0:0:
125,25,115870,2,0,P|116:86|112:112,1,75,2|0,1:2|1:0,2:0:0:0:
48,168,116223,1,10,2:0:0:0:
6,75,116399,1,0,3:0:0:0:
48,168,116576,6,0,P|106:193|174:174,1,150,0|8,1:0|2:0,2:0:0:0:
247,105,117105,1,2,1:2:0:0:
317,191,117281,1,2,1:2:0:0:
317,191,117370,1,8,2:0:0:0:
317,191,117458,1,0,1:0:0:0:
414,163,117634,2,0,P|424:129|420:95,1,75,8|2,2:0|1:2,2:0:0:0:
418,71,117899,1,8,2:0:0:0:
418,71,117987,6,0,P|355:78|308:10,1,150,2|10,1:2|2:0,2:0:0:0:
217,18,118517,1,2,1:2:0:0:
217,18,118605,1,8,2:0:0:0:
217,18,118693,2,0,P|207:76|202:102,1,75,0|2,1:0|1:2,2:0:0:0:
163,177,119046,1,8,2:0:0:0:
74,215,119223,1,2,1:2:0:0:
74,215,119311,1,8,2:0:0:0:
74,215,119399,6,0,P|95:267|112:348,1,150,2|8,2:0|2:0,2:0:0:0:
206,379,119929,1,2,1:2:0:0:
258,295,120105,1,2,1:2:0:0:
258,295,120193,1,8,2:0:0:0:
258,295,120281,1,0,1:0:0:0:
349,340,120458,2,0,P|404:347|451:314,1,112.5,8|8,2:0|2:0,2:0:0:0:
451,294,120811,6,0,P|443:255|437:224,1,75,2|0,1:2|1:0,2:0:0:0:
416,128,121164,1,10,2:0:0:0:
328,172,121340,1,0,1:0:0:0:
328,172,121429,1,8,2:0:0:0:
328,172,121517,2,0,P|280:168|248:151,1,75,2|0,1:2|1:0,2:0:0:0:
182,97,121870,1,10,2:0:0:0:
274,55,122046,1,0,3:0:0:0:
182,97,122223,6,0,P|134:101|102:118,1,75,0|0,1:0|1:0,2:0:0:0:
41,177,122576,2,0,P|58:233|70:290,1,112.5,10|8,2:0|2:0,2:0:0:0:
69,305,122928,2,0,P|25:318|1:326,1,75,2|0,1:2|1:0,2:0:0:0:
155,247,123281,2,0,P|187:257|219:266,1,75,10|0,2:0|1:0,2:0:0:0:
250,283,123546,1,8,2:0:0:0:
250,283,123634,6,0,P|282:241|373:251,1,150,0|8,1:0|2:0,2:0:0:0:
442,297,124164,1,2,1:2:0:0:
512,226,124340,1,2,1:2:0:0:
512,226,124429,1,8,2:0:0:0:
512,226,124517,1,0,1:0:0:0:
428,168,124693,2,0,P|431:132|437:89,1,75,8|2,2:0|1:2,2:0:0:0:
442,74,124958,1,8,2:0:0:0:
442,74,125046,6,0,P|383:103|318:73,1,150,2|10,1:2|2:0,2:0:0:0:
222,59,125576,2,0,P|210:109|206:126,1,75,2|0,1:2|1:0,2:0:0:0:
189,224,125929,1,2,1:2:0:0:
102,170,126105,1,10,2:0:0:0:
33,244,126281,1,0,1:0:0:0:
33,244,126370,1,8,2:0:0:0:
33,244,126458,6,0,P|52:297|58:327,1,75,0|0,1:0|1:0,2:0:0:0:
132,372,126811,1,8,2:0:0:0:
222,320,126987,1,0,1:0:0:0:
222,320,127076,1,8,2:0:0:0:
222,320,127164,2,0,P|275:301|305:295,1,75,2|0,1:2|1:0,2:0:0:0:
332,208,127517,2,0,P|277:193|254:184,1,75,10|2,3:2|2:0,2:0:0:0:
191,118,127870,6,0,P|194:80|216:48,1,75,0|2,1:0|1:2,2:0:0:0:
311,45,128223,2,0,P|352:75|439:53,1,150,10|0,2:0|1:0,2:0:0:0:
504,130,128752,1,0,1:0:0:0:
419,186,128928,2,0,P|402:228|409:258,1,75,10|0,2:0|2:0,2:0:0:0:
511,333,129281,6,0,B|436:316|458:365|361:342,1,135,2|10,1:2|2:0,2:0:0:0:
298,284,129811,2,0,P|292:240|286:208,1,67.5000000000001,2|4,1:2|1:2,2:0:0:0:
192,182,130164,2,0,P|186:215|181:248,1,75,2|8,1:2|2:0,2:0:0:0:
101,131,130517,1,2,2:0:0:0:
234,79,130693,6,0,B|270:92|270:92|319:81,1,75,4|2,1:2|1:2,2:0:0:0:
417,65,131046,2,0,P|390:145|420:218,1,150,10|0,2:0|1:0,2:0:0:0:
476,295,131576,1,0,1:0:0:0:
376,348,131752,2,0,P|325:340|283:335,1,75,10|0,2:0|1:0,2:0:0:0:
180,276,132105,6,0,P|171:231|179:201,1,75,6|8,1:2|2:0,2:0:0:0:
229,102,132458,1,2,1:2:0:0:
135,60,132634,1,12,2:3:0:0:
135,60,132723,1,4,2:3:0:0:
135,60,132811,2,0,L|65:70,3,37.5,2|8|4|4,1:2|2:0|2:3|2:3,2:0:0:0:
64,72,133164,1,2,1:2:0:0:
58,101,133252,1,4,2:3:0:0:
53,131,133340,1,4,2:3:0:0:
48,160,133428,1,4,2:3:0:0:
43,190,133517,6,0,B|79:202|79:202|140:179,1,75,6|0,1:2|1:0,2:0:0:0:
218,146,133870,1,10,2:0:0:0:
306,215,134046,2,0,P|297:255|292:301,1,75,2|0,1:2|1:0,2:0:0:0:
376,364,134399,1,2,1:2:0:0:
445,275,134576,2,0,P|449:218|419:171,1,112.5,10|0,2:0|1:0,2:0:0:0:
391,155,134928,6,0,P|385:115|379:73,1,75,0|0,1:0|1:0,2:0:0:0:
294,7,135281,1,8,2:0:0:0:
261,115,135458,1,2,1:2:0:0:
181,52,135634,1,2,1:2:0:0:
181,52,135723,1,8,2:0:0:0:
181,52,135811,1,0,1:0:0:0:
76,93,135987,2,0,P|61:146|74:172,1,75,12|2,2:0|2:0,2:0:0:0:
185,226,136340,6,0,B|268:215|252:256|334:248,1,150,6|10,1:2|2:0,2:0:0:0:
439,280,136870,2,0,P|425:314|411:361,1,75,2|0,1:2|1:0,2:0:0:0:
305,380,137223,1,2,1:2:0:0:
263,274,137399,1,14,2:0:0:0:
174,338,137576,1,0,1:0:0:0:
174,338,137664,1,0,1:0:0:0:
174,338,137752,5,8,1:2:0:0:
185,226,137929,1,8,2:0:0:0:
72,216,138105,1,0,1:0:0:0:
72,216,138193,2,0,P|66:154|60:133,1,75,8|8,2:0|2:0,2:0:0:0:
47,111,138458,2,0,P|50:91|58:69,3,37.5,2|8|8|8,1:2|2:0|2:3|2:3,2:0:0:0:
71,44,138811,1,2,1:2:0:0:
99,63,138899,1,4,2:3:0:0:
132,68,138987,1,4,2:3:0:0:
164,61,139076,1,4,2:3:0:0:
191,41,139164,5,6,1:2:0:0:
216,273,139870,5,6,2:0:0:0:
417,153,140576,6,0,P|423:121|423:102,1,44.9999999999999,6|4,2:0|2:3,2:0:0:0:
369,41,140928,1,4,2:3:0:0:
327,115,141105,1,4,2:3:0:0:
266,54,141281,2,0,P|237:57|212:60,1,44.9999999999999,2|4,2:0|2:3,2:0:0:0:
158,117,141634,1,10,2:0:0:0:
158,117,141723,1,8,2:0:0:0:
158,117,141811,1,8,2:0:0:0:
158,117,141899,1,8,2:0:0:0:
158,117,141987,6,0,B|168:153|186:169|186:169|150:258,1,150,4|8,1:0|2:0,2:0:0:0:
200,354,142517,1,2,1:2:0:0:
297,296,142693,2,0,P|337:316|366:310,1,75,2|0,1:2|1:0,2:0:0:0:
365,197,143046,2,0,P|328:192|296:211,1,75,8|0,2:0|1:0,2:0:0:0:
191,251,143399,6,0,P|179:169|165:97,1,150,2|8,1:2|2:0,2:0:0:0:
66,49,143928,2,0,P|50:88|59:130,1,75,2|0,1:2|1:0,2:0:0:0:
93,225,144281,1,0,1:0:0:0:
166,103,144458,2,0,B|208:108|208:108|245:92,1,75,14|0,2:0|2:0,2:0:0:0:
351,192,144811,6,0,B|320:179|320:179|278:184,1,75,6|8,1:2|2:0,2:0:0:0:
167,201,145164,1,10,1:2:0:0:
174,223,145340,1,10,2:0:0:0:
279,307,145517,5,8,1:2:0:0:
266,210,145693,1,10,2:0:0:0:
186,344,145870,5,8,1:2:0:0:
167,201,146046,1,10,2:0:0:0:
18,210,146223,6,0,P|14:162|38:124,1,75,12|8,1:2|2:0,2:0:0:0:
48,114,146487,1,8,2:0:0:0:
48,114,146576,2,0,L|96:100,3,37.5,10|8|10|8,1:2|2:0|2:0|2:0,2:0:0:0:
131,34,146928,2,0,L|179:48,1,37.5,8|8,1:2|2:0,2:0:0:0:
261,73,147105,1,8,2:0:0:0:
261,73,147193,1,8,2:0:0:0:
261,73,147281,2,0,L|273:125,3,37.5,10|8|8|8,1:2|2:0|2:0|2:0,2:0:0:0:
286,195,147634,6,0,B|378:168|378:168|403:199|443:206,1,165,4|10,1:0|2:0,2:0:0:0:
367,320,148164,1,0,1:2:0:0:
367,320,148252,1,8,2:0:0:0:
367,320,148340,1,0,1:0:0:0:
274,226,148517,1,0,1:0:0:0:
190,328,148693,2,0,P|145:330|109:314,1,82.5,10|0,2:0|1:0,2:0:0:0:
3,237,149046,6,0,B|17:178|17:178|41:150|41:150|54:83,1,165,2|10,1:2|2:0,2:0:0:0:
170,16,149576,1,2,1:2:0:0:
170,16,149664,1,8,2:0:0:0:
170,16,149752,1,0,1:0:0:0:
164,147,149928,1,0,1:0:0:0:
59,60,150105,1,10,2:0:0:0:
143,161,150281,1,2,1:2:0:0:
249,81,150458,6,0,B|290:61|340:70|340:70|365:98|414:99,1,165,2|8,1:2|2:0,2:0:0:0:
486,202,150987,1,2,1:2:0:0:
368,261,151164,2,0,P|344:224|354:183,1,82.5,2|0,1:2|1:0,2:0:0:0:
242,111,151517,1,8,2:0:0:0:
209,239,151693,1,2,1:2:0:0:
99,165,151870,6,0,P|36:168|4:266,1,165,2|8,1:2|2:0,2:0:0:0:
93,347,152399,1,2,1:2:0:0:
185,253,152576,1,2,1:2:0:0:
185,253,152664,1,8,2:0:0:0:
185,253,152752,1,0,1:0:0:0:
21,268,152928,1,8,2:0:0:0:
193,353,153105,1,2,1:2:0:0:
193,353,153193,1,8,2:0:0:0:
193,353,153281,6,0,B|254:337|254:337|286:304|286:304|350:292,1,165,6|8,1:2|2:0,2:0:0:0:
419,187,153811,1,2,1:2:0:0:
299,157,153987,1,2,1:2:0:0:
299,157,154076,1,8,2:0:0:0:
299,157,154164,1,0,1:0:0:0:
369,288,154340,1,8,2:0:0:0:
450,184,154517,1,2,1:2:0:0:
284,184,154693,6,0,B|187:166|187:166|170:198|139:210,1,165,2|10,1:2|2:0,2:0:0:0:
22,147,155223,2,0,P|9:105|26:68,1,82.5,2|0,1:2|1:0,2:0:0:0:
111,220,155576,2,0,P|125:257|112:296,1,82.5,2|8,1:2|2:0,2:0:0:0:
213,381,155928,1,2,1:2:0:0:
298,279,156105,6,0,B|393:317|393:317|426:293|423:255,1,165,2|8,1:2|2:0,2:0:0:0:
326,173,156634,1,2,1:2:0:0:
205,226,156811,2,0,P|192:266|196:307,1,82.5,2|0,1:2|1:0,2:0:0:0:
84,377,157164,2,0,P|87:336|74:297,1,82.5,12|0,2:0|1:0,2:0:0:0:
7,154,157517,5,12,2:0:0:0:
48,28,157693,1,0,1:0:0:0:
121,175,157870,1,8,2:0:0:0:
162,49,158046,1,0,1:0:0:0:
262,179,158223,6,0,L|327:167,3,41.25,14|0|8|10,2:0|2:0|2:0|2:0,2:0:0:0:
384,154,158576,1,8,1:2:0:0:
380,186,158664,1,8,2:0:0:0:
376,219,158752,1,6,2:3:0:0:
373,252,158840,1,4,2:3:0:0:
369,285,158928,6,0,B|314:268|268:290|268:290|252:331,1,135,4|2,1:0|1:2,2:0:0:0:
160,352,159458,2,0,P|160:315|144:280,1,67.5000000000001,2|0,2:0|1:0,2:0:0:0:
60,238,159811,2,0,P|48:269|48:302,1,67.5000000000001,2|0,2:0|1:0,2:0:0:0:
131,170,160164,6,0,P|169:183|200:191,2,67.5000000000001,2|0|0,2:0|1:0|2:0,2:0:0:0:
49,109,160693,1,0,1:0:0:0:
108,27,160870,1,2,2:0:0:0:
203,61,161046,2,0,P|243:80|299:68,1,101.25,2|2,1:2|2:0,2:0:0:0:
324,55,161399,2,0,P|332:96|338:133,1,67.5000000000001,0|2,1:0|2:0,2:0:0:0:
370,216,161752,6,0,B|435:206|426:238|489:226,1,101.25,2|0,1:2|2:0,2:0:0:0:
491,219,162105,1,2,1:2:0:0:
505,318,162281,2,0,P|478:351|474:378,1,67.5000000000001,2|0,2:0|1:0,2:0:0:0:
372,374,162634,2,0,P|363:341|340:317,1,67.5000000000001,2|4,2:0|1:2,2:0:0:0:
246,278,162987,1,2,2:0:0:0:
351,199,163164,6,0,B|433:222|433:222|476:205|464:146,1,165,14|2,2:0|1:2,2:0:0:0:
343,85,163693,2,0,P|293:95|255:103,1,82.5,14|0,2:0|2:0,2:0:0:0:
154,191,164046,2,0,P|194:199|234:207,1,82.5000025177003,14|0,2:0|2:0,2:0:0:0:
280,350,164390,1,10,2:0:0:0:
280,350,164477,1,8,2:0:0:0:
280,350,164563,6,0,B|180:373|180:373|162:349|120:333,1,150,4|8,1:0|2:0,2:0:0:0:
27,284,165092,1,0,1:0:0:0:
27,284,165180,1,8,2:0:0:0:
27,284,165268,1,0,1:0:0:0:
130,215,165445,1,0,1:0:0:0:
19,159,165621,2,0,P|19:111|41:70,1,82.5,8|0,2:0|2:0,2:0:0:0:
146,30,165974,6,0,B|255:17|202:78|326:57,1,165,2|8,1:2|2:0,2:0:0:0:
422,25,166504,1,0,1:0:0:0:
408,154,166680,1,2,1:2:0:0:
408,154,166768,1,8,2:0:0:0:
408,154,166857,1,0,1:0:0:0:
298,96,167033,1,10,2:0:0:0:
278,249,167210,1,8,2:0:0:0:
278,249,167298,1,8,2:0:0:0:
278,249,167386,6,0,B|242:223|192:220|152:240|152:240|175:266,1,165,6|10,1:2|2:0,2:0:0:0:
265,373,167915,1,2,1:2:0:0:
265,373,168004,1,8,2:0:0:0:
265,373,168092,1,0,1:0:0:0:
311,249,168268,1,2,1:2:0:0:
396,349,168445,2,0,P|449:341|477:333,1,82.5,8|2,2:0|1:2,2:0:0:0:
501,203,168798,5,14,1:2:0:0:
388,154,168976,1,8,2:0:0:0:
388,154,169065,1,8,2:0:0:0:
388,154,169155,2,0,L|327:165,3,41.25,8|8|10|8,1:2|2:0|2:0|2:0,2:0:0:0:
264,170,169512,5,10,1:2:0:0:
237,144,169601,1,8,2:0:0:0:
203,129,169690,1,8,2:0:0:0:
166,126,169780,1,8,2:0:0:0:
131,136,169869,1,10,1:2:0:0:
101,157,169958,1,8,2:0:0:0:
80,187,170048,1,10,2:0:0:0:
70,223,170137,1,8,2:0:0:0:
73,260,170226,5,4,1:0:0:0:
198,130,172873,5,0,1:0:0:0:
198,130,173049,1,0,1:0:0:0:
314,254,175696,5,0,1:0:0:0:
314,254,175873,1,0,1:0:0:0:
314,254,177284,6,0,P|295:298|290:368,2,105,2|2|4,3:2|3:2|3:2,2:0:0:0:
359,182,178167,1,2,2:0:0:0:
278,156,178343,2,0,P|224:171|192:175,1,78.7499999999999,0|0,1:0|2:0,2:0:0:0:
201,174,178689,5,4,1:0:0:0:
110,217,178865,2,0,P|128:273|204:284,1,135,0|2,1:0|1:2,2:0:0:0:
298,238,179394,1,10,2:0:0:0:
278,348,179572,1,0,1:0:0:0:
405,267,179748,1,8,2:0:0:0:
385,377,179924,1,2,1:2:0:0:
298,238,180101,6,0,P|293:199|305:162,1,67.5000000000001,10|0,2:0|1:0,2:0:0:0:
379,72,180453,1,8,2:0:0:0:
277,28,180627,1,2,1:2:0:0:
277,28,180714,1,8,2:0:0:0:
277,28,180801,2,0,L|211:38,3,37.5,8|8|10|8,1:2|2:0|2:0|2:0,2:0:0:0:
221,62,181150,1,10,1:2:0:0:
187,56,181237,1,8,2:0:0:0:
154,51,181325,1,8,2:0:0:0:
120,46,181412,1,8,2:0:0:0:
87,41,181512,6,0,P|93:89|79:122,1,75,4|8,1:0|2:0,2:0:0:0:
17,152,181776,1,8,2:0:0:0:
17,152,181864,2,0,P|11:200|25:233,1,75,8|10,1:2|2:0,2:0:0:0:
84,316,182218,1,10,1:2:0:0:
144,223,182394,1,10,2:0:0:0:
144,223,182482,1,8,2:0:0:0:
144,223,182570,1,10,1:2:0:0:
216,309,182747,1,10,2:0:0:0:
216,309,182835,1,8,2:0:0:0:
216,309,182923,6,0,P|278:301|295:298,1,75,10|8,1:2|2:0,2:0:0:0:
378,216,183276,1,10,1:2:0:0:
273,179,183453,1,10,2:0:0:0:
273,179,183541,1,8,2:0:0:0:
273,179,183629,1,8,1:2:0:0:
355,93,183806,1,10,2:0:0:0:
355,93,183894,1,8,2:0:0:0:
355,93,183982,2,0,P|417:101|434:104,1,75,8|10,1:2|2:0,2:0:0:0:
494,238,184335,6,0,B|510:324|510:324|493:351|448:347,1,150,14|8,1:2|1:2,2:0:0:0:
364,268,184865,1,10,2:0:0:0:
284,358,185041,2,0,P|226:354|199:344,1,75,10|8,1:2|2:0,2:0:0:0:
180,277,185306,1,8,2:0:0:0:
180,277,185394,2,0,P|216:267|253:267,1,75,10|10,1:2|2:0,2:0:0:0:
347,160,185747,5,14,1:2:0:0:
236,177,185923,1,8,2:0:0:0:
259,66,186100,2,0,P|303:50|332:52,1,75,8|10,1:2|2:0,2:0:0:0:
210,166,186453,1,2,1:2:0:0:
136,95,186629,1,10,2:0:0:0:
136,95,186718,1,8,2:0:0:0:
136,95,186806,2,0,L|77:108,1,37.5,10|8,1:2|2:0,2:0:0:0:
56,183,186982,2,0,L|92:191,1,37.5,10|8,2:0|2:0,2:0:0:0:
148,261,187159,6,0,B|132:300|132:300|146:342,1,75,4|2,1:0|1:2,2:0:0:0:
243,380,187512,1,8,2:0:0:0:
262,275,187688,1,2,1:2:0:0:
262,275,187776,1,8,2:0:0:0:
262,275,187865,1,2,1:2:0:0:
363,325,188041,1,2,1:2:0:0:
448,251,188218,2,0,P|444:177|415:138,1,112.5,10|8,2:0|2:0,2:0:0:0:
391,135,188570,6,0,P|376:193|371:225,1,75,0|2,1:0|1:2,2:0:0:0:
282,129,188923,2,0,P|274:92|264:56,1,75,8|0,2:0|1:0,2:0:0:0:
165,125,189276,1,2,1:2:0:0:
278,165,189453,1,0,1:0:0:0:
169,216,189629,2,0,P|114:226|69:188,1,112.5,8|8,2:0|2:0,2:0:0:0:
15,136,189982,6,0,B|49:175|49:175|18:288,1,150,2|8,1:2|2:0,2:0:0:0:
112,350,190512,1,2,1:2:0:0:
177,249,190688,1,2,1:2:0:0:
248,344,190865,1,0,1:0:0:0:
157,233,191041,2,0,P|148:186|161:158,1,75,8|0,2:0|1:0,2:0:0:0:
233,68,191394,5,2,1:2:0:0:
277,179,191571,1,0,1:0:0:0:
384,124,191747,2,0,P|423:131|467:139,1,75,8|0,2:0|1:0,2:0:0:0:
402,252,192100,1,0,1:0:0:0:
354,134,192276,1,0,1:0:0:0:
257,268,192453,2,0,B|225:290|225:290|132:260,1,112.5,14|0,2:0|1:0,2:0:0:0:
80,241,192806,6,0,B|55:171|71:129|71:129|106:110,1,150,4|14,1:0|2:0,2:0:0:0:
189,28,193335,2,0,P|140:21|106:12,1,75,2|4,3:2|1:2,2:0:0:0:
230,123,193688,2,0,P|279:116|313:107,1,75,2|12,1:2|2:0,2:0:0:0:
413,59,194041,1,2,2:0:0:0:
489,150,194218,5,0,1:0:0:0:
483,183,194306,1,0,1:0:0:0:
478,216,194394,1,8,2:0:0:0:
472,249,194482,1,8,2:0:0:0:
467,283,194570,2,0,L|418:294,3,37.5,10|8|10|8,1:2|2:0|2:0|2:0,2:0:0:0:
351,301,194924,5,8,1:2:0:0:
331,273,195011,1,8,2:0:0:0:
305,252,195098,1,8,2:0:0:0:
273,241,195185,1,8,2:0:0:0:
240,239,195272,1,8,1:2:0:0:
207,247,195360,1,8,2:0:0:0:
179,265,195447,1,8,2:0:0:0:
157,291,195534,1,8,2:0:0:0:
144,322,195621,5,4,1:0:0:0:
372,115,205154,6,0,B|329:127|300:106|300:106|319:145|305:178,1,146.25,12|4,3:2|2:3,2:0:0:0:
286,197,205503,6,0,P|231:208|212:212,1,67.4999979400635,2|8,1:2|2:0,2:0:0:0:
109,244,205855,1,8,1:2:0:0:
208,301,206032,1,8,2:0:0:0:
143,165,206208,1,10,1:2:0:0:
143,165,206328,2,0,P|139:142|143:114,1,50,8|4,2:0|2:3,2:0:0:0:
225,116,206569,1,4,2:3:0:0:
225,116,206689,2,0,P|242:101|269:90,1,45.373498626709,4|4,2:3|2:3,2:0:0:0:
343,98,206915,6,0,B|319:175|319:175|341:190|357:225,1,134.999995880127,4|0,1:0|3:0,2:0:0:0:
276,284,207444,1,0,1:0:0:0:
204,212,207620,2,0,P|121:231|69:244,1,135,8|0,3:2|3:0,2:0:0:0:
7,321,208150,1,4,2:3:0:0:
7,321,208238,1,4,2:3:0:0:
7,321,208326,5,2,1:2:0:0:
86,382,208503,2,0,P|126:341|221:343,1,135,8|0,2:0|1:0,2:0:0:0:
293,375,209032,1,10,3:2:0:0:
391,354,209209,2,0,P|383:295|374:220,1,135,0|4,1:0|2:3,2:0:0:0:
354,119,209738,5,2,1:2:0:0:
262,162,209915,2,0,P|231:112|153:109,1,135,0|2,1:0|1:2,2:0:0:0:
103,190,210444,2,0,P|134:240|212:243,1,135,10|0,3:2|3:0,2:0:0:0:
262,162,210973,1,2,2:0:0:0:
299,255,211150,5,2,1:2:0:0:
356,171,211326,2,0,P|434:186|493:198,1,135,8|4,2:0|2:3,2:0:0:0:
499,298,211856,2,0,P|457:304|433:315,1,67.5000000000001,10|0,3:2|2:0,2:0:0:0:
341,355,212209,1,8,1:2:0:0:
341,355,212297,1,8,2:0:0:0:
341,355,212385,1,8,2:3:0:0:
341,355,212473,1,8,2:0:0:0:
341,355,212562,6,0,B|254:325|276:375|175:353,2,150,4|8|0,1:0|2:0|1:0,2:0:0:0:
428,282,213444,1,0,1:0:0:0:
351,200,213620,2,0,P|314:201|271:182,1,75,10|2,2:0|2:0,2:0:0:0:
201,105,213973,5,2,1:2:0:0:
116,179,214150,2,0,P|128:223|135:258,1,75,0|10,1:0|2:0,2:0:0:0:
153,371,214503,1,2,1:2:0:0:
153,371,214591,1,8,2:0:0:0:
153,371,214679,1,0,1:0:0:0:
63,303,214856,1,2,1:2:0:0:
213,308,215032,2,0,P|254:309|296:291,1,75,8|2,2:0|2:0,2:0:0:0:
363,216,215385,6,0,P|372:143|385:45,1,150,2|8,1:2|2:0,2:0:0:0:
290,21,215915,1,2,1:2:0:0:
290,21,216003,1,8,2:0:0:0:
290,21,216091,1,0,1:0:0:0:
245,124,216267,1,0,1:0:0:0:
153,57,216444,2,0,P|99:63|75:78,1,75,10|0,2:0|2:0,2:0:0:0:
7,156,216797,5,2,1:2:0:0:
108,205,216973,2,0,P|99:257|96:288,1,75,0|10,1:0|2:0,2:0:0:0:
197,384,217326,1,0,1:0:0:0:
197,384,217415,1,8,2:0:0:0:
197,384,217503,1,2,1:2:0:0:
231,253,217679,1,8,2:3:0:0:
321,353,217856,1,2,1:2:0:0:
355,222,218032,1,4,2:3:0:0:
212,277,218209,5,4,1:0:0:0:
212,277,218385,2,0,P|174:228|201:157,1,135,0|0,1:0|1:0,2:0:0:0:
275,102,218915,2,0,P|310:106|350:112,1,67.5000000000001,10|0,3:2|2:0,2:0:0:0:
388,206,219267,1,0,1:0:0:0:
388,206,219444,2,0,P|354:210|321:214,1,67.5000000000001,0|2,1:0|3:2,2:0:0:0:
293,311,219797,6,0,P|349:341|419:326,1,135,8|0,2:0|1:0,2:0:0:0:
484,250,220326,1,10,3:2:0:0:
384,231,220503,1,0,1:0:0:0:
463,167,220679,2,0,P|465:129|455:100,1,75,14|0,2:0|2:0,2:0:0:0:
345,23,221032,6,0,P|331:71|325:101,1,75,6|8,1:2|2:0,2:0:0:0:
249,188,221385,1,8,1:2:0:0:
195,81,221562,1,8,2:0:0:0:
135,202,221738,5,8,1:2:0:0:
266,171,221915,1,8,2:0:0:0:
183,296,222091,1,8,1:2:0:0:
314,265,222267,1,8,2:0:0:0:
156,192,222444,5,10,1:2:0:0:
264,334,222620,1,8,2:0:0:0:
354,178,222797,1,8,1:2:0:0:
193,276,222973,1,8,2:0:0:0:
166,90,223150,5,8,1:2:0:0:
65,248,223326,1,8,2:0:0:0:
266,171,223503,1,10,1:2:0:0:
37,129,223679,1,8,2:0:0:0:
112,330,223856,5,2,2:0:0:0:
194,129,234444,5,2,2:0:0:0:
194,129,234620,1,0,3:0:0:0:
194,129,234797,2,0,P|225:140|266:134,1,67.4999999999999,6|0,2:0|2:0,2:0:0:0:
288,129,235150,6,0,P|270:175|256:251,1,120,6|2,2:0|2:0,2:0:0:0:
316,312,235679,2,0,P|283:284|163:346,1,180,2|0,3:2|2:0,2:0:0:0:
169,327,236562,6,0,P|125:311|46:300,1,120,0|2,3:0|2:0,2:0:0:0:
4,223,237091,1,2,3:2:0:0:
83,180,237267,2,0,P|108:133|72:68,1,120,0|0,2:0|2:0,2:0:0:0:
83,75,237973,6,0,P|142:85|203:96,1,120,2|2,3:2|2:0,2:0:0:0:
266,157,238503,2,0,P|246:81|320:29,1,180,2|0,3:2|2:0,2:0:0:0:
319,29,239385,6,0,P|330:66|335:91,1,60,0|2,1:0|2:0,2:0:0:0:
415,126,239738,2,0,P|421:96|430:68,1,60,2|2,1:2|2:0,2:0:0:0:
493,191,240091,1,4,1:2:0:0:
371,231,240267,5,8,2:0:0:0:
341,226,240356,1,8,2:0:0:0:
311,221,240444,1,8,1:2:0:0:
281,216,240532,1,8,2:0:0:0:
251,211,240620,1,10,2:0:0:0:
221,206,240709,1,8,2:0:0:0:
191,201,240797,6,0,P|170:242|168:269,1,60,4|0,1:0|2:0,2:0:0:0:
287,350,241150,1,10,1:2:0:0:
294,372,241326,1,10,2:0:0:0:
341,226,241503,5,8,1:2:0:0:
318,208,241679,1,10,2:0:0:0:
466,296,241856,5,10,1:2:0:0:
455,331,242032,1,8,2:0:0:0:
411,163,242209,5,8,1:2:0:0:
318,240,242385,1,8,2:0:0:0:
339,99,242562,5,8,1:2:0:0:
432,176,242738,1,10,2:0:0:0:
419,11,242914,5,10,1:2:0:0:
256,90,243091,1,8,2:0:0:0:
226,105,243179,1,10,2:0:0:0:
192,108,243267,1,8,1:2:0:0:
160,102,243356,1,8,2:0:0:0:
130,85,243444,1,10,2:0:0:0:
108,61,243532,1,8,2:0:0:0:
93,30,243620,6,0,P|45:44|7:55,1,75,6|8,1:2|2:0,2:0:0:0:
4,127,243885,1,8,2:0:0:0:
4,127,243973,2,0,P|40:137|76:147,1,75,8|8,1:2|2:3,2:0:0:0:
176,253,244326,1,2,1:2:0:0:
176,253,244414,1,8,2:0:0:0:
176,253,244503,1,8,2:0:0:0:
43,281,244679,1,12,2:0:0:0:
154,357,244856,1,10,2:0:0:0:
154,357,244944,1,8,2:0:0:0:
154,357,245032,6,0,L|194:364,3,37.5,10|8|8|8,1:2|2:0|2:0|2:0,2:0:0:0:
265,375,245385,2,0,P|294:358|334:351,1,75,4|8,1:2|2:0,2:0:0:0:
360,279,245650,1,8,2:0:0:0:
360,279,245738,6,0,P|323:273|290:255,1,75,10|8,1:2|2:0,2:0:0:0:
265,232,246003,1,8,2:0:0:0:
268,198,246091,1,10,1:2:0:0:
272,165,246179,1,8,2:0:0:0:
275,131,246267,1,8,2:0:0:0:
278,98,246356,1,8,2:0:0:0:
282,64,246444,6,0,B|349:80|349:80|373:105|373:105|441:120,1,165,4|10,1:0|2:0,2:0:0:0:
498,253,246973,1,2,1:2:0:0:
498,253,247062,1,8,2:0:0:0:
498,253,247150,1,0,1:0:0:0:
363,213,247326,1,0,1:0:0:0:
352,352,247503,2,0,P|396:344|436:340,1,82.5,10|0,2:0|1:0,2:0:0:0:
257,266,247856,6,0,B|163:242|163:242|143:276|98:282,1,165,2|10,1:2|2:0,2:0:0:0:
2,186,248385,1,6,1:2:0:0:
141,148,248562,1,0,1:0:0:0:
141,148,248650,1,8,2:0:0:0:
141,148,248738,1,0,1:0:0:0:
81,283,248914,2,0,P|95:345|101:371,1,82.5,10|0,2:0|1:0,2:0:0:0:
239,379,249267,6,0,B|303:360|303:360|321:329|321:329|392:310,1,165,2|8,1:2|2:0,2:0:0:0:
473,206,249797,1,2,1:2:0:0:
340,159,249973,2,0,P|343:117|349:77,1,82.5,2|0,1:2|1:0,2:0:0:0:
252,221,250326,1,8,2:0:0:0:
376,284,250503,1,2,1:2:0:0:
224,351,250679,6,0,B|123:331|154:387|60:365,1,165,2|8,1:2|2:0,2:0:0:0:
3,238,251209,1,2,1:2:0:0:
149,265,251385,1,2,1:2:0:0:
149,265,251473,1,0,2:0:0:0:
149,265,251562,1,0,1:0:0:0:
39,353,251738,1,12,2:0:0:0:
95,177,251914,1,2,1:2:0:0:
95,177,252003,1,8,2:0:0:0:
95,177,252091,6,0,B|67:69|67:69|93:90|126:97,1,165,6|8,1:2|2:0,2:0:0:0:
249,129,252620,1,0,1:0:0:0:
175,22,252797,1,2,1:2:0:0:
175,22,252885,1,8,2:0:0:0:
175,22,252973,1,0,1:0:0:0:
182,178,253150,1,8,2:0:0:0:
317,82,253326,1,2,1:2:0:0:
377,235,253503,6,0,B|349:336|349:336|370:361|414:360,1,165,2|10,1:2|2:0,2:0:0:0:
494,252,254032,2,0,P|493:209|474:167,1,82.5,2|0,1:2|1:0,2:0:0:0:
412,48,254385,2,0,P|396:86|396:127,1,82.5,2|8,1:2|2:0,2:0:0:0:
280,206,254738,1,2,1:2:0:0:
167,123,254914,6,0,B|68:103|68:103|54:132|16:148,1,165,6|8,1:2|2:0,2:0:0:0:
135,229,255444,1,2,1:2:0:0:
265,178,255620,2,0,P|279:138|276:97,1,82.5,2|0,1:2|1:0,2:0:0:0:
150,251,255973,2,0,P|147:291|161:330,1,82.5,8|0,2:0|1:0,2:0:0:0:
318,383,256326,5,12,2:0:0:0:
352,247,256503,1,0,1:0:0:0:
456,375,256679,1,8,2:0:0:0:
490,239,256856,1,0,1:0:0:0:
333,266,257032,6,0,L|284:256,3,41.25,2|4|8|4,1:2|2:3|2:3|2:3,2:0:0:0:
209,247,257385,1,0,1:0:0:0:
178,266,257473,1,4,2:3:0:0:
142,270,257562,1,4,2:3:0:0:
108,256,257650,1,12,2:3:0:0:
83,229,257738,6,0,B|110:190|110:190|85:104,1,135,4|2,1:0|1:2,2:0:0:0:
156,23,258267,2,0,P|190:20|226:32,1,67.5000000000001,2|0,2:0|1:0,2:0:0:0:
276,122,258620,2,0,P|243:131|210:128,1,67.5000000000001,2|0,2:0|1:0,2:0:0:0:
358,79,258973,6,0,P|352:48|346:10,2,67.5000000000001,2|0|0,2:0|1:0|2:0,2:0:0:0:
375,185,259503,1,0,1:0:0:0:
459,117,259679,1,2,2:0:0:0:
501,215,259856,2,0,P|492:270|485:332,1,101.25,2|2,1:2|2:0,2:0:0:0:
481,345,260209,2,0,P|447:355|409:348,1,67.5000000000001,0|2,1:0|2:0,2:0:0:0:
325,290,260562,6,0,P|279:297|214:317,1,101.25,2|0,1:2|2:0,2:0:0:0:
226,312,260914,1,2,1:2:0:0:
128,264,261091,2,0,P|133:228|144:200,1,67.5000000000001,2|0,2:0|1:0,2:0:0:0:
228,130,261444,2,0,P|240:161|244:194,1,67.5000000000001,2|0,2:0|1:0,2:0:0:0:
127,93,261797,1,2,2:0:0:0:
282,37,261973,6,0,B|385:21|385:21|399:49|439:65,1,165,14|2,2:0|1:2,2:0:0:0:
510,185,262503,2,0,P|494:228|492:273,1,82.5,14|0,2:0|2:0,2:0:0:0:
373,355,262856,2,0,P|369:314|354:275,1,82.5,14|0,2:0|2:0,2:0:0:0:
263,171,263209,1,10,2:0:0:0:
263,171,263297,1,8,2:0:0:0:
263,171,263385,5,4,1:0:0:0:
201,251,263562,2,0,P|125:236|57:222,1,135,0|0,1:0|1:0,2:0:0:0:
38,126,264091,2,0,P|89:88|165:93,1,135,8|0,3:2|3:0,2:0:0:0:
256,141,264620,1,8,2:0:0:0:
256,141,264709,1,8,2:0:0:0:
256,141,264797,5,2,1:2:0:0:
340,85,264973,2,0,P|369:89|425:97,1,67.5000000000001,8|0,2:0|3:0,2:0:0:0:
496,217,265326,1,0,1:0:0:0:
496,217,265414,1,4,2:3:0:0:
496,217,265503,1,10,2:0:0:0:
354,203,265679,1,8,2:0:0:0:
465,300,265856,1,10,2:0:0:0:
496,126,266032,1,8,2:0:0:0:
357,232,266209,5,2,2:0:0:0:
257,178,267385,2,0,L|255:152,3,22.4999993133545,2|2|2|2,2:0|2:0|2:0|2:0,2:0:0:0:
251,128,267620,6,0,P|198:141|148:117,1,101.249996910095,12|8,1:2|2:0,2:0:0:0:
131,106,267973,2,0,P|86:113|47:122,1,67.5000000000001,8|2,2:0|1:2,2:0:0:0:
0,213,268326,5,10,2:0:0:0:
14,239,268414,1,8,2:0:0:0:
34,262,268503,1,8,2:0:0:0:
59,280,268591,1,8,2:0:0:0:
86,292,268679,1,10,1:2:0:0:
116,297,268767,1,8,2:0:0:0:
146,296,268856,1,10,2:0:0:0:
176,289,268944,1,8,2:0:0:0:
203,275,269032,6,0,P|213:323|219:352,1,75,4|0,1:0|1:0,2:0:0:0:
335,377,269385,2,0,P|373:324|462:323,1,150,8|0,2:0|1:0,2:0:0:0:
511,213,269914,1,2,1:2:0:0:
418,136,270091,2,0,P|375:146|334:158,1,75,10|2,2:0|1:2,2:0:0:0:
229,185,270444,5,2,1:2:0:0:
286,80,270620,1,0,1:0:0:0:
172,40,270797,2,0,P|132:46|99:67,1,75,10|0,2:0|1:0,2:0:0:0:
20,150,271150,1,2,1:2:0:0:
20,150,271238,1,8,2:0:0:0:
20,150,271326,1,0,1:0:0:0:
110,228,271503,2,0,P|101:275|90:350,1,112.5,10|8,2:0|2:0,2:0:0:0:
83,372,271856,6,0,P|131:358|157:355,1,75,2|0,1:2|1:0,2:0:0:0:
273,288,272209,2,0,P|235:282|200:271,1,75,8|0,2:0|1:0,2:0:0:0:
185,151,272562,2,0,P|233:126|298:152,1,112.5,2|2,1:2|2:0,2:0:0:0:
310,165,272914,1,8,2:0:0:0:
374,63,273091,1,2,1:2:0:0:
477,123,273267,6,0,P|466:175|448:298,1,150,2|8,1:2|2:0,2:0:0:0:
349,335,273797,1,0,1:0:0:0:
295,227,273973,1,2,1:2:0:0:
192,288,274150,1,8,2:0:0:0:
192,288,274238,1,8,2:0:0:0:
192,288,274326,2,0,L|141:293,1,37.5,8|8,1:2|2:0,2:0:0:0:
90,343,274503,2,0,L|39:338,1,37.5,8|8,2:0|2:0,2:0:0:0:
7,269,274679,6,0,P|18:231|11:186,1,75,4|0,1:0|1:0,2:0:0:0:
107,108,275032,2,0,B|99:145|99:145|111:183,1,75,12|0,2:0|1:0,2:0:0:0:
155,291,275385,1,2,1:2:0:0:
217,188,275562,1,0,1:0:0:0:
323,243,275738,2,0,P|383:260|444:228,1,112.5,8|2,2:0|2:0,2:0:0:0:
449,216,276091,6,0,P|440:153|431:128,1,75,2|0,1:2|1:0,2:0:0:0:
352,56,276444,2,0,P|342:92|339:129,1,75,12|0,2:0|2:0,2:0:0:0:
299,242,276797,1,10,2:0:0:0:
206,165,276973,1,0,1:0:0:0:
172,279,277150,2,0,P|181:315|184:352,1,75,10|0,2:0|2:0,2:0:0:0:
319,365,277503,6,0,B|413:338|413:338|437:363|463:370,1,150,6|8,1:2|1:2,2:0:0:0:
487,235,278032,1,10,2:0:0:0:
352,233,278209,5,10,1:2:0:0:
424,118,278385,1,8,2:0:0:0:
460,247,278562,1,8,1:2:0:0:
330,143,278738,1,8,2:0:0:0:
333,329,278914,5,10,1:2:0:0:
195,251,279091,1,8,2:0:0:0:
352,233,279267,1,8,1:2:0:0:
226,340,279444,1,8,2:0:0:0:
180,158,279620,5,10,1:2:0:0:
109,335,279797,1,8,2:0:0:0:
109,335,279885,1,8,2:0:0:0:
109,335,279973,2,0,L|118:379,1,37.5,8|8,1:2|2:0,2:0:0:0:
11,314,280150,2,0,L|20:270,1,37.5,8|8,2:0|2:0,2:0:0:0:
38,180,280326,5,4,1:0:0:0:
256,192,280444,12,0,283150,2:0:0:0:
