osu file format v14

[General]
AudioFilename: audio.mp3
AudioLeadIn: 0
PreviewTime: 147278
Countdown: 0
SampleSet: Soft
StackLeniency: 0.5
Mode: 0
LetterboxInBreaks: 0
WidescreenStoryboard: 1

[Editor]
Bookmarks: 23406,43170,60111,82700,105288,110929,133517,147634,170210,181504,195621,206915,223856,235150,246444,269032,280326,283150
DistanceSpacing: 1.2
BeatDivisor: 4
GridSize: 32
TimelineZoom: 2.2

[Metadata]
Title:Hajimari no Sokudo
TitleUnicode:はじまりの速度
Artist:Sangatsu no Phantasia
ArtistUnicode:三月のパンタシア
Creator:-Mikan
Version:AF's Normal
Source:キズナイーバー
Tags:Hikan Affirmation NeoskyLove adioni wenect Unranked mapper wenet Kazato Asa Shizuku- Akitoshi -Laura- Corinn kiznaiver ending trigger ed japanese jpop j-pop pop anime
BeatmapID:2314260
BeatmapSetID:1098561

[Difficulty]
HPDrainRate:4.3
CircleSize:3.3
OverallDifficulty:5
ApproachRate:6
SliderMultiplier:0.999999999999999
SliderTickRate:1

[Events]
//Background and Video events
Video,0,"Sangatsu No Phantasia - Hajimarino Sokudo.avi"
0,0,"gfdsgdf.jpg",0,0
//Break Periods
2,105488,109697
2,170426,177462
2,195821,204285
2,223891,233743
//Storyboard Layer 0 (Background)
//Storyboard Layer 1 (Fail)
//Storyboard Layer 2 (Pass)
//Storyboard Layer 3 (Foreground)
//Storyboard Layer 4 (Overlay)
//Storyboard Sound Samples

[TimingPoints]
653,346.820809248555,4,2,1,20,1,0
826,340.909090909091,4,2,1,20,1,0
1337,375,4,2,1,20,1,0
1712,352.941176470588,4,2,1,20,1,0
2241,338.983050847458,4,2,1,20,1,0
2579,359.281437125748,4,2,1,20,1,0
3656,387.096774193548,4,2,1,20,1,0
4043,329.67032967033,4,2,1,20,1,0
4207,333.333333333333,4,2,1,20,1,0
4873,357.142857142857,4,2,1,20,1,0
5408,346.820809248555,4,2,1,20,1,0
5581,352.941176470588,4,2,1,20,1,0
6463,352.941176470588,4,2,1,20,1,0
6992,375,4,2,1,20,1,0
7367,352.941176470588,4,2,1,20,1,0
7896,346.820809248555,4,2,1,20,1,0
8589,365.853658536585,4,2,1,20,1,0
8954,352.941176470588,4,2,1,20,1,0
9306,368.098159509202,4,2,1,20,1,0
9674,352.941176470588,4,2,1,20,1,0
10203,327.868852459016,4,2,1,20,1,0
10530,363.636363636364,4,2,1,20,1,0
11075,359.281437125748,4,2,1,20,1,0
11434,329.67032967033,4,2,1,20,1,0
11763,363.636363636364,4,2,1,20,1,0
12126,352.941176470588,4,2,1,20,1,0
13008,375,4,2,1,20,1,0
13195,350.877192982456,4,2,1,20,1,0
14949,346.820809248555,4,2,1,20,1,0
15816,365.853658536585,4,2,1,20,1,0
16364,348.837209302326,4,2,1,50,1,0
17584,-100,4,2,1,60,0,0
17759,352.941176470588,4,2,1,60,1,0
20934,-100,4,2,1,40,0,0
21288,-100,4,2,1,50,0,0
21464,-100,4,2,1,55,0,0
21641,-100,4,2,1,60,0,0
23416,352.941176470588,4,2,1,40,1,0
24111,-100,4,2,1,40,0,0
32945,333.333333333333,4,2,1,40,1,0
33278,357.142857142857,4,2,1,40,1,0
34346,-100,4,2,0,40,0,0
34700,352.941176470588,4,2,1,50,1,0
34700,-100,4,2,1,50,0,0
35052,-100,4,2,4,50,0,0
40170,-100,4,2,1,50,0,0
40700,-100,4,2,4,50,0,0
42640,-100,4,2,1,50,0,0
43170,-100,4,2,1,60,0,0
52347,-100,4,2,2,60,0,0
54464,-100,4,2,1,60,0,0
56934,-100,4,2,3,60,0,0
57288,-100,4,2,1,60,0,0
57640,-100,4,2,1,50,0,0
57817,-100,4,2,1,55,0,0
58169,-100,4,2,1,65,0,0
58523,-100,4,2,1,70,0,0
59229,-100,4,2,1,60,0,0
59758,-100,4,2,1,70,0,0
60111,-100,4,2,2,70,0,0
60463,-100,4,2,1,70,0,0
70700,-100,4,2,2,70,0,0
70876,-100,4,2,1,60,0,0
71053,-100,4,2,1,70,0,0
71229,-100,4,2,1,60,0,0
71406,-100,4,2,1,70,0,0
81994,-100,4,2,2,70,0,0
82170,-100,4,2,1,60,0,0
82347,-100,4,2,1,70,0,0
82523,-100,4,2,1,60,0,0
82700,-100,4,2,1,70,0,0
92582,-100,4,2,2,70,0,0
92934,-100,4,2,1,70,0,0
93288,-100,4,2,1,60,0,0
93552,-100,4,2,1,55,0,0
93817,-100,4,2,1,45,0,0
93994,-100,4,2,1,60,0,0
98229,-100,4,2,1,70,0,0
98758,-100,4,2,3,70,0,0
99641,-100,4,2,1,60,0,0
100347,-100,4,2,2,60,0,0
102464,-100,4,2,1,50,0,0
108111,348.837209302326,4,2,1,50,1,0
109506,352.941176470588,4,2,1,50,1,0
110211,359.281437125748,4,2,1,50,1,0
110929,352.941176470588,4,2,1,60,1,0
111281,-100,4,2,1,50,0,0
116928,-100,4,2,2,50,0,0
130164,-100,4,2,2,60,0,0
130517,-100,4,2,1,60,0,0
132458,-100,4,2,1,55,0,0
132811,-100,4,2,1,50,0,0
133164,-100,4,2,1,45,0,0
136693,-100,4,2,1,60,0,0
137399,-100,4,2,2,60,0,0
137928,-100,4,2,1,60,0,0
141281,-100,4,2,1,50,0,0
141634,-100,4,2,1,60,0,0
144457,-100,4,2,3,60,0,0
145163,-100,4,2,3,50,0,0
145340,-100,4,2,1,55,0,0
145692,-100,4,2,1,65,0,0
146046,-100,4,2,1,70,0,0
146752,-100,4,2,1,60,0,0
147281,-100,4,2,1,70,0,0
147634,-100,4,2,1,60,0,0
147986,-100,4,2,1,70,0,0
157163,-100,4,2,3,70,0,0
157517,-100,4,2,1,70,0,0
158223,-100,4,2,2,70,0,0
158487,-100,4,2,1,70,0,0
158752,-100,4,2,1,55,0,0
158928,-100,4,2,1,60,0,0
162987,-100,4,2,3,60,0,0
163693,-100,4,2,3,70,0,0
164046,344.827586206897,4,2,3,70,1,0
164563,352.941176470588,4,2,3,70,1,0
168798,357.142857142857,4,2,1,60,1,0
169327,-100,4,2,1,40,0,0
169504,-100,4,2,1,50,0,0
169857,-100,4,2,1,60,0,0
170226,352.941176470588,4,2,3,40,1,0
178343,346.820809248555,4,2,1,60,1,0
178689,352.941176470588,4,2,1,60,1,0
180277,-99.009900990099,4,2,1,60,0,0
180453,348.837209302326,4,2,1,60,1,0
180620,-100,4,2,1,45,0,0
180798,-100,4,2,1,50,0,0
180974,-100,4,2,1,55,0,0
181150,-100,4,2,1,60,0,0
181512,352.941176470588,4,2,1,60,1,0
181856,-100,4,2,1,40,0,0
182210,-100,4,2,1,60,0,0
182386,-100,4,2,1,40,0,0
182562,-100,4,2,1,60,0,0
182738,-100,4,2,1,40,0,0
182915,-100,4,2,1,60,0,0
183445,-100,4,2,1,40,0,0
183798,-100,4,2,1,60,0,0
184150,-100,4,2,1,40,0,0
184679,-100,4,2,1,60,0,0
184857,-100,4,2,1,40,0,0
185033,-100,4,2,1,60,0,0
185563,-100,4,2,1,40,0,0
185915,-100,4,2,1,60,0,0
186445,-100,4,2,1,50,0,0
186798,-100,4,2,1,60,0,0
193150,-100,4,2,3,70,0,0
194739,-99.009900990099,4,2,1,55,0,0
194924,348.837209302326,4,2,1,55,1,0
195268,-99.009900990099,4,2,1,65,0,0
195621,352.941176470588,4,2,1,65,1,0
198445,357.142857142857,4,2,1,65,1,0
199873,352.941176470588,4,2,1,65,1,0
204108,348.837209302326,4,2,1,65,1,0
205503,352.941176470588,4,2,1,50,1,0
205679,-100,4,2,3,50,0,0
206031,-100,4,2,1,50,0,0
206208,361.44578313253,4,2,1,60,1,0
206810,315.789473684211,4,2,1,60,1,0
206915,352.941176470588,4,2,1,70,1,0
207620,-100,4,2,2,70,0,0
212385,-100,4,2,1,70,0,0
218737,-100,4,2,1,60,0,0
218915,-100,4,2,2,60,0,0
220679,-100,4,2,3,60,0,0
221385,-100,4,2,3,40,0,0
221561,-100,4,2,1,40,0,0
221738,-100,4,2,1,45,0,0
223502,-100,4,2,1,70,0,0
235150,-100,4,2,3,40,0,0
239737,-100,4,2,3,50,0,0
240091,-100,4,2,1,50,0,0
241149,-100,4,2,1,40,0,0
241678,-100,4,2,1,45,0,0
241856,-100,4,2,1,50,0,0
242209,-100,4,2,1,55,0,0
242562,-100,4,2,1,60,0,0
245032,-100,4,2,1,70,0,0
245208,-100,4,2,1,60,0,0
245738,-100,4,2,1,70,0,0
246444,-100,4,2,1,60,0,0
246796,-100,4,2,1,70,0,0
256326,-100,4,2,2,70,0,0
256679,-100,4,2,1,70,0,0
257032,-100,4,2,1,60,0,0
257296,-100,4,2,1,55,0,0
257561,-100,4,2,1,45,0,0
257738,-100,4,2,1,60,0,0
261973,-100,4,2,1,70,0,0
262503,-100,4,2,3,70,0,0
263385,-100,4,2,1,60,0,0
264091,-100,4,2,2,60,0,0
266209,-100,4,2,1,40,0,0
267620,-100,4,2,1,50,0,0
268679,-100,4,2,1,60,0,0

[Colours]
Combo1 : 192,129,129
Combo2 : 189,189,123

[HitObjects]
162,110,16364,5,14,1:2:0:0:
70,70,16712,1,14,1:2:0:0:
3,145,17061,1,2,1:2:0:0:
54,232,17410,2,0,P|56:256|53:281,1,50,10|8,1:2|2:0,2:0:0:0:
33,328,17759,6,0,P|83:324|133:319,1,99.9999999999999,4|0,1:0|1:0,2:0:0:0:
169,285,18288,2,0,P|243:292|318:298,1,150,2|2,2:0|1:2,2:0:0:0:
415,321,19170,1,0,1:0:0:0:
415,321,19347,2,0,P|428:273|419:224,1,99.9999999999999,2|0,2:0|2:0,2:0:0:0:
381,192,19876,2,0,P|356:194|331:196,2,50,2|8|2,1:2|2:0|1:2,2:0:0:0:
416,98,20582,6,0,P|366:94|316:89,1,99.9999999999999,4|8,1:0|1:2,2:0:0:0:
229,38,21288,2,0,L|176:60,1,49.9999999999999,8|8,1:2|2:0,2:0:0:0:
129,50,21641,2,0,L|67:42,1,49.9999999999999,8|8,1:2|2:0,2:0:0:0:
33,62,21994,1,4,1:0:0:0:
404,361,23416,6,0,P|399:312|397:262,1,99.9999999999999,0|0,2:0|2:0,2:0:0:0:
440,171,24121,2,0,P|380:129|309:146,1,150,2|2,2:0|2:0,2:0:0:0:
267,172,24827,1,2,2:0:0:0:
170,145,25180,1,2,2:0:0:0:
170,145,25357,2,0,P|173:95|177:45,2,99.9999999999999,2|2|2,2:0|2:0|2:0,2:0:0:0:
146,188,26239,6,0,P|76:193|59:261,1,150,0|0,2:0|2:0,2:0:0:0:
131,330,27121,2,0,L|122:386,2,50,2|2|2,2:0|2:0|2:0,2:0:0:0:
174,304,27651,2,0,L|273:316,1,99.9999999999999,0|0,2:0|2:0,2:0:0:0:
362,270,28357,1,2,2:0:0:0:
461,258,28710,1,2,2:0:0:0:
434,164,29063,6,0,P|430:114|434:64,1,99.9999999999999,0|0,2:0|2:0,2:0:0:0:
400,27,29592,1,2,2:0:0:0:
318,84,29945,2,0,P|268:83|227:57,1,99.9999999999999,2|2,2:0|2:0,2:0:0:0:
198,15,30474,2,0,P|148:16|107:42,1,99.9999999999999,2|2,2:0|2:0,2:0:0:0:
76,82,31004,1,2,2:0:0:0:
145,154,31357,1,2,2:0:0:0:
73,224,31710,1,2,2:0:0:0:
72,224,31886,6,0,P|143:211|203:254,1,150,2|2,2:0|2:0,2:0:0:0:
231,295,32592,2,0,L|330:288,1,99.9999999999999,2|0,2:0|2:0,2:0:0:0:
400,359,33278,1,2,2:0:0:0:
488,180,33992,2,0,P|499:131|484:84,1,99.9999999999999,2|6,2:0|2:0,2:0:0:0:
404,23,34700,6,0,L|304:26,1,99.9999999999999,4|2,2:0|3:2,2:0:0:0:
304,127,35406,2,0,L|204:130,1,99.9999999999999,2|2,3:2|3:2,2:0:0:0:
156,219,36111,1,0,3:0:0:0:
31,61,36817,2,0,P|82:11|154:21,1,150,2|2,3:2|2:0,2:0:0:0:
204,30,37523,6,0,L|303:26,1,99.9999999999999,2|2,3:2|3:2,2:0:0:0:
347,51,38053,2,0,P|358:99|348:148,1,99.9999999999999,2|2,2:0|2:0,2:0:0:0:
320,189,38582,1,2,3:2:0:0:
342,286,38935,2,0,L|192:280,1,150,0|0,3:0|2:0,2:0:0:0:
145,297,39641,1,2,3:2:0:0:
79,221,39994,2,0,P|82:196|80:171,1,50,2|2,3:2|2:0,2:0:0:0:
46,133,40347,5,0,1:0:0:0:
122,69,40700,1,2,3:2:0:0:
208,118,41053,2,0,P|257:111|306:100,1,99.9999999999999,0|2,3:0|3:2,2:0:0:0:
403,76,41758,2,0,P|400:125|398:175,1,99.9999999999999,2|6,3:2|3:2,2:0:0:0:
381,222,42288,2,0,P|429:216|472:241,2,99.9999999999999,2|10|10,2:0|2:0|2:0,2:0:0:0:
340,252,43170,6,0,L|342:301,2,50,4|2|10,1:2|1:2|2:0,2:0:0:0:
295,161,43876,2,0,L|228:176,1,50,0|0,1:0|1:0,2:0:0:0:
196,169,44229,1,10,2:0:0:0:
185,263,44582,2,0,P|161:259|137:251,1,50,2|0,1:2|1:0,2:0:0:0:
92,230,44935,2,0,P|92:279|85:329,2,99.9999999999999,10|2|10,2:0|1:2|1:2,2:0:0:0:
40,145,45994,6,0,P|39:95|46:45,1,99.9999999999999,6|10,1:2|2:0,2:0:0:0:
87,20,46523,2,0,P|136:19|186:26,1,99.9999999999999,0|2,1:0|1:2,2:0:0:0:
228,51,47053,1,10,2:0:0:0:
169,130,47406,2,0,P|167:155|168:180,1,50,0|0,1:0|1:0,2:0:0:0:
196,222,47758,1,8,2:0:0:0:
282,172,48111,2,0,P|353:164|395:222,1,150,2|2,1:2|1:2,2:0:0:0:
422,264,48817,6,0,L|322:273,1,99.9999999999999,2|10,1:2|2:0,2:0:0:0:
292,314,49347,2,0,L|192:304,1,99.9999999999999,2|2,1:2|1:2,2:0:0:0:
149,278,49876,1,10,2:0:0:0:
66,334,50229,2,0,P|50:262|86:199,1,150,0|0,1:0|1:0,2:0:0:0:
132,178,50935,2,0,L|128:128,2,50,2|8|4,1:2|2:3|1:3,2:0:0:0:
233,198,51641,6,0,B|322:182|287:232|378:213,1,150,4|0,1:0|1:0,2:0:0:0:
414,179,52347,1,10,3:2:0:0:
333,52,52876,2,0,L|335:2,2,50,8|2|8,2:0|1:2|2:0,2:0:0:0:
244,99,53582,1,0,1:0:0:0:
244,98,53758,2,0,P|195:108|146:96,1,99.9999999999999,10|10,3:2|3:2,2:0:0:0:
54,56,54464,6,0,L|47:155,1,99.9999999999999,4|8,1:0|2:0,2:0:0:0:
118,226,55170,2,0,L|111:325,1,99.9999999999999,2|8,1:2|2:0,2:0:0:0:
207,355,55876,1,2,1:2:0:0:
295,307,56229,1,8,2:0:0:0:
381,356,56582,2,0,P|393:309|382:261,1,99.9999999999999,0|14,1:0|2:0,2:0:0:0:
339,170,57288,6,0,L|438:162,1,99.9999999999999,6|10,1:2|1:2,2:0:0:0:
486,176,57817,2,0,P|498:128|487:80,1,99.9999999999999,10|10,2:0|2:0,2:0:0:0:
404,23,58523,2,0,L|254:34,1,150,10|10,2:0|1:2,2:0:0:0:
218,69,59229,2,0,L|118:61,1,99.9999999999999,10|8,2:0|2:0,2:0:0:0:
70,44,59758,1,10,1:2:0:0:
29,134,60111,6,0,P|25:184|41:231,1,99.9999999999999,4|10,1:0|2:0,2:0:0:0:
83,259,60641,2,0,L|182:250,1,99.9999999999999,2|0,1:2|1:0,2:0:0:0:
221,217,61170,1,10,2:0:0:0:
292,286,61523,2,0,L|391:294,1,99.9999999999999,2|10,1:2|2:0,2:0:0:0:
441,300,62053,2,0,P|456:252|453:203,1,99.9999999999999,2|0,1:2|1:0,2:0:0:0:
429,159,62582,1,10,2:0:0:0:
369,78,62935,6,0,L|219:85,1,150,2|2,1:2|1:2,2:0:0:0:
169,87,63641,2,0,P|166:62|168:37,2,50,0|0|8,1:0|1:0|2:0,2:0:0:0:
198,182,64347,2,0,P|203:231|198:281,1,99.9999999999999,2|8,1:2|2:0,2:0:0:0:
175,325,64876,1,2,1:2:0:0:
195,370,65053,2,0,L|294:366,1,99.9999999999999,2|10,1:2|2:0,2:0:0:0:
388,331,65758,6,0,P|398:282|386:233,1,99.9999999999999,6|10,1:2|2:0,2:0:0:0:
351,198,66288,1,2,1:2:0:0:
409,116,66641,2,0,L|458:117,2,50,2|10|2,1:2|2:0|1:2,2:0:0:0:
375,79,67170,2,0,L|275:82,1,99.9999999999999,0|10,1:0|2:0,2:0:0:0:
239,118,67700,1,2,1:2:0:0:
139,109,68053,2,0,P|136:158|126:207,1,99.9999999999999,2|2,1:2|1:2,2:0:0:0:
89,241,68582,6,0,P|91:290|101:339,1,99.9999999999999,2|8,1:2|2:0,2:0:0:0:
147,359,69111,1,2,1:2:0:0:
192,339,69288,2,0,L|291:343,1,99.9999999999999,2|8,1:2|2:0,2:0:0:0:
386,308,69994,1,6,1:2:0:0:
326,227,70347,1,10,2:0:0:0:
413,176,70700,2,0,P|416:152|413:127,1,50,14|8,1:2|2:0,2:0:0:0:
373,96,71053,2,0,P|348:92|323:95,1,50,10|8,1:2|2:0,2:0:0:0:
274,112,71406,6,0,P|226:121|180:103,1,99.9999999999999,4|10,1:0|2:0,2:0:0:0:
136,80,71935,1,2,1:2:0:0:
88,168,72288,1,2,1:2:0:0:
162,235,72641,1,2,1:2:0:0:
162,235,72817,2,0,P|158:284|156:334,1,99.9999999999999,0|10,1:0|2:0,2:0:0:0:
198,363,73347,1,2,1:2:0:0:
243,342,73523,2,0,L|292:339,2,50,0|0|8,1:0|1:0|2:0,2:0:0:0:
263,243,74229,6,0,L|362:237,1,99.9999999999999,2|10,1:2|2:0,2:0:0:0:
406,211,74758,2,0,P|413:162|401:114,1,99.9999999999999,2|2,1:2|1:2,2:0:0:0:
331,43,75464,2,0,L|231:48,1,99.9999999999999,2|2,1:2|1:2,2:0:0:0:
197,85,75994,1,10,2:0:0:0:
161,120,76170,2,0,L|62:115,1,99.9999999999999,2|0,1:2|1:0,2:0:0:0:
20,143,76700,1,8,2:0:0:0:
83,220,77053,6,0,P|82:269|81:319,1,99.9999999999999,4|10,1:2|2:0,2:0:0:0:
111,359,77582,2,0,P|158:373|205:359,1,99.9999999999999,2|2,1:2|1:2,2:0:0:0:
240,323,78111,1,10,2:0:0:0:
339,327,78464,2,0,L|341:376,2,50,0|0|8,1:0|1:0|2:0,2:0:0:0:
420,268,79170,2,0,P|452:286|489:288,2,74.9999999999999,2|2|2,1:2|2:0|1:2,2:0:0:0:
410,218,79876,6,0,P|365:240|317:231,1,99.9999999999999,2|8,1:2|2:0,2:0:0:0:
277,202,80406,1,2,2:0:0:0:
243,165,80582,2,0,L|143:176,1,99.9999999999999,2|12,1:2|2:0,2:0:0:0:
46,153,81288,1,8,1:2:0:0:
11,60,81641,1,8,1:3:0:0:
104,22,81994,2,0,L|153:25,1,50,14|8,1:2|2:0,2:0:0:0:
191,58,82347,2,0,L|240:54,1,50,10|8,1:2|2:0,2:0:0:0:
276,18,82700,6,0,P|325:19|363:49,1,99.9999999999999,4|10,1:0|2:0,2:0:0:0:
383,95,83229,2,0,P|380:144|378:194,1,99.9999999999999,0|0,1:0|1:0,2:0:0:0:
399,240,83758,1,10,2:0:0:0:
321,302,84111,2,0,P|271:303|228:280,1,99.9999999999999,2|10,1:2|2:0,2:0:0:0:
218,230,84641,2,0,P|168:229|125:252,1,99.9999999999999,2|0,1:2|1:0,2:0:0:0:
92,290,85170,1,10,2:0:0:0:
15,225,85523,6,0,P|26:174|26:104,1,99.9999999999999,2|8,1:2|2:0,2:0:0:0:
5,81,86053,1,2,1:2:0:0:
35,40,86229,2,0,P|75:32|133:50,1,99.9999999999999,0|8,1:0|2:0,2:0:0:0:
189,130,86935,2,0,P|229:100|278:94,1,99.9999999999999,2|8,1:2|2:0,2:0:0:0:
324,114,87464,1,2,1:2:0:0:
368,136,87641,2,0,P|405:132|442:129,2,74.9999999999999,2|2|10,1:2|2:0|2:0,2:0:0:0:
352,192,88347,6,0,P|357:241|342:288,1,99.9999999999999,6|8,1:2|2:0,2:0:0:0:
242,297,89053,2,0,P|228:262|227:224,2,74.9999999999999,2|2|2,1:2|2:0|1:2,2:0:0:0:
216,340,89758,2,0,L|116:344,1,99.9999999999999,2|10,1:2|2:0,2:0:0:0:
68,359,90288,1,2,1:2:0:0:
28,267,90641,2,0,P|22:218|42:173,1,99.9999999999999,2|2,1:2|1:2,2:0:0:0:
80,140,91170,6,0,P|129:145|174:125,1,99.9999999999999,6|8,1:2|2:0,2:0:0:0:
216,97,91700,1,2,1:2:0:0:
257,68,91876,2,0,L|260:167,1,99.9999999999999,2|8,1:2|2:0,2:0:0:0:
337,231,92582,2,0,P|361:230|386:232,2,50,12|0|8,2:0|1:0|2:0,2:0:0:0:
250,282,93288,2,0,P|256:320|255:357,2,74.9999999999999,10|8|4,1:2|2:3|2:3,2:0:0:0:
218,244,93994,6,0,P|169:257|121:268,1,99.9999999999999,4|2,1:0|1:2,2:0:0:0:
77,293,94523,1,2,2:0:0:0:
49,196,94876,1,2,2:0:0:0:
97,108,95229,1,2,2:0:0:0:
96,108,95406,2,0,P|145:98|193:109,1,99.9999999999999,0|0,1:0|1:0,2:0:0:0:
292,94,96111,2,0,P|287:56|287:19,2,74.9999999999999,2|2|2,1:2|2:0|2:0,2:0:0:0:
325,131,96817,6,0,P|374:136|424:143,1,99.9999999999999,2|2,1:2|1:2,2:0:0:0:
461,177,97347,1,2,2:0:0:0:
432,272,97700,1,2,2:0:0:0:
394,364,98053,1,2,2:0:0:0:
394,364,98229,2,0,P|344:360|294:358,1,99.9999999999999,14|2,2:0|1:2,2:0:0:0:
254,327,98758,1,14,2:0:0:0:
154,334,99111,2,0,P|148:284|158:235,1,99.9999999999999,14|10,2:0|2:0,2:0:0:0:
187,194,99641,6,0,P|134:144|62:153,1,150,4|0,1:0|1:0,2:0:0:0:
18,178,100347,1,8,3:2:0:0:
189,75,101053,2,0,P|241:25|313:34,1,150,2|0,1:2|1:0,2:0:0:0:
358,59,101758,1,10,3:2:0:0:
405,146,102111,1,10,3:2:0:0:
455,233,102464,5,2,2:0:0:0:
455,233,104935,2,0,L|452:282,1,50,10|10,2:0|2:0,2:0:0:0:
413,314,105288,5,4,1:0:0:0:
138,311,110929,6,0,P|180:286|229:290,1,99.9999999999999,4|8,1:0|2:0,2:0:0:0:
273,315,111458,1,2,1:2:0:0:
316,339,111634,2,0,P|321:264|324:189,1,150,2|2,1:2|1:2,2:0:0:0:
355,150,112340,1,2,1:2:0:0:
299,66,112693,1,10,2:0:0:0:
299,66,112870,2,0,P|345:48|393:56,2,99.9999999999999,2|2|2,1:2|2:0|1:2,2:0:0:0:
258,95,113752,6,0,P|185:105|126:62,1,150,0|0,1:0|1:0,2:0:0:0:
54,132,114634,2,0,P|58:157|58:182,1,49.9999999999999,2|10,1:2|2:0,2:0:0:0:
37,227,114987,1,2,1:2:0:0:
62,269,115164,2,0,P|112:262|162:257,1,99.9999999999999,0|8,1:0|2:0,2:0:0:0:
226,334,115870,1,2,1:2:0:0:
321,305,116223,1,10,2:0:0:0:
417,331,116576,6,0,B|437:294|437:294|425:237,1,99.9999999999999,0|8,1:0|2:0,2:0:0:0:
398,140,117281,2,0,P|435:134|472:129,2,74.9999999999999,2|2|2,1:2|2:0|1:2,2:0:0:0:
349,152,117987,2,0,P|350:102|333:55,1,99.9999999999999,2|10,1:2|2:0,2:0:0:0:
297,21,118517,1,2,1:2:0:0:
198,39,118870,1,2,1:2:0:0:
99,57,119223,1,2,1:2:0:0:
99,56,119399,6,0,P|99:131|102:206,1,150,2|2,2:0|1:2,2:0:0:0:
125,251,120105,2,0,P|100:255|75:259,2,50,2|0|8,1:2|1:0|2:0,2:0:0:0:
221,223,120811,1,2,1:2:0:0:
310,267,121164,1,10,2:0:0:0:
395,214,121517,2,0,P|410:261|400:309,1,99.9999999999999,2|10,1:2|2:0,2:0:0:0:
325,376,122223,5,0,1:0:0:0:
225,362,122576,1,10,2:0:0:0:
125,348,122928,2,0,P|116:298|122:249,1,99.9999999999999,2|10,1:2|2:0,2:0:0:0:
215,211,123634,2,0,P|220:161|212:112,1,99.9999999999999,0|8,1:0|2:0,2:0:0:0:
144,37,124340,2,0,B|190:61|190:61|286:44,1,150,2|2,1:2|1:2,2:0:0:0:
328,17,125046,6,0,P|321:66|333:114,1,99.9999999999999,2|10,1:2|2:0,2:0:0:0:
368,150,125576,2,0,L|467:146,1,99.9999999999999,2|2,1:2|1:2,2:0:0:0:
500,184,126105,1,10,2:0:0:0:
470,279,126458,2,0,P|471:303|475:328,2,50,0|0|8,1:0|1:0|2:0,2:0:0:0:
370,276,127164,2,0,L|270:279,1,99.9999999999999,2|10,1:2|3:2,2:0:0:0:
225,304,127693,1,2,2:0:0:0:
177,289,127870,6,0,P|165:240|171:191,1,99.9999999999999,0|10,1:0|2:0,2:0:0:0:
228,108,128576,2,0,P|229:83|226:58,2,49.9999999999999,0|0|10,1:0|1:0|2:0,2:0:0:0:
308,167,129281,2,0,P|356:155|405:161,1,99.9999999999999,2|10,1:2|2:0,2:0:0:0:
442,194,129811,1,2,1:2:0:0:
482,285,130164,1,2,1:2:0:0:
398,339,130517,6,0,P|348:337|298:333,1,99.9999999999999,2|2,2:0|1:2,2:0:0:0:
264,296,131046,1,10,2:0:0:0:
168,329,131399,2,0,P|167:353|170:378,2,49.9999999999999,0|0|10,1:0|1:0|2:0,2:0:0:0:
172,228,132105,1,6,1:2:0:0:
72,241,132458,1,2,1:2:0:0:
28,150,132811,1,2,1:2:0:0:
101,80,133164,1,2,1:2:0:0:
190,127,133517,6,0,P|239:122|288:113,1,99.9999999999999,6|10,1:2|2:0,2:0:0:0:
333,90,134046,2,0,L|329:189,1,99.9999999999999,2|2,1:2|1:2,2:0:0:0:
358,230,134576,1,10,2:0:0:0:
288,301,134928,2,0,P|239:313|191:302,1,99.9999999999999,0|8,1:0|2:0,2:0:0:0:
149,273,135458,1,2,1:2:0:0:
105,243,135634,2,0,L|112:93,1,150,2|2,1:2|2:0,2:0:0:0:
138,49,136340,5,6,1:2:0:0:
241,46,136693,1,10,2:0:0:0:
241,46,136870,2,0,P|290:40|335:59,1,99.9999999999999,2|2,1:2|1:2,2:0:0:0:
384,70,137399,1,14,2:0:0:0:
337,158,137752,2,0,L|334:207,1,49.9999999999999,8|8,1:2|2:0,2:0:0:0:
377,232,138105,2,0,L|379:281,1,49.9999999999999,0|8,1:0|2:3,2:0:0:0:
345,318,138458,2,0,P|301:297|251:295,1,99.9999999999999,2|2,1:2|1:2,2:0:0:0:
171,354,139164,5,6,1:2:0:0:
68,182,139870,1,6,2:0:0:0:
240,79,140576,1,6,2:0:0:0:
343,251,141281,1,2,2:0:0:0:
248,284,141634,2,0,P|245:259|245:234,1,49.9999999999999,10|8,2:0|2:0,2:0:0:0:
265,188,141987,6,0,P|196:213|132:180,1,150,4|2,1:0|1:2,2:0:0:0:
98,143,142693,1,2,1:2:0:0:
16,200,143046,1,8,2:0:0:0:
64,287,143399,2,0,L|61:336,2,49.9999999999999,2|0|8,1:2|1:0|2:0,2:0:0:0:
160,317,144105,2,0,L|156:366,2,49.9999999999999,0|0|14,1:0|1:0|2:0,2:0:0:0:
240,257,144811,6,0,B|304:251|304:251|334:269,1,99.9999999999999,6|10,1:2|1:2,2:0:0:0:
377,296,145340,2,0,L|382:196,1,99.9999999999999,10|10,2:0|2:0,2:0:0:0:
399,97,146046,1,10,2:0:0:0:
398,97,146223,2,0,P|349:104|300:98,1,99.9999999999999,12|10,1:2|1:2,2:0:0:0:
269,58,146752,2,0,P|219:51|170:59,1,99.9999999999999,10|8,2:0|2:0,2:0:0:0:
152,106,147281,1,10,1:2:0:0:
204,191,147634,6,0,B|225:228|225:228|218:285,1,99.9999999999999,4|10,1:0|2:0,2:0:0:0:
239,330,148164,2,0,L|139:325,1,99.9999999999999,0|0,1:2|1:0,2:0:0:0:
98,355,148693,1,10,2:0:0:0:
17,296,149046,2,0,P|12:246|31:201,1,99.9999999999999,2|10,1:2|2:0,2:0:0:0:
24,151,149576,2,0,P|69:131|118:134,1,99.9999999999999,2|0,1:2|1:0,2:0:0:0:
156,102,150105,1,10,2:0:0:0:
240,155,150458,6,0,B|291:164|291:164|337:152,1,99.9999999999999,2|8,1:2|2:0,2:0:0:0:
383,130,150987,1,2,1:2:0:0:
431,143,151164,2,0,P|427:192|425:242,1,99.9999999999999,2|8,1:2|2:0,2:0:0:0:
379,332,151870,2,0,P|330:336|283:320,1,99.9999999999999,2|8,1:2|2:0,2:0:0:0:
188,290,152576,2,0,L|183:364,2,74.9999999999999,2|2|2,1:2|2:0|1:2,2:0:0:0:
176,241,153281,6,0,P|127:248|82:226,1,99.9999999999999,6|8,1:2|2:0,2:0:0:0:
63,180,153811,1,2,1:2:0:0:
77,131,153987,2,0,P|72:94|55:61,2,74.9999999999999,2|2|2,1:2|2:0|1:2,2:0:0:0:
127,133,154693,2,0,P|176:125|225:116,1,99.9999999999999,2|10,1:2|2:0,2:0:0:0:
268,89,155223,1,2,1:2:0:0:
353,140,155576,2,0,P|350:189|347:239,1,99.9999999999999,2|2,1:2|1:2,2:0:0:0:
359,288,156105,6,0,P|309:284|259:282,1,99.9999999999999,2|8,1:2|2:0,2:0:0:0:
245,330,156634,1,2,1:2:0:0:
216,371,156811,2,0,P|166:373|116:376,1,99.9999999999999,2|12,1:2|2:0,2:0:0:0:
69,288,157517,2,0,P|65:263|68:238,1,50,12|0,2:0|1:0,2:0:0:0:
110,211,157870,2,0,P|113:186|109:161,1,50,8|0,2:0|1:0,2:0:0:0:
89,115,158223,2,0,P|54:129|17:134,2,74.9999999999999,14|10|6,2:0|2:0|2:3,2:0:0:0:
128,84,158928,6,0,P|177:76|220:99,1,99.9999999999999,4|2,1:0|1:2,2:0:0:0:
260,130,159458,1,2,2:0:0:0:
355,100,159811,1,2,2:0:0:0:
443,145,160164,1,2,2:0:0:0:
443,145,160340,2,0,P|439:194|435:244,1,99.9999999999999,0|0,1:0|1:0,2:0:0:0:
396,276,160870,1,2,2:0:0:0:
345,273,161046,2,0,P|341:235|339:198,2,74.9999999999999,2|2|2,1:2|2:0|2:0,2:0:0:0:
310,308,161752,6,0,P|262:323|215:309,1,99.9999999999999,2|2,1:2|1:2,2:0:0:0:
172,283,162281,1,2,2:0:0:0:
81,326,162634,1,2,2:0:0:0:
14,251,162987,1,2,2:0:0:0:
14,251,163164,2,0,P|20:201|27:151,1,99.9999999999999,14|2,2:0|1:2,2:0:0:0:
22,101,163693,1,14,2:0:0:0:
117,128,164046,2,0,P|166:118|209:92,1,99.9999999999999,14|10,2:0|2:0,2:0:0:0:
230,47,164563,5,4,1:0:0:0:
322,84,164915,1,8,2:0:0:0:
414,121,165268,2,0,L|463:118,2,50,0|0|8,1:0|1:0|2:0,2:0:0:0:
358,204,165974,1,2,1:2:0:0:
407,290,166327,1,8,2:0:0:0:
327,349,166680,2,0,P|277:344|236:316,1,99.9999999999999,2|10,1:2|2:0,2:0:0:0:
197,224,167386,6,0,P|147:229|106:257,1,99.9999999999999,6|10,1:2|2:0,2:0:0:0:
73,294,167915,1,2,1:2:0:0:
17,211,168268,2,0,P|21:161|27:111,1,99.9999999999999,2|2,1:2|1:2,2:0:0:0:
10,64,168798,2,0,P|81:78|137:33,1,150,14|10,1:2|2:0,2:0:0:0:
184,14,169512,1,10,1:2:0:0:
243,94,169869,2,0,L|236:143,1,50,10|10,1:2|2:0,2:0:0:0:
232,193,170226,5,4,1:0:0:0:
371,51,178689,5,4,1:0:0:0:
370,50,178865,2,0,P|400:90|400:139,1,99.9999999999999,0|2,1:0|1:2,2:0:0:0:
380,186,179394,1,10,2:0:0:0:
288,146,179747,2,0,L|238:151,1,49.9999999999999,8|2,2:0|1:2,2:0:0:0:
189,139,180100,1,10,2:0:0:0:
152,172,180277,2,0,P|147:221|158:270,1,99.9999999999999,0|2,1:0|1:2,2:0:0:0:
192,307,180801,2,0,P|195:331|194:356,2,49.9999999999999,8|10|10,1:2|2:0|1:2,2:0:0:0:
274,250,181512,6,0,P|319:269|367:257,1,99.9999999999999,4|8,1:0|1:2,2:0:0:0:
408,229,182041,1,10,2:0:0:0:
439,190,182217,2,0,L|435:140,1,49.9999999999999,10|10,1:2|2:0,2:0:0:0:
407,98,182570,2,0,L|357:101,1,49.9999999999999,10|10,1:2|2:0,2:0:0:0:
314,127,182923,2,0,L|214:120,1,99.9999999999999,10|10,1:2|1:2,2:0:0:0:
167,138,183452,1,10,2:0:0:0:
78,89,183806,2,0,P|65:136|78:184,1,99.9999999999999,10|10,2:0|2:0,2:0:0:0:
107,225,184335,6,0,P|119:272|106:320,1,99.9999999999999,14|8,1:2|1:2,2:0:0:0:
138,358,184864,1,10,2:0:0:0:
185,342,185041,2,0,L|284:347,1,99.9999999999999,10|10,1:2|1:2,2:0:0:0:
326,320,185570,1,10,2:0:0:0:
360,282,185747,2,0,P|362:258|361:233,2,50,14|8|8,1:2|2:0|1:2,2:0:0:0:
269,240,186452,2,0,P|267:215|270:190,1,50,2|10,1:2|2:0,2:0:0:0:
288,143,186805,1,10,1:2:0:0:
252,107,186982,6,0,P|204:93|156:103,1,99.9999999999999,10|2,2:0|1:2,2:0:0:0:
80,169,187687,2,0,L|81:218,1,50,2|2,1:2|1:2,2:0:0:0:
124,245,188040,2,0,L|122:294,1,50,2|10,1:2|2:0,2:0:0:0:
155,332,188394,2,0,P|201:347|249:336,1,99.9999999999999,2|2,1:2|1:2,2:0:0:0:
329,276,189099,1,0,1:0:0:0:
329,276,189276,2,0,P|326:201|322:126,1,150,2|2,1:2|1:2,2:0:0:0:
316,75,189982,6,0,P|269:93|221:85,1,99.9999999999999,2|8,1:2|2:0,2:0:0:0:
175,64,190511,1,2,1:2:0:0:
127,42,190688,2,0,P|124:91|121:141,1,99.9999999999999,2|8,1:2|2:0,2:0:0:0:
76,231,191393,2,0,P|82:254|87:279,1,50,2|0,1:2|1:0,2:0:0:0:
131,304,191746,2,0,P|154:297|179:292,1,50,8|0,2:0|1:0,2:0:0:0:
221,264,192100,2,0,P|214:240|209:215,2,50,0|0|14,1:0|1:0|2:0,2:0:0:0:
298,327,192806,6,0,P|347:318|396:309,1,99.9999999999999,4|14,1:0|2:0,2:0:0:0:
446,309,193334,1,2,3:2:0:0:
483,216,193687,1,2,1:2:0:0:
396,165,194040,1,2,2:0:0:0:
396,165,194217,2,0,P|346:173|297:182,1,99.9999999999999,0|10,1:0|1:2,2:0:0:0:
258,149,194747,2,0,P|199:136|146:146,1,101,10|8,2:0|2:0,2:0:0:0:
121,172,195272,1,8,1:2:0:0:
43,108,195621,1,4,1:0:0:0:
209,152,205503,6,0,L|258:146,1,50,2|8,1:2|2:0,2:0:0:0:
299,117,205855,2,0,L|348:122,1,50,8|8,1:2|2:0,2:0:0:0:
398,130,206208,2,0,P|421:96|486:108,1,99.9999999999999,10|4,1:2|2:3,2:0:0:0:
466,202,206915,1,4,1:0:0:0:
466,202,207091,2,0,P|473:251|462:299,1,99.9999999999999,0|0,1:0|1:0,2:0:0:0:
420,326,207620,2,0,L|320:322,1,99.9999999999999,8|0,3:2|3:0,2:0:0:0:
228,282,208326,1,2,1:2:0:0:
228,282,208503,2,0,L|128:285,1,99.9999999999999,8|0,2:0|1:0,2:0:0:0:
87,316,209032,2,0,P|91:340|90:365,2,49.9999999999999,10|0|2,3:2|1:0|3:2,2:0:0:0:
25,236,209738,5,2,1:2:0:0:
25,236,209915,2,0,P|22:186|32:137,1,99.9999999999999,0|2,1:0|1:2,2:0:0:0:
71,104,210444,2,0,P|120:101|169:111,1,99.9999999999999,10|0,3:2|3:0,2:0:0:0:
261,150,211150,1,2,1:2:0:0:
261,150,211326,2,0,L|263:50,1,99.9999999999999,8|4,2:0|2:3,2:0:0:0:
302,18,211856,1,10,3:2:0:0:
390,65,212209,2,0,L|388:114,1,49.9999999999999,8|8,1:2|2:3,2:0:0:0:
425,149,212562,6,0,L|474:150,2,50,4|0|8,1:0|1:0|2:0,2:0:0:0:
400,246,213267,2,0,L|449:247,2,50,0|0|10,1:0|1:0|2:0,2:0:0:0:
325,313,213973,2,0,L|275:314,1,50,2|0,1:2|1:0,2:0:0:0:
227,329,214326,1,10,2:0:0:0:
178,315,214503,2,0,P|168:266|176:216,1,99.9999999999999,2|2,1:2|1:2,2:0:0:0:
213,181,215032,1,8,2:0:0:0:
209,81,215385,6,0,P|159:84|109:89,1,99.9999999999999,2|8,1:2|2:0,2:0:0:0:
59,80,215915,2,0,P|62:129|67:179,1,99.9999999999999,2|0,1:2|1:0,2:0:0:0:
23,205,216444,2,0,P|19:254|14:304,1,99.9999999999999,10|2,2:0|1:2,2:0:0:0:
49,340,216973,1,0,1:0:0:0:
132,284,217326,1,0,1:0:0:0:
132,284,217503,2,0,P|181:276|229:287,1,99.9999999999999,2|2,1:2|1:2,2:0:0:0:
324,253,218209,5,4,1:0:0:0:
324,253,218385,2,0,P|331:203|320:155,1,99.9999999999999,0|0,1:0|1:0,2:0:0:0:
290,114,218915,2,0,L|389:108,1,99.9999999999999,10|0,3:2|1:0,2:0:0:0:
407,9,219620,1,2,3:2:0:0:
407,9,219797,2,0,L|307:14,1,99.9999999999999,8|0,2:0|1:0,2:0:0:0:
259,31,220326,2,0,L|209:28,1,49.9999999999999,10|0,3:2|1:0,2:0:0:0:
170,60,220679,1,14,2:0:0:0:
71,41,221032,5,6,1:2:0:0:
31,131,221385,2,0,P|31:156|33:181,1,50,8|8,1:2|2:0,2:0:0:0:
69,217,221738,2,0,P|68:241|66:266,2,50,8|8|8,1:2|2:0|1:2,2:0:0:0:
152,160,222444,2,0,P|176:155|201:154,1,49.9999999999999,10|8,1:2|2:0,2:0:0:0:
242,182,222797,2,0,P|247:206|248:231,1,50,8|8,1:2|2:0,2:0:0:0:
218,271,223150,2,0,P|193:276|168:277,2,50,8|8|10,1:2|2:0|1:2,2:0:0:0:
250,311,223679,1,8,2:0:0:0:
384,96,235150,6,0,P|407:166|404:241,1,150,6|2,2:0|3:2,2:0:0:0:
182,357,236562,2,0,P|158:286|161:211,1,150,0|2,3:0|3:2,2:0:0:0:
300,67,237797,1,2,2:0:0:0:
300,67,237973,6,0,P|374:74|449:81,1,150,2|2,3:2|3:2,2:0:0:0:
336,305,239385,2,0,P|286:300|236:295,1,99.9999999999999,0|2,1:0|1:2,2:0:0:0:
175,216,240091,2,0,P|169:191|171:166,1,50,4|8,1:2|2:0,2:0:0:0:
213,139,240444,2,0,P|214:114|209:89,1,50,8|10,1:2|2:0,2:0:0:0:
173,54,240797,6,0,P|124:60|75:68,1,99.9999999999999,4|10,1:0|1:2,2:0:0:0:
41,105,241326,2,0,P|47:154|55:203,1,99.9999999999999,10|10,2:0|2:0,2:0:0:0:
86,243,241856,1,10,1:2:0:0:
62,340,242209,2,0,P|86:345|111:348,1,49.9999999999999,8|8,1:2|2:0,2:0:0:0:
157,329,242562,2,0,P|181:323|206:320,1,49.9999999999999,8|10,1:2|2:0,2:0:0:0:
251,342,242914,2,0,B|290:300|290:300|276:208,1,150,10|10,1:2|2:0,2:0:0:0:
270,158,243620,6,0,P|319:164|368:156,1,99.9999999999999,6|8,1:2|1:2,2:0:0:0:
412,131,244150,1,8,2:3:0:0:
458,148,244326,2,0,P|458:197|458:247,1,99.9999999999999,2|12,1:2|2:0,2:0:0:0:
394,325,245032,2,0,P|370:321|345:317,1,49.9999999999999,10|8,1:2|2:0,2:0:0:0:
310,282,245385,2,0,P|285:286|260:290,1,49.9999999999999,4|8,1:2|2:0,2:0:0:0:
218,318,245738,1,10,1:2:0:0:
127,275,246091,1,10,1:2:0:0:
37,321,246444,6,0,P|25:274|39:226,1,99.9999999999999,4|10,1:0|2:0,2:0:0:0:
77,194,246973,2,0,P|90:146|78:98,1,99.9999999999999,2|0,1:2|1:0,2:0:0:0:
43,62,247503,1,10,2:0:0:0:
137,28,247856,2,0,P|186:33|236:39,1,99.9999999999999,2|10,1:2|2:0,2:0:0:0:
264,81,248385,2,0,P|313:75|363:69,1,99.9999999999999,6|0,1:2|1:0,2:0:0:0:
402,37,248914,1,10,2:0:0:0:
460,116,249267,6,0,P|470:165|465:215,1,99.9999999999999,2|8,1:2|2:0,2:0:0:0:
439,257,249797,1,2,1:2:0:0:
412,299,249973,2,0,L|312:296,1,99.9999999999999,2|8,1:2|2:0,2:0:0:0:
260,209,250679,2,0,L|160:211,1,99.9999999999999,2|8,1:2|2:0,2:0:0:0:
124,176,251209,1,2,1:2:0:0:
98,132,251385,2,0,P|60:133|23:140,2,74.9999999999999,2|2|2,1:2|2:0|1:2,2:0:0:0:
135,98,252091,6,0,P|184:92|234:87,1,99.9999999999999,6|8,1:2|2:0,2:0:0:0:
334,94,252797,2,0,P|334:57|329:20,2,74.9999999999999,2|2|2,1:2|2:0|1:2,2:0:0:0:
321,143,253503,2,0,P|371:136|420:128,1,99.9999999999999,2|10,1:2|2:0,2:0:0:0:
460,159,254032,1,2,1:2:0:0:
394,235,254385,2,0,P|388:284|393:333,1,99.9999999999999,2|2,1:2|1:2,2:0:0:0:
356,368,254914,6,0,L|256:364,1,99.9999999999999,6|8,1:2|2:0,2:0:0:0:
223,326,255444,1,2,1:2:0:0:
190,288,255620,2,0,L|90:291,1,99.9999999999999,2|8,1:2|2:0,2:0:0:0:
18,219,256326,2,0,P|16:195|19:170,1,50,12|0,2:0|1:0,2:0:0:0:
55,134,256679,2,0,P|79:131|104:134,1,50,8|0,2:0|1:0,2:0:0:0:
154,136,257032,2,0,P|151:98|149:61,2,74.9999999999999,2|4|4,1:2|2:3|2:3,2:0:0:0:
194,162,257738,6,0,P|244:169|291:155,1,99.9999999999999,4|2,1:0|1:2,2:0:0:0:
305,106,258267,1,2,2:0:0:0:
403,121,258620,1,2,2:0:0:0:
501,136,258973,1,2,2:0:0:0:
501,135,259150,2,0,P|498:185|492:235,1,99.9999999999999,0|0,1:0|1:0,2:0:0:0:
446,256,259679,1,2,2:0:0:0:
399,273,259856,2,0,P|401:310|405:347,2,74.9999999999999,2|2|2,1:2|2:0|2:0,2:0:0:0:
351,258,260562,6,0,P|302:246|256:262,1,99.9999999999999,2|2,1:2|1:2,2:0:0:0:
224,301,261091,1,2,2:0:0:0:
133,258,261444,2,0,P|129:208|125:158,1,99.9999999999999,2|2,2:0|2:0,2:0:0:0:
110,110,261973,2,0,P|159:106|209:102,1,99.9999999999999,14|2,2:0|1:2,2:0:0:0:
250,72,262503,1,14,2:0:0:0:
334,126,262856,2,0,P|383:131|427:109,1,99.9999999999999,14|10,2:0|2:0,2:0:0:0:
464,75,263385,6,0,L|460:224,1,150,4|0,1:0|1:0,2:0:0:0:
487,267,264091,1,8,3:2:0:0:
311,362,264797,2,0,L|307:212,1,150,2|0,1:2|1:0,2:0:0:0:
270,177,265503,1,10,2:0:0:0:
178,218,265856,1,10,2:0:0:0:
83,184,266209,5,2,2:0:0:0:
449,341,267620,2,0,P|456:266|442:192,1,150,12|2,1:2|1:2,2:0:0:0:
409,155,268326,2,0,L|359:160,1,49.9999999999999,10|8,2:0|2:0,2:0:0:0:
316,186,268679,2,0,L|266:180,1,49.9999999999999,10|10,1:2|2:0,2:0:0:0:
227,147,269032,5,4,1:0:0:0:
