osu file format v14

[General]
AudioFilename: audio.mp3
AudioLeadIn: 0
PreviewTime: 56914
Countdown: 0
SampleSet: Normal
StackLeniency: 0.7
Mode: 0
LetterboxInBreaks: 0
WidescreenStoryboard: 0

[Editor]
DistanceSpacing: 0.6
BeatDivisor: 4
GridSize: 4
TimelineZoom: 1

[Metadata]
Title:Fairy Tale-TV Size-
TitleUnicode:フェアリーテイル -TV Size-
Artist:Sangatsu no Phantasia
ArtistUnicode:三月のパンタシア
Creator:kayiedee
Version:Hard
Source:亜人ちゃんは語りたい
Tags:Interviews With Monster Girls Interviews With Monster Girls Demi chan wa kataritai
BeatmapID:1306937
BeatmapSetID:620083

[Difficulty]
HPDrainRate:5
CircleSize:4
OverallDifficulty:5
ApproachRate:7
SliderMultiplier:1.4
SliderTickRate:1

[Events]
//Background and Video events
0,0,"Demichan.png",0,0
//Break Periods
//Storyboard Layer 0 (Background)
//Storyboard Layer 1 (Fail)
//Storyboard Layer 2 (Pass)
//Storyboard Layer 3 (Foreground)
//Storyboard Sound Samples

[TimingPoints]
610.282363675397,434.782608695652,4,1,0,40,1,0
26697,-133.333333333333,4,1,0,40,0,0
28436,-100,4,1,0,40,0,0
58001,-100,4,1,0,40,0,1
84088,-133.333333333333,4,1,0,40,0,0

[Colours]
Combo1 : 255,112,64
Combo2 : 255,255,0
Combo3 : 0,255,128
Combo4 : 0,255,255

[HitObjects]
148,272,610,6,0,P|152:240|152:196,2,70
80,324,1262,2,0,P|136:356|224:320,1,140
416,280,2132,2,0,P|348:292|291:254,1,140
252,184,2784,1,0,0:0:0:0:
196,128,3001,2,0,B|152:112|100:164|44:136,1,140
84,52,3653,1,0,0:0:0:0:
164,16,3871,1,0,0:0:0:0:
236,104,4088,6,0,P|244:64|240:8,2,70
172,132,4740,2,0,P|248:128|332:128,1,140
372,192,5392,1,0,0:0:0:0:
436,128,5610,2,0,P|460:192|424:264,1,140
356,220,6262,1,0,0:0:0:0:
280,272,6479,2,0,P|212:244|148:260,1,140
68,248,7132,2,0,P|72:292|100:328,1,70
120,184,7566,6,0,L|126:104,2,70
192,244,8218,2,0,P|228:192|216:120,1,140
16,44,9088,2,0,P|2:110|39:168,1,140
125,114,9740,1,0,0:0:0:0:
164,220,9958,2,0,P|240:216|312:184,1,140
356,124,10610,1,0,0:0:0:0:
272,80,10827,1,0,0:0:0:0:
352,12,11045,6,0,P|360:84|339:181,1,140
280,200,11697,1,0,0:0:0:0:
368,236,11914,2,0,P|448:228|460:228,1,70
288,288,12349,2,0,P|208:280|196:280,1,70
136,236,12784,2,0,P|84:288|100:176,1,280
88,172,14523,6,0,P|92:100|92:88,1,70
179,78,14958,2,0,P|178:113|176:148,1,70
264,124,15392,2,0,P|268:52|268:40,2,70
216,196,16045,2,0,P|300:200|344:152,1,140
376,68,16697,1,0,0:0:0:0:
416,160,16914,1,0,0:0:0:0:
420,172,17349,2,0,P|424:220|424:260,2,70
336,128,18001,6,0,B|304:140|268:124|268:124|232:108|192:124,1,140
228,196,18653,1,0,0:0:0:0:
228,196,18871,2,0,P|212:252|200:280,1,70
136,336,19305,2,0,P|124:303|115:269,1,70
44,212,19740,2,0,P|108:180|208:272,1,210
264,328,20610,2,0,P|340:332|408:320,1,140
444,164,21479,6,0,P|448:212|444:252,1,70
368,120,21914,2,0,P|407:92|444:75,1,70
368,208,22349,2,0,P|324:187|291:164,2,70
506,129,23001,2,0,P|418:117|334:125,1,140
304,176,23653,1,0,0:0:0:0:
304,176,23871,1,0,0:0:0:0:
252,104,24088,2,0,P|248:48|248:16,1,70
148,0,24523,2,0,P|146:34|143:69,1,70
52,88,24958,6,0,P|53:122|56:157,2,70
144,180,25610,2,0,P|112:232|20:244,1,140
8,336,26262,2,0,P|80:332|92:332,1,70
184,300,26697,2,0,P|232:240|136:184,1,210.000008010865
168,240,27784,5,0,0:0:0:0:
308,192,28001,1,0,0:0:0:0:
308,192,28436,6,0,P|312:240|312:280,1,70
220,340,28871,2,0,P|221:305|224:270,1,70
192,188,29305,2,0,L|104:192,1,70
48,124,29740,1,0,0:0:0:0:
116,64,29958,2,0,P|180:96|260:88,1,140
336,132,30610,1,0,0:0:0:0:
356,20,30827,1,0,0:0:0:0:
428,92,31045,2,0,P|436:140|428:176,1,70
278,170,31479,2,0,P|315:139|350:128,1,70
421,261,31914,6,0,P|375:243|348:219,2,70
428,160,32566,1,0,0:0:0:0:
335,131,32784,2,0,P|263:127|239:127,1,70
192,188,33218,2,0,P|120:192|96:192,1,70
40,128,33653,2,0,L|54:295,1,140
120,336,34305,1,0,0:0:0:0:
120,336,34523,2,0,L|208:332,1,70
292,252,34958,2,0,P|288:312|288:344,1,70
388,384,35392,6,0,P|386:349|383:314,1,70
416,224,35827,2,0,L|492:228,1,70
312,172,36262,2,0,L|236:176,1,70
168,112,36697,2,0,P|164:68|176:24,1,70
256,76,37132,2,0,P|264:140|252:220,2,140
344,44,38218,1,0,0:0:0:0:
344,44,38327,1,0,0:0:0:0:
344,44,38436,2,0,P|356:100|356:160,1,105
356,168,38871,6,0,B|316:184|276:168|276:168|236:152|192:172,1,140
240,240,39523,1,0,0:0:0:0:
216,328,39740,2,0,P|232:284|240:244,1,70
128,192,40175,2,0,P|136:225|149:258,1,70
320,236,40610,2,0,P|272:182|196:188,1,140
237,266,41262,1,0,0:0:0:0:
237,266,41479,2,0,L|139:257,1,70
38,200,41914,2,0,L|135:191,1,70
172,134,42349,6,0,P|226:174|296:164,1,140
370,111,43001,1,0,0:0:0:0:
370,111,43218,2,0,P|374:162|375:186,1,70
462,196,43653,2,0,P|458:247|457:271,1,70
375,296,44088,2,0,P|310:310|247:275,1,140
200,193,44740,1,0,0:0:0:0:
167,272,44958,2,0,L|243:265,1,70
118,201,45392,2,0,L|41:194,1,70
8,105,45827,6,0,P|58:50|138:42,1,140
185,94,46479,1,0,0:0:0:0:
185,94,46697,2,0,L|270:101,1,70
325,42,47132,2,0,L|394:35,1,70
480,128,47566,2,0,B|433:155|383:104|324:136,1,140
284,196,48218,1,0,0:0:0:0:
367,208,48436,1,0,0:0:0:0:
336,129,48653,1,0,0:0:0:0:
336,129,48762,1,0,0:0:0:0:
336,129,48871,2,0,P|332:186|334:253,1,105
339,253,49305,6,0,P|256:271|186:264,1,140
87,165,49958,2,0,P|170:147|240:154,1,140
327,193,50610,1,0,0:0:0:0:
421,146,50827,2,0,P|431:66|427:1,1,140
324,42,51479,1,0,0:0:0:0:
217,11,51697,2,0,P|214:80|223:150,1,140
326,229,52349,2,0,L|326:156,1,70
203,146,52784,6,0,P|140:153|73:149,1,105
70,146,53218,1,0,0:0:0:0:
37,244,53436,1,0,0:0:0:0:
139,224,53653,2,0,P|142:268|140:312,1,70
232,340,54088,1,0,0:0:0:0:
255,192,54305,1,0,0:0:0:0:
255,192,54740,5,0,0:0:0:0:
232,340,54957,1,0,0:0:0:0:
372,286,55175,1,0,0:0:0:0:
372,286,55284,1,0,0:0:0:0:
372,286,55392,2,0,P|378:222|377:200,1,70
253,192,55827,1,0,0:0:0:0:
253,192,56045,1,0,0:0:0:0:
231,344,56479,1,0,0:0:0:0:
231,344,56697,1,0,0:0:0:0:
141,293,56914,5,0,0:0:0:0:
141,293,57132,2,0,L|138:223,1,70
216,192,57566,2,0,L|219:112,1,70
152,80,58001,6,0,P|216:80|268:48,1,105
276,40,58436,1,0,0:0:0:0:
360,104,58653,1,0,0:0:0:0:
360,104,58762,1,0,0:0:0:0:
360,104,58871,2,0,L|360:64,2,35
468,60,59305,2,0,P|472:112|472:140,1,70
404,192,59740,2,0,B|356:176|312:208|248:192,1,140
176,156,60392,1,0,0:0:0:0:
132,240,60610,1,0,0:0:0:0:
132,240,60718,1,0,0:0:0:0:
132,240,60827,1,0,0:0:0:0:
208,328,61045,2,0,P|248:320|292:316,1,70
368,248,61479,6,0,P|312:180|256:192,1,140
176,152,62132,1,0,0:0:0:0:
176,152,62240,1,0,0:0:0:0:
176,152,62349,2,0,P|168:104|168:72,1,70
76,0,62784,2,0,P|74:34|67:69,1,70
20,152,63218,1,0,0:0:0:0:
104,192,63436,1,0,0:0:0:0:
166,90,63653,1,0,0:0:0:0:
82,130,63871,1,0,0:0:0:0:
206,174,64088,2,0,P|252:176|296:168,1,70
276,32,64523,2,0,P|251:70|236:112,1,70
344,256,64958,6,0,P|356:164|356:104,1,140
236,108,65610,2,0,L|164:104,1,70
60,180,66045,2,0,L|132:176,1,70
236,108,66479,1,0,0:0:0:0:
280,208,66697,2,0,P|284:252|284:288,1,70
208,180,67131,1,0,0:0:0:0:
308,135,67349,2,0,L|475:120,1,140
424,216,68001,2,0,P|420:260|428:292,1,70
328,356,68436,6,0,L|248:349,1,70
200,256,68871,1,0,0:0:0:0:
116,328,69088,1,0,0:0:0:0:
40,248,69305,2,0,P|36:204|40:152,1,70
136,56,69740,2,0,P|140:100|136:152,1,70
136,144,70066,1,0,0:0:0:0:
136,144,70175,1,0,0:0:0:0:
52,92,70392,2,0,L|12:92,2,35
132,40,70827,1,0,0:0:0:0:
216,92,71045,2,0,P|228:48|232:20,1,70
256,180,71479,2,0,P|288:147|305:125,1,70
236,272,71914,6,0,P|292:264|360:264,1,105
372,268,72349,1,0,0:0:0:0:
424,192,72566,1,0,0:0:0:0:
424,192,72675,1,0,0:0:0:0:
424,192,72784,2,0,P|464:188|472:188,2,35
368,108,73218,2,0,P|336:120|284:120,1,70
208,24,73653,2,0,L|220:171,1,140
232,272,74305,1,0,0:0:0:0:
156,336,74523,2,0,P|112:344|72:344,1,70
0,244,74958,2,0,P|34:245|69:252,1,70
168,348,75392,6,0,L|315:335,1,140
408,284,76045,1,0,0:0:0:0:
408,284,76153,1,0,0:0:0:0:
408,284,76262,2,0,P|412:332|412:360,1,70
308,256,76697,1,0,0:0:0:0:
283,156,76914,1,0,0:0:0:0:
283,156,77022,1,0,0:0:0:0:
283,156,77131,2,0,P|322:128|346:114,1,70
420,176,77566,1,0,0:0:0:0:
400,36,77784,2,0,P|336:24|268:64,1,140
192,128,78436,2,0,P|184:80|184:36,1,70
108,148,78871,6,0,P|44:144|0:204,1,140
56,276,79523,2,0,P|100:280|132:280,1,70
224,256,79958,2,0,L|217:335,1,70
340,292,80392,2,0,L|333:222,1,70
240,108,80827,2,0,L|233:177,1,70
320,48,81262,1,0,0:0:0:0:
156,112,81697,6,0,P|148:76|148:40,2,70
224,152,82349,2,0,L|60:137,1,140
16,224,83001,2,0,L|12:267,2,35
108,276,83436,2,0,L|104:241,2,35
200,224,83871,1,0,0:0:0:0:
200,224,83979,1,0,0:0:0:0:
200,224,84088,6,0,P|288:304|288:168,1,315.000012016297
204,76,85827,6,0,P|200:36|200:8,2,52.5000020027161
180,152,86479,6,0,P|147:175|123:189,2,52.5000020027161
258,135,87132,6,0,P|294:151|318:165,1,52.5000020027161
