osu file format v14

[General]
AudioFilename: audio.mp3
AudioLeadIn: 0
PreviewTime: 56829
Countdown: 0
SampleSet: Soft
StackLeniency: 0.7
Mode: 0
LetterboxInBreaks: 0
WidescreenStoryboard: 1

[Editor]
Bookmarks: 580,14493,28406,42319,56232,57971,85797
DistanceSpacing: 1.2
BeatDivisor: 4
GridSize: 8
TimelineZoom: 2.3

[Metadata]
Title:Fairy Tale (TV Size)
TitleUnicode:フェアリーテイル (TV Size)
Artist:Sangatsu no Phantasia
ArtistUnicode:三月のパンタシア
Creator:Silent Rock
Version:Normal
Source:亜人ちゃんは語りたい
Tags:Interviews with Monster Girls Demi-chan wa Kataritai Japanese J-pop Jpop pop Anime Ending ED あのときの歌が聴こえる Ano toki no Uta ga Kikoeru
BeatmapID:3349123
BeatmapSetID:1640745

[Difficulty]
HPDrainRate:3.6
CircleSize:3.5
OverallDifficulty:4.8
ApproachRate:5.8
SliderMultiplier:1.3
SliderTickRate:1

[Events]
//Background and Video events
0,0,"Thanks Kyle Y for the BG.jpg",0,0
Video,-140,"Thanks boss for the video.mp4"
//Break Periods
//Storyboard Layer 0 (Background)
//Storyboard Layer 1 (Fail)
//Storyboard Layer 2 (Pass)
//Storyboard Layer 3 (Foreground)
//Storyboard Layer 4 (Overlay)
//Storyboard Sound Samples

[TimingPoints]
580,434.782608695652,4,2,1,50,1,0
580,-125,4,2,1,50,0,0
14384,-100,4,2,1,5,0,0
14493,-125,4,2,1,60,0,0
18297,-125,4,2,1,5,0,0
18406,-125,4,2,1,60,0,0
26666,-142.857142857143,4,2,1,60,0,0
27536,-125,4,2,1,60,0,0
27971,-125,4,2,2,70,0,0
28406,-100,4,2,1,60,0,0
34927,-125,4,2,1,60,0,0
35253,-125,4,2,1,5,0,0
35362,-100,4,2,1,60,0,0
37427,-100,4,2,1,5,0,0
37536,-100,4,2,1,60,0,0
37862,-100,4,2,1,5,0,0
37971,-100,4,2,1,60,0,0
38297,-100,4,2,1,5,0,0
38406,-100,4,2,1,60,0,0
41449,-100,4,2,2,60,0,0
42319,-100,4,2,3,60,0,0
49058,-90.9090909090909,4,2,3,60,0,0
49601,-90.9090909090909,4,2,3,5,0,0
49710,-90.9090909090909,4,2,3,60,0,0
50797,-83.3333333333333,4,2,3,60,0,0
51666,-90.9090909090909,4,2,3,60,0,0
57971,434.782608695652,4,2,3,70,1,1
57971,-83.3333333333333,4,2,3,70,0,1
58297,-83.3333333333333,4,2,3,5,0,1
58405,-83.3333333333333,4,2,3,70,0,1
61775,-83.3333333333333,4,2,3,5,0,1
61884,-83.3333333333333,4,2,3,70,0,1
65253,-83.3333333333333,4,2,3,5,0,1
65362,-83.3333333333333,4,2,3,70,0,1
70797,-83.3333333333333,4,2,1,70,0,1
71014,-83.3333333333333,4,2,3,70,0,1
72210,-83.3333333333333,4,2,3,5,0,1
72318,-83.3333333333333,4,2,3,70,0,1
84057,-125,4,2,1,70,0,0
85797,-125,4,2,1,50,0,0
87101,-125,4,2,1,40,0,0
87536,-125,4,2,1,30,0,0
87970,-125,4,2,1,20,0,0
88242,-125,4,2,1,10,0,0

[Colours]
Combo1 : 135,248,177
Combo2 : 214,85,63
Combo3 : 232,116,0
Combo4 : 241,198,67

[HitObjects]
154,95,580,6,0,P|140:72|123:52,2,52,2|0|0,0:0|0:0|0:0,0:0:0:0:
172,142,1232,2,0,P|124:176|114:221,2,104,2|2|2,0:0|0:0|0:0,0:0:0:0:
256,82,2536,2,0,L|256:19,2,52,0|2|2,0:0|0:0|0:0,0:0:0:0:
358,95,3406,6,0,P|371:72|388:52,2,52,0|2|0,0:0|0:0|0:0,0:0:0:0:
340,142,4058,2,0,P|388:176|398:221,1,104,2|2,0:0|0:0,0:0:0:0:
360,254,4710,1,2,0:0:0:0:
257,238,5145,6,0,P|231:230|205:229,2,52,0|2|2,0:0|0:0|0:0,0:0:0:0:
295,335,6014,2,0,P|301:361|314:384,2,52,0|2|2,0:0|0:0|0:0,0:0:0:0:
360,254,6884,1,0,0:0:0:0:
360,254,7101,2,0,P|379:234|392:212,1,52,2|0,0:0|0:0,0:0:0:0:
434,183,7536,6,0,P|386:149|376:104,1,104,2|2,0:0|0:0,0:0:0:0:
345,64,8188,1,2,0:0:0:0:
256,118,8623,1,2,0:0:0:0:
167,64,9058,1,2,0:0:0:0:
113,153,9493,2,0,P|120:177|132:200,1,52,2|0,0:0|0:0,0:0:0:0:
174,231,9927,2,0,P|167:282|147:329,1,104,2|2,0:0|0:0,0:0:0:0:
184,366,10579,1,0,0:0:0:0:
269,307,11014,6,0,P|320:313|367:333,1,104,2|0,0:0|0:0,0:0:0:0:
417,363,11666,1,2,0:0:0:0:
417,363,11884,1,2,0:0:0:0:
453,265,12319,1,2,0:3:0:0:
512,180,12753,1,2,3:2:0:0:
328,81,13623,5,2,0:0:0:0:
176,225,14493,6,0,P|183:275|216:315,1,104,2|2,0:0|0:0,0:0:0:0:
270,333,15145,1,0,0:0:0:0:
270,333,15362,2,0,P|317:313|367:322,1,104,2|2,0:0|0:0,0:0:0:0:
415,229,16232,6,0,P|374:198|356:150,1,104,2|0,0:0|0:0,0:0:0:0:
406,60,17101,1,2,0:0:0:0:
406,60,17319,2,0,P|431:66|456:71,2,52,0|2|0,0:0|0:0|0:0,0:0:0:0:
363,28,17971,6,0,P|314:43|269:68,1,104,2|2,0:0|0:0,0:0:0:0:
240,113,18623,1,0,0:0:0:0:
240,113,18840,2,0,P|190:97|145:72,1,104,2|0,0:0|0:0,0:0:0:0:
41,80,19710,6,0,P|38:157|59:232,1,156,2|2,0:0|0:0,0:0:0:0:
94,271,20579,1,2,0:0:0:0:
191,233,21014,1,2,0:0:0:0:
257,313,21449,6,0,P|284:271|334:260,1,104,2|2,0:0|0:0,0:0:0:0:
382,292,22101,1,0,0:0:0:0:
382,292,22319,2,0,P|431:280|459:238,1,104,2|0,0:0|0:0,0:0:0:0:
390,159,23188,6,0,P|375:103|367:54,1,104,2|0,0:0|0:0,0:0:0:0:
376,6,23840,1,2,0:0:0:0:
376,6,24058,1,2,0:0:0:0:
288,62,24493,1,0,0:0:0:0:
185,81,24927,6,0,P|49:94|87:225,1,312,2|2,0:0|0:0,0:0:0:0:
148,293,26666,6,0,P|230:254|318:233,1,181.999994445801,2|2,0:0|0:0,0:0:0:0:
367,253,27753,1,0,3:0:0:0:
408,284,27971,1,12,0:0:0:0:
381,129,28406,6,0,P|402:105|415:76,2,65,6|2|8,3:2|0:0|0:0,0:0:0:0:
228,161,29275,2,0,P|257:218|264:282,1,130,2|8,0:0|0:0,0:0:0:0:
233,326,29927,5,2,3:2:0:0:
233,326,30145,2,0,P|201:319|170:323,2,65,0|2|8,3:2|0:0|0:0,0:0:0:0:
366,245,31014,2,0,P|387:304|445:328,1,130,2|8,0:0|0:0,0:0:0:0:
492,308,31666,5,2,3:2:0:0:
492,308,31884,2,0,P|497:276|512:247,2,65,2|0|8,3:2|0:0|0:0,0:0:0:0:
408,174,32753,2,0,P|346:164|296:202,1,130,2|8,0:0|0:0,0:0:0:0:
287,257,33406,5,2,3:2:0:0:
287,257,33623,2,0,P|248:306|185:312,1,130,2|8,3:2|0:0,0:0:0:0:
144,287,34275,1,2,3:2:0:0:
144,287,34493,2,0,P|154:222|169:159,1,130,2|2,3:2|0:3,0:0:0:0:
36,77,35362,6,0,P|43:108|48:140,2,65,2|2|8,3:2|0:0|0:0,0:0:0:0:
19,32,36014,1,2,0:0:0:0:
19,32,36232,2,0,P|77:60|138:43,1,130,10|8,0:0|0:0,0:0:0:0:
253,146,37101,5,6,3:2:0:0:
387,67,37536,1,6,3:2:0:0:
503,170,37971,2,0,P|479:230|460:292,1,130,4|2,3:2|0:3,0:0:0:0:
326,373,38840,6,0,P|306:310|282:250,1,130,6|8,3:2|0:0,0:0:0:0:
291,94,39710,2,0,P|264:111|233:122,1,65,10|0,0:0|0:0,0:0:0:0:
223,173,40145,2,0,P|190:175|158:168,1,65,8|0,0:0|3:0,0:0:0:0:
123,206,40579,6,0,P|70:171|39:115,2,130,2|2|12,3:2|0:3|0:0,0:0:0:0:
313,351,42101,5,8,0:0:0:0:
313,351,42319,2,0,P|366:316|397:260,1,130,4|0,3:1|3:0,0:0:0:0:
462,117,43188,2,0,B|418:134|418:134|346:91,1,130,2|0,3:2|3:0,0:0:0:0:
329,47,43840,5,2,0:0:0:0:
329,47,44058,2,0,B|257:4|257:4|213:21,1,130,2|0,3:2|0:0,0:0:0:0:
71,83,44927,1,2,3:2:0:0:
134,225,45362,1,8,3:2:0:0:
99,263,45580,5,2,0:0:0:0:
99,263,45797,2,0,P|156:288|176:348,1,130,2|0,3:2|3:0,0:0:0:0:
276,229,46666,2,0,P|333:203|353:143,1,130,2|0,3:2|3:0,0:0:0:0:
323,107,47319,5,2,0:0:0:0:
323,107,47536,2,0,P|258:97|197:76,1,130,2|0,3:2|3:0,0:0:0:0:
80,180,48406,1,2,3:2:0:0:
19,323,48840,1,12,0:0:0:0:
161,384,49275,6,0,P|207:331|276:332,1,143.000004364014,6|8,3:2|0:0,0:0:0:0:
308,380,49927,1,4,3:1:0:0:
460,301,50362,5,8,0:0:0:0:
460,301,50579,1,8,0:0:0:0:
460,301,50797,2,0,P|432:228|420:151,1,155.999995239258,6|8,1:2|0:0,0:0:0:0:
460,111,51449,1,8,0:0:0:0:
506,80,51666,1,6,3:2:0:0:
341,52,52101,5,8,0:0:0:0:
341,52,52319,2,0,P|308:37|274:27,1,71.5000021820069,8|8,0:0|0:0,0:0:0:0:
225,57,52753,6,0,P|213:125|154:161,1,143.000004364014,6|8,3:2|0:0,0:0:0:0:
104,143,53406,1,2,0:0:0:0:
104,143,53623,1,2,3:2:0:0:
22,295,54058,5,8,0:0:0:0:
22,295,54275,2,0,B|145:224|252:319|252:319|358:413|482:343,1,500.500015274048,4|0,3:0|3:0,0:0:0:0:
512,294,56014,1,2,3:1:0:0:
414,159,56449,1,2,3:1:0:0:
414,159,56666,1,8,0:0:0:0:
512,54,57101,1,2,0:0:0:0:
512,54,57971,6,0,P|437:32|360:17,1,155.999995239258,6|8,3:2|0:0,0:0:0:0:
308,76,58623,2,0,P|233:97|156:112,1,155.999995239258,2|0,0:0|3:0,0:0:0:0:
88,85,59275,1,8,0:0:0:0:
88,85,59492,2,0,P|192:120|199:230,1,233.999992858887,2|8,0:0|0:0,0:0:0:0:
344,349,60579,6,0,P|379:333|417:325,1,77.999997619629,2|0,0:0|3:0,0:0:0:0:
442,249,61014,2,0,P|410:225|384:197,1,77.999997619629,8|2,0:0|0:0,0:0:0:0:
306,186,61449,2,0,P|328:111|341:34,1,155.999995239258,2|8,3:2|0:0,0:0:0:0:
265,17,62101,2,0,P|242:91|229:168,1,155.999995239258,2|0,0:0|3:0,0:0:0:0:
252,244,62753,1,8,0:0:0:0:
81,320,63188,6,0,P|48:299|12:284,2,77.999997619629,2|2|8,3:2|0:0|0:0,0:0:0:0:
133,378,63840,2,0,P|192:331|272:344,1,155.999995239258,2|0,0:0|3:0,0:0:0:0:
333,384,64492,2,0,P|369:369|401:348,1,77.999997619629,8|2,0:0|0:0,0:0:0:0:
459,295,64927,5,6,3:2:0:0:
289,228,65362,1,8,0:0:0:0:
289,228,65579,2,0,P|236:172|204:101,1,155.999995239258,2|0,0:0|3:0,0:0:0:0:
258,44,66231,1,8,0:0:0:0:
334,59,66449,2,0,P|403:37|448:95,1,155.999995239258,2|10,0:0|0:0,0:0:0:0:
400,158,67101,1,8,0:0:0:0:
367,228,67318,1,4,3:1:0:0:
198,304,67753,5,0,3:0:0:0:
198,304,67971,2,0,P|165:283|129:268,1,77.999997619629,8|10,0:0|0:0,0:0:0:0:
51,252,68405,2,0,P|53:174|64:97,1,155.999995239258,2|8,3:2|0:0,0:0:0:0:
134,59,69057,1,8,0:0:0:0:
134,59,69275,2,0,P|170:44|202:23,2,77.999997619629,2|8|8,3:2|0:0|0:0,0:0:0:0:
133,139,69927,6,0,P|172:203|247:211,1,155.999995239258,8|8,0:0|0:3,0:0:0:0:
305,158,70579,2,0,P|341:173|373:194,1,77.999997619629,8|8,0:3|3:0,0:0:0:0:
421,255,71014,1,2,3:2:0:0:
252,336,71449,1,8,0:0:0:0:
64,343,71884,6,0,P|89:269|106:193,1,155.999995239258,6|8,3:2|0:0,0:0:0:0:
70,123,72536,2,0,P|2:103|20:35,1,155.999995239258,2|0,0:0|3:0,0:0:0:0:
98,14,73188,1,8,0:0:0:0:
98,14,73405,2,0,P|209:49|324:68,1,233.999992858887,2|8,0:0|0:0,0:0:0:0:
503,11,74492,6,0,P|467:26|447:59,1,77.999997619629,2|0,3:2|3:2,0:0:0:0:
419,132,74927,2,0,P|454:147|474:180,1,77.999997619629,8|10,0:0|0:0,0:0:0:0:
465,257,75362,2,0,P|392:276|372:347,1,155.999995239258,6|8,3:2|0:0,0:0:0:0:
302,384,76014,2,0,P|225:366|152:342,1,155.999995239258,8|8,0:0|0:0,0:0:0:0:
195,276,76666,2,0,P|233:267|269:255,1,77.999997619629,8|10,0:0|0:0,0:0:0:0:
303,184,77101,1,4,3:1:0:0:
150,84,77536,5,8,0:0:0:0:
150,84,77753,2,0,P|77:99|57:171,1,155.999995239258,2|2,3:2|3:2,0:0:0:0:
12,236,78405,1,8,0:0:0:0:
12,236,78623,1,8,0:0:0:0:
69,288,78840,6,0,P|144:270|219:245,1,155.999995239258,6|8,3:2|0:0,0:0:0:0:
276,297,79492,1,4,3:1:0:0:
342,124,79927,1,8,0:0:0:0:
342,124,80144,1,8,0:0:0:0:
397,175,80362,6,0,P|471:169|503:236,1,155.999995239258,6|8,1:2|0:0,0:0:0:0:
444,287,81014,1,8,0:0:0:0:
408,356,81231,1,6,3:2:0:0:
247,259,81666,2,0,P|231:223|211:190,2,77.999997619629,8|8|8,0:0|0:0|0:0,0:0:0:0:
197,319,82318,6,0,P|123:325|91:258,1,155.999995239258,6|8,3:2|0:0,0:0:0:0:
26,214,82971,2,0,P|100:220|132:153,1,155.999995239258,0|0,3:0|3:0,0:0:0:0:
81,95,83623,1,8,0:3:0:0:
128,33,83840,1,8,0:0:0:0:
199,2,84057,1,6,3:2:0:0:
256,192,85797,12,0,88242,0:0:0:0:
