osu file format v14

[General]
AudioFilename: audio.mp3
AudioLeadIn: 0
PreviewTime: 56829
Countdown: 0
SampleSet: Soft
StackLeniency: 0.3
Mode: 0
LetterboxInBreaks: 0
WidescreenStoryboard: 0

[Editor]
Bookmarks: 580,14493,28406,42319,56232,57971,85797
DistanceSpacing: 1.2
BeatDivisor: 8
GridSize: 8
TimelineZoom: 2.3

[Metadata]
Title:Fairy Tale (TV Size)
TitleUnicode:フェアリーテイル (TV Size)
Artist:Sangatsu no Phantasia
ArtistUnicode:三月のパンタシア
Creator:Silent Rock
Version:Insane
Source:亜人ちゃんは語りたい
Tags:Interviews with Monster Girls Demi-chan wa Kataritai Japanese J-pop Jpop pop Anime Ending ED あのときの歌が聴こえる Ano toki no Uta ga Kikoeru
BeatmapID:3348829
BeatmapSetID:1640745

[Difficulty]
HPDrainRate:6.2
CircleSize:5.5
OverallDifficulty:7.7
ApproachRate:8.6
SliderMultiplier:1.7
SliderTickRate:1

[Events]
//Background and Video events
0,0,"Thanks Kyle Y for the BG.jpg",0,0
Video,-140,"Thanks boss for the video.mp4"
//Break Periods
//Storyboard Layer 0 (Background)
//Storyboard Layer 1 (Fail)
//Storyboard Layer 2 (Pass)
//Storyboard Layer 3 (Foreground)
//Storyboard Layer 4 (Overlay)
//Storyboard Sound Samples

[TimingPoints]
580,434.782608695652,4,2,1,50,1,0
580,-166.666666666667,4,2,1,50,0,0
12753,-333.333333333334,4,2,1,50,0,0
14384,-333.333333333334,4,2,1,5,0,0
14493,-125,4,2,1,60,0,0
18297,-125,4,2,1,5,0,0
18406,-125,4,2,1,60,0,0
26666,-250,4,2,1,60,0,0
27536,-125,4,2,1,60,0,0
27971,-125,4,2,2,70,0,0
28406,-100,4,2,1,60,0,0
34927,-200,4,2,1,60,0,0
35253,-200,4,2,1,5,0,0
35362,-100,4,2,1,60,0,0
37427,-100,4,2,1,5,0,0
37536,-100,4,2,1,60,0,0
37862,-100,4,2,1,5,0,0
37971,-100,4,2,1,60,0,0
38297,-100,4,2,1,5,0,0
38406,-100,4,2,1,60,0,0
41449,-100,4,2,2,60,0,0
42319,-100,4,2,3,60,0,0
49058,-90.9090909090909,4,2,3,60,0,0
49601,-90.9090909090909,4,2,3,5,0,0
49710,-90.9090909090909,4,2,3,60,0,0
50797,-83.3333333333333,4,2,3,60,0,0
51666,-90.9090909090909,4,2,3,60,0,0
57971,434.782608695652,4,2,3,70,1,1
57971,-76.9230769230769,4,2,3,70,0,1
58297,-76.9230769230769,4,2,3,5,0,1
58405,-76.9230769230769,4,2,3,70,0,1
61775,-76.9230769230769,4,2,3,5,0,1
61884,-76.9230769230769,4,2,3,70,0,1
65253,-76.9230769230769,4,2,3,5,0,1
65362,-76.9230769230769,4,2,3,70,0,1
70797,-76.9230769230769,4,2,1,70,0,1
71014,-76.9230769230769,4,2,3,70,0,1
72210,-76.9230769230769,4,2,3,5,0,1
72318,-76.9230769230769,4,2,3,70,0,1
84057,-166.666666666667,4,2,1,70,0,0
85797,-166.666666666667,4,2,1,50,0,0
87101,-166.666666666667,4,2,1,40,0,0
87536,-166.666666666667,4,2,1,30,0,0
87970,-166.666666666667,4,2,1,20,0,0
88242,-166.666666666667,4,2,1,10,0,0

[Colours]
Combo1 : 135,248,177
Combo2 : 214,85,63
Combo3 : 232,116,0
Combo4 : 241,198,67

[HitObjects]
296,34,580,5,2,0:0:0:0:
344,81,797,1,0,0:0:0:0:
327,146,1014,1,0,0:0:0:0:
185,238,1232,5,2,0:0:0:0:
168,303,1666,1,2,0:0:0:0:
215,350,2101,2,0,P|263:331|313:320,1,101.999996887207,2|0,0:0|0:0,0:0:0:0:
424,374,2753,1,2,0:0:0:0:
416,251,2971,2,0,P|431:202|439:152,1,101.999996887207,2|0,0:0|0:0,0:0:0:0:
382,114,3623,1,2,0:0:0:0:
321,145,3840,1,0,0:0:0:0:
191,239,4058,5,2,0:0:0:0:
130,270,4275,1,0,0:0:0:0:
72,232,4493,1,2,0:0:0:0:
75,161,4710,2,0,P|108:125|106:75,1,101.999996887207,2|0,0:0|0:0,0:0:0:0:
180,0,5362,1,2,0:0:0:0:
207,101,5579,2,0,P|249:74|297:84,1,101.999996887207,2|0,0:0|0:0,0:0:0:0:
277,212,6232,1,2,0:0:0:0:
397,166,6449,1,2,0:0:0:0:
397,166,6884,2,0,P|388:141|382:117,2,50.9999984436036,0|2|0,0:0|0:0|0:0,0:0:0:0:
489,328,7536,5,2,0:0:0:0:
408,304,7753,1,0,0:0:0:0:
346,362,7971,1,2,0:0:0:0:
166,362,8188,5,2,0:0:0:0:
104,304,8623,1,2,0:0:0:0:
23,328,9058,1,2,0:0:0:0:
23,328,9493,6,0,P|31:303|37:279,1,50.9999984436036,2|0,0:0|0:0,0:0:0:0:
56,158,9927,1,2,0:0:0:0:
56,158,10362,5,2,0:0:0:0:
15,99,10579,1,0,0:0:0:0:
45,34,10797,1,2,0:0:0:0:
116,27,11014,2,0,P|164:46|214:57,1,101.999996887207,2|0,0:0|0:0,0:0:0:0:
278,169,11666,5,2,0:0:0:0:
335,99,11884,1,2,0:0:0:0:
414,80,12101,1,2,0:0:0:0:
480,104,12319,1,2,0:3:0:0:
512,160,12536,1,0,0:0:0:0:
501,171,12753,6,0,P|468:189|449:222,1,76.4999976654053,2|0,3:2|0:0,0:0:0:0:
352,267,13623,2,0,P|389:290|409:329,1,89.2499972763062,2|0,0:0|0:0,0:0:0:0:
399,341,14493,6,0,P|366:336|333:343,1,68,2|2,0:0|0:0,0:0:0:0:
275,285,14927,2,0,P|247:304|228:332,1,68,2|0,0:0|0:0,0:0:0:0:
128,384,15362,6,0,P|100:364|81:336,1,68,2|2,0:0|0:0,0:0:0:0:
0,336,15796,2,0,P|-5:302|1:269,1,68,2|0,0:0|0:0,0:0:0:0:
105,188,16232,5,2,0:0:0:0:
42,129,16449,1,2,0:0:0:0:
42,129,16666,1,0,0:0:0:0:
42,129,16884,1,2,0:0:0:0:
101,66,17101,1,2,0:0:0:0:
164,124,17319,6,0,P|190:103|223:99,2,68,0|2|0,0:0|0:0|0:0,0:0:0:0:
118,256,17971,2,0,P|122:306|130:357,1,102,2|0,0:0|0:0,0:0:0:0:
135,369,18406,2,0,P|161:347|193:336,1,68,2|0,0:0|0:0,0:0:0:0:
259,288,18840,2,0,P|285:310|317:321,1,68,2|2,0:0|0:0,0:0:0:0:
388,360,19275,1,0,0:0:0:0:
388,360,19493,1,2,0:0:0:0:
477,224,19710,6,0,P|416:201|409:137,1,136,2|0,0:0|0:0,0:0:0:0:
474,81,20362,1,2,0:0:0:0:
418,16,20579,1,2,0:0:0:0:
353,72,21014,5,2,0:0:0:0:
409,137,21449,6,0,P|386:197|322:204,1,136,2|2,0:0|0:0,0:0:0:0:
256,155,22101,1,0,0:0:0:0:
190,203,22319,2,0,L|200:284,1,68,2|2,0:0|0:0,0:0:0:0:
118,255,22753,1,0,0:0:0:0:
118,255,22971,2,0,L|109:187,1,68,2|0,0:0|0:0,0:0:0:0:
163,127,23406,5,2,0:0:0:0:
30,172,23623,1,2,0:0:0:0:
58,35,23840,1,2,0:0:0:0:
269,249,24275,5,2,0:0:0:0:
335,271,24492,1,0,0:0:0:0:
321,203,24709,1,2,0:0:0:0:
282,316,24927,6,0,P|290:350|306:380,1,68,2|0,0:0|0:0,0:0:0:0:
383,352,25362,1,2,0:0:0:0:
383,352,25579,2,0,P|419:297|483:279,1,136,2|0,0:0|0:0,0:0:0:0:
449,203,26232,1,2,0:0:0:0:
449,203,26449,1,2,0:0:0:0:
512,69,26666,6,0,P|462:57|413:42,1,102,2|0,0:0|0:0,0:0:0:0:
356,97,27536,1,2,0:0:0:0:
301,40,27753,1,0,3:0:0:0:
250,179,27971,1,12,0:0:0:0:
250,179,28406,5,6,3:2:0:0:
333,265,28623,1,2,0:0:0:0:
247,348,28840,1,8,0:0:0:0:
164,262,29058,1,2,0:0:0:0:
393,326,29275,6,0,P|434:315|473:298,1,85,2|0,0:0|0:0,0:0:0:0:
512,147,29710,1,8,0:0:0:0:
401,38,29927,1,2,3:2:0:0:
401,38,30145,6,0,P|359:48|320:65,1,85,0|2,3:2|0:0,0:0:0:0:
250,179,30579,2,0,P|208:168|169:151,1,85,8|2,0:0|0:0,0:0:0:0:
10,0,31014,2,0,P|21:40|26:83,1,85,2|0,0:0|0:0,0:0:0:0:
170,152,31449,5,8,0:0:0:0:
63,189,31666,1,2,3:2:0:0:
63,189,31884,2,0,P|55:229|84:259,1,85,2|0,3:2|0:0,0:0:0:0:
176,359,32319,2,0,P|189:320|228:308,1,85,8|0,0:0|0:0,0:0:0:0:
372,354,32753,5,2,0:0:0:0:
323,259,32971,1,0,0:0:0:0:
418,210,33188,1,8,0:0:0:0:
467,305,33406,1,2,3:2:0:0:
467,305,33623,6,0,P|492:223|507:140,1,170,2|8,3:2|0:0,0:0:0:0:
354,35,34275,1,2,3:2:0:0:
418,210,34493,1,2,3:2:0:0:
298,154,34710,5,0,0:0:0:0:
298,154,34819,1,0,0:0:0:0:
298,154,34927,2,0,P|270:170|240:180,1,63.75,2|0,0:3|0:0,0:0:0:0:
221,185,35362,5,2,3:2:0:0:
237,70,35579,1,2,0:0:0:0:
106,169,35797,5,8,0:0:0:0:
122,284,36014,1,2,0:0:0:0:
325,384,36232,5,10,0:0:0:0:
325,384,36449,1,2,0:0:0:0:
341,269,36666,1,8,0:0:0:0:
341,269,36884,1,2,0:0:0:0:
126,359,37101,6,0,P|68:338|46:280,1,127.5,6|0,3:2|0:0,0:0:0:0:
55,250,37536,2,0,P|102:210|163:220,1,127.5,6|0,3:2|0:0,0:0:0:0:
185,243,37971,2,0,P|195:304|155:351,1,127.5,4|0,3:2|0:0,0:0:0:0:
126,359,38406,5,2,0:3:0:0:
55,250,38623,1,2,0:0:0:0:
55,250,38840,2,0,P|73:167|86:84,1,170,6|8,3:2|0:0,0:0:0:0:
178,44,39493,1,2,0:0:0:0:
243,118,39710,6,0,P|278:95|319:85,1,85,10|0,0:0|0:0,0:0:0:0:
407,32,40145,2,0,P|426:69|456:99,1,85,8|0,0:0|3:0,0:0:0:0:
512,223,40579,6,0,P|431:226|405:302,1,170,2|2,3:2|0:3,0:0:0:0:
470,348,41232,1,0,0:0:0:0:
317,279,41449,5,12,0:0:0:0:
317,279,41666,1,8,0:0:0:0:
317,279,41884,1,8,0:0:0:0:
289,367,42101,5,8,0:0:0:0:
289,367,42210,1,0,0:0:0:0:
289,367,42319,2,0,P|230:309|240:228,1,170,4|0,3:1|3:0,0:0:0:0:
384,114,42971,1,2,0:0:0:0:
384,114,43188,2,0,B|354:102|328:107|306:129|306:129|284:153|258:158|229:146,1,170,2|0,3:2|3:0,0:0:0:0:
21,170,43840,5,2,0:0:0:0:
21,170,43949,1,0,0:0:0:0:
21,170,44058,2,0,P|100:147|165:197,1,170,2|0,3:2|0:0,0:0:0:0:
104,305,44710,1,2,0:0:0:0:
104,305,44927,1,2,3:2:0:0:
212,366,45362,5,8,3:2:0:0:
273,258,45579,5,2,0:0:0:0:
273,258,45797,2,0,P|354:281|438:292,1,170,2|0,3:2|3:0,0:0:0:0:
512,192,46449,1,2,0:0:0:0:
438,91,46666,2,0,P|354:102|273:126,1,170,2|0,3:2|3:0,0:0:0:0:
155,8,47319,5,2,0:0:0:0:
155,8,47427,1,0,0:0:0:0:
155,8,47536,2,0,B|143:38|148:64|170:86|170:86|194:108|199:134|187:163,1,170,2|0,3:2|3:0,0:0:0:0:
273,258,48188,1,2,0:0:0:0:
177,343,48406,2,0,P|152:311|111:310,1,85,2|0,3:2|0:3,0:0:0:0:
95,325,48732,1,2,0:3:0:0:
95,325,48840,1,12,0:0:0:0:
95,325,49275,6,0,P|30:335|8:275,1,140.25000428009,6|0,3:2|0:0,0:0:0:0:
58,233,49710,1,8,0:0:0:0:
242,377,49927,6,0,P|321:358|402:351,1,163.625004993439,4|8,3:1|0:0,0:0:0:0:
410,357,50362,1,8,0:0:0:0:
492,198,50579,1,8,0:0:0:0:
246,64,50797,6,0,P|239:145|319:159,1,178.499994552612,6|8,1:2|0:0,0:0:0:0:
320,152,51232,1,8,0:0:0:0:
362,266,51449,1,8,0:0:0:0:
159,337,51666,6,0,B|156:292|171:245|171:245|156:292|127:326,1,187.000005706787,6|8,3:2|0:0,0:0:0:0:
46,384,52319,1,8,0:0:0:0:
46,384,52536,1,8,0:0:0:0:
24,192,52753,6,0,P|60:165|112:159,1,93.5000028533936,6|0,3:2|3:0,0:0:0:0:
310,299,53188,1,8,0:0:0:0:
277,214,53406,1,2,0:0:0:0:
277,214,53623,2,0,P|286:168|292:121,1,93.5000028533936,2|0,3:2|0:0,0:0:0:0:
481,0,54058,5,8,0:0:0:0:
481,0,54275,2,0,P|493:80|512:160,1,163.625004993439,4|8,3:0|0:0,0:0:0:0:
505,167,54710,1,8,0:0:0:0:
292,121,54927,1,8,0:0:0:0:
385,66,55145,5,0,3:0:0:0:
385,66,55253,1,0,3:0:0:0:
385,66,55362,1,8,0:0:0:0:
347,214,55579,1,8,0:0:0:0:
199,176,55797,1,0,3:0:0:0:
237,28,56014,1,2,3:1:0:0:
228,16,56449,5,2,3:1:0:0:
208,187,56666,2,0,P|218:233|232:278,1,93.5000028533936,8|0,0:0|0:0,0:0:0:0:
94,178,57101,1,2,0:0:0:0:
345,287,57753,5,2,0:0:0:0:
345,287,57862,1,0,0:0:0:0:
345,287,57971,2,0,P|419:260|421:181,1,165.749992412568,6|0,3:2|0:0,0:0:0:0:
352,164,58405,1,8,0:0:0:0:
458,23,58623,2,0,P|485:25|512:30,1,55.2499974708558,2|0,0:0|0:0,0:0:0:0:
466,31,58840,2,0,P|412:46|358:54,1,110.499994941712,2|0,3:2|3:0,0:0:0:0:
117,0,59275,1,8,0:0:0:0:
188,93,59492,5,2,0:0:0:0:
188,93,59601,1,0,0:0:0:0:
188,93,59710,2,0,P|125:136|125:175,1,110.499994941712,2|0,3:2|0:0,0:0:0:0:
0,245,60144,1,8,0:0:0:0:
104,268,60362,1,2,0:0:0:0:
214,384,60579,5,2,0:0:0:0:
214,384,60688,1,8,0:0:0:0:
214,384,60797,1,0,3:0:0:0:
318,361,61014,1,8,0:0:0:0:
427,245,61231,5,2,0:0:0:0:
427,245,61340,1,0,0:0:0:0:
427,245,61449,2,0,P|353:258|332:185,1,165.749992412568,2|0,3:2|0:0,0:0:0:0:
396,162,61884,1,8,0:0:0:0:
214,92,62101,2,0,P|247:85|284:74,1,55.2499974708558,2|0,0:0|0:0,0:0:0:0:
221,103,62318,2,0,P|203:156|192:210,1,110.499994941712,2|0,3:2|3:0,0:0:0:0:
0,341,62753,1,8,0:0:0:0:
108,384,62971,1,2,0:0:0:0:
85,168,63188,5,2,3:2:0:0:
221,103,63405,1,2,0:0:0:0:
324,212,63623,1,8,0:0:0:0:
252,343,63840,2,0,P|214:305|227:254,1,110.499994941712,2|0,0:0|3:0,0:0:0:0:
295,274,64166,1,8,0:0:0:0:
295,274,64275,1,0,3:0:0:0:
473,333,64492,1,8,0:0:0:0:
436,150,64710,5,2,0:0:0:0:
436,150,64818,1,8,0:0:0:0:
436,150,64927,2,0,P|454:73|389:31,1,165.749992412568,6|0,3:2|0:0,0:0:0:0:
334,78,65362,1,8,0:0:0:0:
160,0,65579,2,0,P|168:26|172:53,1,55.2499974708558,2|0,0:0|0:0,0:0:0:0:
180,5,65797,2,0,P|163:58|153:112,1,110.499994941712,2|0,3:2|3:0,0:0:0:0:
0,257,66231,1,8,0:0:0:0:
92,306,66449,6,0,P|117:296|144:289,1,55.2499974708558,2|0,0:0|0:0,0:0:0:0:
199,242,66666,1,6,3:2:0:0:
374,384,66884,6,0,P|364:358|357:331,1,55.2499974708558,10|0,0:0|0:0,0:0:0:0:
423,292,67101,2,0,P|432:266|439:239,1,55.2499974708558,8|0,0:0|0:0,0:0:0:0:
374,199,67318,2,0,P|280:179|324:94,1,220.999989883423,4|0,3:1|3:0,0:0:0:0:
512,173,67971,1,8,0:0:0:0:
447,64,68188,5,10,0:0:0:0:
447,64,68297,1,8,0:0:0:0:
447,64,68405,2,0,P|398:37|355:3,1,110.499994941712,2|0,3:2|0:0,0:0:0:0:
235,64,68840,1,8,0:0:0:0:
120,199,69057,5,8,0:0:0:0:
120,199,69166,1,8,0:0:0:0:
120,199,69275,1,2,3:2:0:0:
0,138,69492,1,8,0:0:0:0:
0,138,69710,1,8,0:0:0:0:
59,319,69927,5,8,0:0:0:0:
59,319,70036,1,8,0:0:0:0:
59,319,70145,1,4,3:2:0:0:
226,230,70362,2,0,P|217:203|212:176,2,55.2499974708558,8|8|8,0:3|0:3|0:3,0:0:0:0:
283,306,70797,5,8,3:0:0:0:
411,362,71014,2,0,P|427:309|437:254,1,110.499994941712,2|0,3:2|3:0,0:0:0:0:
344,46,71449,1,8,0:0:0:0:
446,101,71666,5,10,0:0:0:0:
446,101,71775,1,8,0:0:0:0:
446,101,71884,2,0,P|387:156|306:156,1,165.749992412568,6|0,3:2|0:0,0:0:0:0:
288,88,72318,1,8,0:0:0:0:
199,246,72536,2,0,P|207:272|212:299,1,55.2499974708558,2|0,0:0|0:0,0:0:0:0:
212,239,72753,2,0,P|164:213|124:175,1,110.499994941712,2|0,3:2|3:0,0:0:0:0:
367,239,73188,1,8,0:0:0:0:
310,331,73405,1,2,0:0:0:0:
512,384,73623,6,0,P|502:329|488:276,1,110.499994941712,4|2,3:2|0:0,0:0:0:0:
375,57,74057,1,8,0:0:0:0:
496,101,74275,1,2,0:0:0:0:
367,239,74492,5,2,3:2:0:0:
367,239,74601,1,8,0:0:0:0:
367,239,74710,1,0,3:2:0:0:
246,283,74927,1,8,0:0:0:0:
148,113,75144,5,10,0:0:0:0:
148,113,75253,1,8,0:0:0:0:
148,113,75362,2,0,P|69:109|66:207,1,193.374991147995,6|8,3:2|0:0,0:0:0:0:
73,208,75797,1,8,0:0:0:0:
0,384,76014,5,8,0:0:0:0:
0,384,76123,1,8,0:0:0:0:
0,384,76231,1,6,3:2:0:0:
90,359,76449,1,8,0:0:0:0:
180,334,76666,1,8,0:0:0:0:
281,135,76884,5,10,0:0:0:0:
281,135,76993,1,8,0:0:0:0:
281,135,77101,1,4,3:1:0:0:
461,185,77318,1,2,0:0:0:0:
327,315,77536,1,8,0:0:0:0:
356,211,77753,5,2,3:2:0:0:
356,211,77971,2,0,P|368:157|375:102,1,110.499994941712,2|2,0:0|3:2,0:0:0:0:
335,45,78297,1,0,0:0:0:0:
335,45,78405,1,8,0:0:0:0:
207,90,78623,1,8,0:0:0:0:
461,184,78840,6,0,P|478:266|484:348,1,165.749992412568,6|0,3:2|3:0,0:0:0:0:
414,334,79275,1,8,0:0:0:0:
493,117,79492,6,0,B|458:103|429:109|404:134|404:134|379:161|350:166|317:153,1,193.374991147995,4|8,3:1|0:0,0:0:0:0:
313,147,79927,1,8,0:0:0:0:
267,33,80144,1,8,0:0:0:0:
313,236,80362,6,0,P|307:314|232:333,1,165.749992412568,6|8,1:2|0:0,0:0:0:0:
193,286,80797,1,8,0:0:0:0:
233,136,81014,1,8,0:0:0:0:
43,326,81231,6,0,P|68:232|85:137,1,193.374991147995,6|8,3:2|0:0,0:0:0:0:
78,128,81666,1,8,0:0:0:0:
185,194,81884,1,8,0:0:0:0:
310,51,82101,5,8,0:0:0:0:
310,51,82210,1,8,0:0:0:0:
310,51,82318,2,0,P|344:9|397:12,1,110.499994941712,6|0,3:2|0:0,0:0:0:0:
497,168,82753,2,0,P|463:126|410:129,1,110.499994941712,8|0,0:0|3:0,0:0:0:0:
309,284,83188,1,8,0:0:0:0:
395,244,83405,2,0,P|405:285|420:323,1,82.8749962062838,0|8,3:0|0:0,0:0:0:0:
430,328,83623,1,8,0:3:0:0:
512,384,83840,5,8,0:0:0:0:
512,384,83949,1,8,0:0:0:0:
512,384,84057,2,0,P|343:327|169:289,1,356.999989105225,6|0,3:2|0:0,0:0:0:0:
59,330,85797,6,0,P|83:285|103:238,1,101.999996887207,2|0,0:0|0:0,0:0:0:0:
181,207,86449,1,2,0:0:0:0:
181,207,86666,1,2,0:0:0:0:
256,192,86720,12,0,88242,0:0:0:0:
