osu file format v14

[General]
AudioFilename: audio.mp3
AudioLeadIn: 0
PreviewTime: 56829
Countdown: 0
SampleSet: Soft
StackLeniency: 0.4
Mode: 0
LetterboxInBreaks: 0
WidescreenStoryboard: 1

[Editor]
Bookmarks: 580,14493,28406,42319,56232,57971,85797
DistanceSpacing: 1.2
BeatDivisor: 4
GridSize: 8
TimelineZoom: 2.3

[Metadata]
Title:Fairy Tale (TV Size)
TitleUnicode:フェアリーテイル (TV Size)
Artist:Sangatsu no Phantasia
ArtistUnicode:三月のパンタシア
Creator:Silent Rock
Version:Hard
Source:亜人ちゃんは語りたい
Tags:Interviews with Monster Girls Demi-chan wa Kataritai Japanese J-pop Jpop pop Anime Ending ED あのときの歌が聴こえる Ano toki no Uta ga Kikoeru
BeatmapID:3348828
BeatmapSetID:1640745

[Difficulty]
HPDrainRate:4.9
CircleSize:4.5
OverallDifficulty:6.4
ApproachRate:7.2
SliderMultiplier:1.5
SliderTickRate:1

[Events]
//Background and Video events
0,0,"Thanks Kyle Y for the BG.jpg",0,0
Video,-140,"Thanks boss for the video.mp4"
//Break Periods
//Storyboard Layer 0 (Background)
//Storyboard Layer 1 (Fail)
//Storyboard Layer 2 (Pass)
//Storyboard Layer 3 (Foreground)
//Storyboard Layer 4 (Overlay)
//Storyboard Sound Samples

[TimingPoints]
580,434.782608695652,4,2,1,50,1,0
580,-166.666666666667,4,2,1,50,0,0
12753,-333.333333333334,4,2,1,50,0,0
14384,-333.333333333334,4,2,1,5,0,0
14493,-125,4,2,1,60,0,0
18297,-125,4,2,1,5,0,0
18406,-125,4,2,1,60,0,0
26666,-166.666666666667,4,2,1,60,0,0
27536,-125,4,2,1,60,0,0
27971,-125,4,2,2,70,0,0
28406,-100,4,2,1,60,0,0
34927,-125,4,2,1,60,0,0
35253,-125,4,2,1,5,0,0
35362,-100,4,2,1,60,0,0
37427,-100,4,2,1,5,0,0
37536,-100,4,2,1,60,0,0
37862,-100,4,2,1,5,0,0
37971,-100,4,2,1,60,0,0
38297,-100,4,2,1,5,0,0
38406,-100,4,2,1,60,0,0
41449,-100,4,2,2,60,0,0
42319,-100,4,2,3,60,0,0
49058,-90.9090909090909,4,2,3,60,0,0
49601,-90.9090909090909,4,2,3,5,0,0
49710,-90.9090909090909,4,2,3,60,0,0
50797,-83.3333333333333,4,2,3,60,0,0
51666,-90.9090909090909,4,2,3,60,0,0
57971,434.782608695652,4,2,3,70,1,1
57971,-76.9230769230769,4,2,3,70,0,1
58297,-76.9230769230769,4,2,3,5,0,1
58405,-76.9230769230769,4,2,3,70,0,1
61775,-76.9230769230769,4,2,3,5,0,1
61884,-76.9230769230769,4,2,3,70,0,1
65253,-76.9230769230769,4,2,3,5,0,1
65362,-76.9230769230769,4,2,3,70,0,1
70797,-76.9230769230769,4,2,1,70,0,1
71014,-76.9230769230769,4,2,3,70,0,1
72210,-76.9230769230769,4,2,3,5,0,1
72318,-76.9230769230769,4,2,3,70,0,1
84057,-166.666666666667,4,2,1,70,0,0
85797,-166.666666666667,4,2,1,50,0,0
87101,-166.666666666667,4,2,1,40,0,0
87536,-166.666666666667,4,2,1,30,0,0
87970,-166.666666666667,4,2,1,20,0,0
88242,-166.666666666667,4,2,1,10,0,0

[Colours]
Combo1 : 135,248,177
Combo2 : 214,85,63
Combo3 : 232,116,0
Combo4 : 241,198,67

[HitObjects]
77,298,580,6,0,P|71:276|62:255,2,44.999998626709,2|0|0,0:0|0:0|0:0,0:0:0:0:
136,336,1232,2,0,P|170:307|213:313,1,89.999997253418,2|2,0:0|0:0,0:0:0:0:
331,229,2101,2,0,P|345:270|386:286,1,89.999997253418,2|0,0:0|0:0,0:0:0:0:
456,316,2753,1,2,0:0:0:0:
456,316,2971,2,0,P|461:272|476:230,1,89.999997253418,2|0,0:0|0:0,0:0:0:0:
512,165,3623,2,0,P|506:143|497:122,1,44.999998626709,2|0,0:0|0:0,0:0:0:0:
432,91,4058,6,0,P|437:69|446:48,2,44.999998626709,2|0|2,0:0|0:0|0:0,0:0:0:0:
373,132,4710,2,0,P|339:103|296:109,1,89.999997253418,2|0,0:0|0:0,0:0:0:0:
249,163,5362,1,2,0:0:0:0:
249,163,5579,2,0,P|263:205|269:249,1,89.999997253418,2|0,0:0|0:0,0:0:0:0:
312,308,6232,1,2,0:0:0:0:
264,361,6449,1,2,0:0:0:0:
127,316,6884,2,0,P|107:326|85:333,2,44.999998626709,0|2|0,0:0|0:0|0:0,0:0:0:0:
162,253,7536,5,2,0:0:0:0:
99,218,7753,2,0,P|88:198|81:176,1,44.999998626709,0|2,0:0|0:0,0:0:0:0:
132,126,8188,2,0,P|174:111|190:70,1,89.999997253418,2|2,0:0|0:0,0:0:0:0:
333,0,9058,2,0,P|350:40|391:54,1,89.999997253418,2|2,0:0|0:0,0:0:0:0:
444,103,9710,1,0,0:0:0:0:
465,171,9927,2,0,P|439:208|422:249,1,89.999997253418,2|2,0:0|0:0,0:0:0:0:
405,319,10579,2,0,P|385:308|363:301,1,44.999998626709,0|2,0:0|0:0,0:0:0:0:
300,267,11014,6,0,P|283:307|241:321,1,89.999997253418,2|0,0:0|0:0,0:0:0:0:
193,375,11666,1,2,0:0:0:0:
131,337,11884,2,0,P|137:315|148:295,1,44.999998626709,2|2,0:0|0:0,0:0:0:0:
178,230,12319,2,0,P|171:208|160:188,1,44.999998626709,2|0,0:3|0:0,0:0:0:0:
101,148,12753,1,2,3:2:0:0:
320,88,13406,5,0,0:0:0:0:
320,88,13623,1,2,0:0:0:0:
380,307,14493,6,0,P|352:294|323:286,1,60,2|2,0:0|0:0,0:0:0:0:
275,225,14927,2,0,P|250:242|229:263,1,60,2|0,0:0|0:0,0:0:0:0:
179,324,15362,2,0,P|154:306|133:285,1,60,2|2,0:0|0:0,0:0:0:0:
55,274,15796,2,0,P|58:244|65:215,1,60,2|0,0:0|0:0,0:0:0:0:
129,169,16232,5,2,0:0:0:0:
82,104,16449,2,0,P|53:97|24:95,2,60,2|0|2,0:0|0:0|0:0,0:0:0:0:
129,169,17101,1,2,0:0:0:0:
176,234,17319,2,0,P|205:241|234:243,2,60,0|2|0,0:0|0:0|0:0,0:0:0:0:
129,169,17971,6,0,P|160:120|149:62,1,120,2|2,0:0|0:0,0:0:0:0:
216,20,18623,1,0,0:0:0:0:
281,62,18840,2,0,P|309:53|335:40,1,60,2|2,0:0|0:0,0:0:0:0:
403,0,19275,2,0,P|431:8|457:21,1,60,0|2,0:0|0:0,0:0:0:0:
507,82,19710,6,0,P|475:131|486:189,1,120,2|0,0:0|0:0,0:0:0:0:
433,246,20362,1,2,0:0:0:0:
433,246,20579,1,2,0:0:0:0:
287,189,21014,1,2,0:0:0:0:
186,310,21449,6,0,P|130:329|71:339,1,120,2|2,0:0|0:0,0:0:0:0:
18,280,22101,1,0,0:0:0:0:
66,218,22319,2,0,P|57:190|44:164,1,60,2|2,0:0|0:0,0:0:0:0:
3,101,22753,1,0,0:0:0:0:
3,101,22971,2,0,P|12:73|25:47,1,60,2|0,0:0|0:0,0:0:0:0:
99,20,23406,1,2,0:0:0:0:
162,65,23623,1,2,0:0:0:0:
238,80,23840,1,2,0:0:0:0:
238,80,24275,6,0,P|251:106|260:135,2,60,2|0|2,0:0|0:0|0:0,0:0:0:0:
289,21,24927,6,0,P|318:27|348:28,1,60,2|0,0:0|0:0,0:0:0:0:
400,93,25362,1,2,0:0:0:0:
400,93,25579,2,0,P|464:79|489:132,1,120,2|0,0:0|0:0,0:0:0:0:
512,193,26232,2,0,P|491:215|475:240,1,60,2|2,0:0|0:0,0:0:0:0:
432,309,26666,6,0,B|401:290|395:256|395:256|375:285|336:287,1,134.999995880127,2|0,0:0|0:0,0:0:0:0:
272,326,27536,1,2,0:0:0:0:
272,326,27753,1,0,3:0:0:0:
180,357,27971,1,12,0:0:0:0:
180,357,28406,6,0,P|149:337|135:303,1,75,6|2,3:2|0:0,0:0:0:0:
101,220,28840,2,0,P|137:219|167:196,1,75,8|2,0:0|0:0,0:0:0:0:
253,169,29275,5,2,0:0:0:0:
225,83,29493,1,0,0:0:0:0:
315,59,29710,1,8,0:0:0:0:
315,59,29927,2,0,P|375:75|458:116,1,150,2|2,3:2|0:0,0:0:0:0:
397,183,30579,1,8,0:0:0:0:
359,265,30797,2,0,P|299:281|216:322,1,150,2|0,0:0|0:0,0:0:0:0:
149,375,31449,2,0,P|148:338|125:308,1,75,8|2,0:0|3:2,0:0:0:0:
127,218,31884,6,0,P|94:235|58:230,1,75,2|0,3:2|0:0,0:0:0:0:
0,161,32319,2,0,P|1:123|24:95,1,75,8|0,0:0|0:0,0:0:0:0:
96,40,32753,6,0,P|107:75|136:97,1,75,2|0,0:0|0:0,0:0:0:0:
226,89,33188,2,0,P|250:61|255:25,1,75,8|2,0:0|3:2,0:0:0:0:
342,47,33623,6,0,P|413:32|468:79,1,150,2|8,3:2|0:0,0:0:0:0:
507,165,34275,1,2,3:2:0:0:
507,165,34493,2,0,P|491:198|477:233,1,75,2|0,3:2|0:0,0:0:0:0:
483,242,34819,1,0,0:0:0:0:
490,249,34927,1,2,0:3:0:0:
321,384,35362,6,0,P|313:347|286:322,1,75,2|2,3:2|0:0,0:0:0:0:
235,248,35797,2,0,P|209:276|173:284,1,75,8|2,0:0|0:0,0:0:0:0:
101,337,36232,5,10,0:0:0:0:
48,264,36449,1,2,0:0:0:0:
121,211,36666,5,8,0:0:0:0:
135,121,36883,1,2,0:0:0:0:
52,84,37101,6,0,P|36:49|25:14,1,75,6|0,3:2|0:0,0:0:0:0:
135,121,37536,2,0,P|138:83|146:47,1,75,6|0,3:2|0:0,0:0:0:0:
188,194,37971,2,0,P|209:163|235:136,1,75,4|0,3:2|0:0,0:0:0:0:
326,118,38406,5,2,0:3:0:0:
326,118,38623,1,2,0:0:0:0:
385,186,38840,2,0,P|399:260|426:330,1,150,6|8,3:2|0:0,0:0:0:0:
353,370,39493,1,2,0:0:0:0:
290,316,39710,6,0,P|253:304|218:315,1,75,10|0,0:0|0:0,0:0:0:0:
154,365,40145,2,0,P|118:375|83:363,1,75,8|0,0:0|3:0,0:0:0:0:
17,313,40579,6,0,P|42:242|59:169,1,150,2|2,3:2|0:3,0:0:0:0:
129,125,41232,1,0,0:0:0:0:
208,103,41449,2,0,P|244:113|280:120,2,75,12|8|8,0:0|0:0|0:0,0:0:0:0:
192,187,42101,5,8,0:0:0:0:
192,187,42319,2,0,P|166:252|220:295,1,150,4|0,3:1|3:0,0:0:0:0:
301,328,42971,1,2,0:0:0:0:
301,328,43189,2,0,P|311:258|380:248,1,150,2|0,3:2|3:0,0:0:0:0:
450,298,43840,5,2,0:0:0:0:
450,298,44058,2,0,P|478:228|504:158,1,150,2|0,3:2|0:0,0:0:0:0:
436,119,44710,1,2,0:0:0:0:
436,119,44927,2,0,P|421:84|408:49,2,75,2|0|8,3:2|0:0|3:2,0:0:0:0:
364,157,45579,5,2,0:0:0:0:
364,157,45797,2,0,P|293:132|219:116,1,150,2|0,3:2|3:0,0:0:0:0:
164,62,46449,1,2,0:0:0:0:
164,62,46667,2,0,P|115:118|59:168,1,150,2|0,3:2|3:0,0:0:0:0:
49,253,47319,5,2,0:0:0:0:
49,253,47537,2,0,P|118:262|128:331,1,150,2|0,3:2|3:0,0:0:0:0:
198,383,48188,1,2,0:0:0:0:
198,383,48406,2,0,P|235:377|271:368,1,75,2|0,3:2|0:3,0:0:0:0:
275,357,48732,1,2,0:3:0:0:
281,347,48840,1,12,0:0:0:0:
512,384,49275,6,0,P|473:311|462:230,1,165.000005035401,6|8,3:2|0:0,0:0:0:0:
393,158,49927,2,0,B|387:216|334:238|334:238|356:212|360:182,1,165.000005035401,4|8,3:1|0:0,0:0:0:0:
308,82,50579,1,8,0:0:0:0:
212,18,50797,6,0,B|164:1|130:39|130:39|97:77|49:61,1,179.999994506836,6|8,1:2|0:0,0:0:0:0:
10,159,51449,1,8,0:0:0:0:
24,263,51666,6,0,P|102:256|137:325,1,165.000005035401,6|8,3:2|0:0,0:0:0:0:
218,369,52319,1,8,0:0:0:0:
312,353,52536,5,8,0:0:0:0:
312,353,52645,1,2,0:0:0:0:
312,353,52753,2,0,P|372:314|441:250,1,165.000005035401,6|8,3:2|0:0,0:0:0:0:
382,186,53406,1,2,0:0:0:0:
382,186,53623,2,0,P|380:144|384:103,1,82.5000025177003,2|0,3:2|0:0,0:0:0:0:
449,14,54058,5,8,0:0:0:0:
340,3,54275,2,0,P|288:65|207:71,1,165.000005035401,4|8,3:0|0:0,0:0:0:0:
162,159,54927,1,8,0:0:0:0:
144,262,55145,1,0,3:0:0:0:
144,262,55253,1,0,3:0:0:0:
144,262,55362,2,0,P|159:300|167:340,2,82.5000025177003,8|8|0,0:0|0:0|3:0,0:0:0:0:
64,195,56014,1,2,3:1:0:0:
64,195,56449,5,2,3:1:0:0:
162,159,56666,1,8,0:0:0:0:
350,225,57101,5,2,0:0:0:0:
447,194,57971,6,0,P|389:123|431:41,1,194.999991073609,6|8,3:2|0:0,0:0:0:0:
307,109,58623,2,0,P|212:83|116:72,1,194.999991073609,2|0,0:0|3:0,0:0:0:0:
74,181,59275,1,8,0:0:0:0:
17,285,59492,5,2,0:0:0:0:
17,285,59601,1,0,0:0:0:0:
17,285,59710,2,0,P|57:309|67:356,1,97.4999955368044,2|0,3:2|0:0,0:0:0:0:
167,295,60144,2,0,P|202:263|203:215,1,97.4999955368044,8|2,0:0|0:0,0:0:0:0:
300,298,60579,1,2,0:0:0:0:
300,298,60688,1,8,0:0:0:0:
300,298,60797,1,0,3:0:0:0:
391,265,61014,1,8,0:0:0:0:
432,364,61231,5,2,0:0:0:0:
432,364,61340,1,0,0:0:0:0:
432,364,61449,2,0,P|440:268|469:175,1,194.999991073609,2|8,3:2|0:0,0:0:0:0:
424,85,62101,2,0,P|339:112|301:31,1,194.999991073609,2|0,0:0|3:0,0:0:0:0:
206,9,62753,1,8,0:0:0:0:
155,94,62971,1,2,0:0:0:0:
219,168,63188,6,0,P|187:203|168:248,1,97.4999955368044,2|2,3:2|0:0,0:0:0:0:
56,284,63623,1,8,0:0:0:0:
0,179,63840,2,0,B|20:129|4:79|4:79|24:37|70:15,1,194.999991073609,2|0,0:0|3:0,0:0:0:0:
155,94,64492,1,8,0:0:0:0:
269,148,64710,5,2,0:0:0:0:
269,148,64818,1,8,0:0:0:0:
269,148,64927,2,0,P|364:202|421:264,1,194.999991073609,6|8,3:2|0:0,0:0:0:0:
331,302,65579,2,0,P|283:292|234:289,1,97.4999955368044,2|2,0:0|3:2,0:0:0:0:
186,204,66014,2,0,P|149:236|108:262,1,97.4999955368044,0|8,3:0|0:0,0:0:0:0:
33,322,66449,5,2,0:0:0:0:
33,322,66557,1,0,0:0:0:0:
33,322,66666,1,6,3:2:0:0:
0,209,66884,1,10,0:0:0:0:
97,142,67101,1,8,0:0:0:0:
64,29,67318,2,0,B|94:41|115:60|115:60|185:63|245:30,1,194.999991073609,4|0,3:1|3:0,0:0:0:0:
329,113,67971,1,8,0:0:0:0:
432,59,68188,5,10,0:0:0:0:
432,59,68297,1,8,0:0:0:0:
432,59,68405,2,0,P|402:151|386:247,1,194.999991073609,2|8,3:2|0:0,0:0:0:0:
445,348,69057,1,8,0:0:0:0:
334,309,69275,1,2,3:2:0:0:
227,359,69492,1,8,0:0:0:0:
227,359,69710,1,8,0:0:0:0:
116,320,69928,5,8,0:0:0:0:
116,320,70036,1,8,0:0:0:0:
116,320,70144,2,0,P|131:274|140:226,1,97.4999955368044,4|8,3:2|0:3,0:0:0:0:
127,218,70471,1,8,0:3:0:0:
114,211,70579,2,0,P|98:164|89:116,1,97.4999955368044,8|8,0:3|3:0,0:0:0:0:
173,65,71014,5,2,3:2:0:0:
246,107,71231,1,0,3:0:0:0:
326,48,71449,1,8,0:0:0:0:
384,161,71666,5,10,0:0:0:0:
384,161,71775,1,8,0:0:0:0:
384,161,71884,2,0,P|369:249|455:272,1,194.999991073609,6|8,3:2|0:0,0:0:0:0:
310,301,72536,2,0,P|223:342|126:349,1,194.999991073609,2|0,0:0|3:0,0:0:0:0:
69,247,73188,1,8,0:0:0:0:
71,131,73405,1,2,0:0:0:0:
131,32,73623,6,0,P|169:61|214:80,1,97.4999955368044,4|2,3:2|0:0,0:0:0:0:
278,178,74057,2,0,P|316:148|361:129,1,97.4999955368044,8|2,0:0|0:0,0:0:0:0:
478,95,74492,1,2,3:2:0:0:
478,95,74601,1,8,0:0:0:0:
478,95,74710,1,0,3:2:0:0:
450,188,74927,1,8,0:0:0:0:
430,289,75144,5,10,0:0:0:0:
430,289,75253,1,8,0:0:0:0:
430,289,75362,2,0,B|393:268|344:261|344:261|318:305|268:332,1,194.999991073609,6|8,3:2|0:0,0:0:0:0:
175,357,76014,5,8,0:0:0:0:
175,357,76123,1,8,0:0:0:0:
175,357,76231,1,6,3:2:0:0:
200,262,76449,1,8,0:0:0:0:
117,208,76666,1,8,0:0:0:0:
150,121,76884,5,10,0:0:0:0:
150,121,76992,1,8,0:0:0:0:
150,121,77101,2,0,P|196:108|240:86,2,97.4999955368044,4|2|8,3:1|0:0|0:0,0:0:0:0:
117,208,77753,1,2,3:2:0:0:
117,208,77971,2,0,P|71:221|27:243,1,97.4999955368044,2|2,0:0|3:2,0:0:0:0:
21,256,78297,1,0,0:0:0:0:
18,270,78405,1,8,0:0:0:0:
100,352,78623,1,8,0:0:0:0:
203,298,78840,6,0,P|295:326|374:384,1,194.999991073609,6|8,3:2|0:0,0:0:0:0:
366,265,79492,2,0,P|446:218|449:124,1,194.999991073609,4|8,3:1|0:0,0:0:0:0:
362,79,80144,1,8,0:0:0:0:
265,65,80362,6,0,P|173:93|94:151,1,194.999991073609,6|8,1:2|0:0,0:0:0:0:
148,254,81014,1,8,0:0:0:0:
178,366,81231,6,0,P|86:338|7:280,1,194.999991073609,6|8,3:2|0:0,0:0:0:0:
27,184,81884,1,8,0:0:0:0:
37,87,82101,5,8,0:0:0:0:
37,87,82210,1,8,0:0:0:0:
37,87,82318,2,0,P|101:115|155:70,1,146.249993305207,6|0,3:2|0:0,0:0:0:0:
140,52,82753,2,0,P|141:98|183:118,1,97.4999955368044,8|0,0:0|3:0,0:0:0:0:
278,185,83188,2,0,P|279:138|321:118,1,97.4999955368044,8|0,0:0|3:0,0:0:0:0:
424,63,83623,1,8,0:3:0:0:
474,178,83840,5,8,0:0:0:0:
474,178,83949,1,8,0:0:0:0:
474,178,84057,2,0,B|442:260|423:364|423:364|389:306|349:268,1,314.999990386963,6|0,3:2|0:0,0:0:0:0:
275,235,85797,6,0,P|212:260|147:278,1,134.999995880127,2|2,0:0|0:0,0:0:0:0:
76,289,86666,1,2,0:0:0:0:
256,192,86720,12,0,88242,0:0:0:0:
