osu file format v14

[General]
AudioFilename: audio.mp3
AudioLeadIn: 0
PreviewTime: 740
Countdown: 0
SampleSet: Soft
StackLeniency: 0.5
Mode: 0
LetterboxInBreaks: 0
WidescreenStoryboard: 1

[Editor]
DistanceSpacing: 1.1
BeatDivisor: 4
GridSize: 4
TimelineZoom: 1.3

[Metadata]
Title:Fairy Tale
TitleUnicode:フェアリーテイル
Artist:Sangatsu no Phantasia
ArtistUnicode:三月のパンタシア
Creator:Present
Version:Sidetail's Hard
Source:亜人ちゃんは語りたい
Tags:Demi-chan wa Kataritai Interviews With Monster Girls anime ending ed sidetail betastar AngelSnow japanese
BeatmapID:1857020
BeatmapSetID:885430

[Difficulty]
HPDrainRate:5
CircleSize:4
OverallDifficulty:7
ApproachRate:8
SliderMultiplier:1.4
SliderTickRate:1

[Events]
//Background and Video events
0,0,"osu.png",0,0
//Break Periods
2,120903,123623
2,176121,181014
2,206312,208188
//Storyboard Layer 0 (Background)
//Storyboard Layer 1 (Fail)
//Storyboard Layer 2 (Pass)
//Storyboard Layer 3 (Foreground)
//Storyboard Sound Samples

[TimingPoints]
895,434.782608695652,4,2,20,35,1,0
895,-125,4,2,20,35,0,0
1112,-125,4,2,21,35,0,0
1329,-125,4,2,22,35,0,0
1547,-125,4,2,23,35,0,0
1981,-125,4,2,22,35,0,0
2851,-125,4,2,21,35,0,0
3068,-125,4,2,20,35,0,0
3286,-125,4,2,21,35,0,0
3721,-125,4,2,24,35,0,0
3938,-125,4,2,23,35,0,0
4155,-125,4,2,20,35,0,0
4373,-125,4,2,21,35,0,0
4590,-125,4,2,22,35,0,0
4808,-125,4,2,21,35,0,0
5025,-125,4,2,20,35,0,0
5460,-125,4,2,24,35,0,0
5677,-125,4,2,25,35,0,0
5894,-125,4,2,26,35,0,0
6329,-125,4,2,23,35,0,0
6547,-125,4,2,20,35,0,0
6764,-125,4,2,24,35,0,0
7199,-125,4,2,25,35,0,0
7416,-125,4,2,27,35,0,0
7634,-125,4,2,25,35,0,0
7851,-125,4,2,40,35,0,0
8068,-125,4,2,21,35,0,0
8286,-125,4,2,22,35,0,0
8503,-125,4,2,23,35,0,0
8938,-125,4,2,22,35,0,0
9373,-125,4,2,50,35,0,0
9808,-125,4,2,28,35,0,0
10242,-125,4,2,51,35,0,0
10677,-125,4,2,24,35,0,0
10894,-125,4,2,23,35,0,0
11112,-125,4,2,20,35,0,0
11329,-125,4,2,51,35,0,0
11981,-125,4,2,50,35,0,0
12199,-125,4,2,21,35,0,0
12416,-125,4,2,20,35,0,0
12634,-125,4,2,23,35,0,0
12851,-125,4,2,24,35,0,0
13068,-125,4,2,52,35,0,0
13721,-125,4,2,27,35,0,0
13938,-125,4,2,23,35,0,0
14808,-125,4,2,40,35,0,0
15677,-125,4,2,51,35,0,0
16547,-125,4,2,50,35,0,0
17416,-125,4,2,51,35,0,0
19155,-125,4,2,40,35,0,0
20894,-125,4,2,52,35,0,0
21329,-125,4,2,27,35,0,0
21764,-125,4,2,40,35,0,0
22634,-125,4,2,51,35,0,0
23503,-125,4,2,50,35,0,0
24373,-125,4,2,23,35,0,0
25242,-125,4,2,40,35,0,0
25460,-125,4,2,21,35,0,0
25677,-125,4,2,20,35,0,0
25894,-125,4,2,52,35,0,0
27851,-125,4,2,23,35,0,0
28068,-125,4,2,10,35,0,0
28286,-125,4,2,15,35,0,0
28721,-100,4,2,41,35,0,0
28938,-100,4,2,22,35,0,0
29155,-100,4,2,28,35,0,0
29373,-100,4,2,22,35,0,0
29590,-100,4,2,32,35,0,0
29808,-100,4,2,22,35,0,0
30025,-100,4,2,31,35,0,0
30242,-100,4,2,22,35,0,0
30460,-100,4,2,30,35,0,0
30677,-100,4,2,22,35,0,0
30894,-100,4,2,28,35,0,0
31112,-100,4,2,22,35,0,0
31329,-100,4,2,33,35,0,0
31547,-100,4,2,22,35,0,0
31764,-100,4,2,28,35,0,0
31981,-100,4,2,22,35,0,0
32199,-100,4,2,33,35,0,0
32416,-100,4,2,22,35,0,0
32634,-100,4,2,28,35,0,0
32851,-100,4,2,22,35,0,0
33068,-100,4,2,30,35,0,0
33286,-100,4,2,22,35,0,0
33503,-100,4,2,28,35,0,0
33721,-100,4,2,22,35,0,0
33938,-100,4,2,32,35,0,0
34155,-100,4,2,34,35,0,0
34373,-100,4,2,35,35,0,0
34590,-100,4,2,34,35,0,0
34808,-100,4,2,28,35,0,0
35025,-100,4,2,22,35,0,0
35242,-100,4,2,31,35,0,0
35460,-100,4,2,22,35,0,0
35677,-100,4,2,20,35,0,0
36547,-100,4,2,21,35,0,0
37416,-100,4,2,22,35,0,0
37851,-100,4,2,36,35,0,0
38286,-100,4,2,35,35,0,0
39155,-100,4,2,21,35,0,0
40025,-100,4,2,20,35,0,0
40242,-100,4,2,23,35,0,0
40460,-100,4,2,24,35,0,0
40677,-100,4,2,27,35,0,0
40894,-100,4,2,24,35,0,0
42416,-100,4,2,27,35,0,0
42634,-100,4,2,15,50,0,0
57416,-100,4,2,22,50,0,0
58286,-83.3333333333333,4,2,15,65,0,1
70460,-83.3333333333333,4,2,15,50,0,0
70677,-83.3333333333333,4,3,15,50,0,0
71547,-83.3333333333333,4,2,15,50,0,0
72199,-83.3333333333333,4,2,15,65,0,1
83721,-83.3333333333333,4,3,15,65,0,1
84373,-83.3333333333333,4,2,15,50,0,0
86112,-83.3333333333333,4,2,40,50,0,0
86329,-83.3333333333333,4,2,21,50,0,0
86546,-83.3333333333333,4,2,22,50,0,0
86764,-83.3333333333333,4,2,24,50,0,0
87198,-83.3333333333333,4,2,22,50,0,0
88068,-83.3333333333333,4,2,21,50,0,0
88285,-83.3333333333333,4,2,20,50,0,0
88503,-83.3333333333333,4,2,21,50,0,0
88938,-83.3333333333333,4,2,24,50,0,0
89155,-83.3333333333333,4,2,23,50,0,0
89372,-83.3333333333333,4,2,20,50,0,0
89590,-83.3333333333333,4,2,21,50,0,0
89807,-83.3333333333333,4,2,22,50,0,0
90025,-83.3333333333333,4,2,21,50,0,0
90242,-83.3333333333333,4,2,20,50,0,0
90677,-83.3333333333333,4,2,24,50,0,0
90894,-83.3333333333333,4,2,25,50,0,0
91111,-83.3333333333333,4,2,26,50,0,0
91546,-83.3333333333333,4,2,23,50,0,0
91764,-83.3333333333333,4,2,20,50,0,0
91981,-83.3333333333333,4,2,24,50,0,0
92416,-83.3333333333333,4,2,25,50,0,0
92633,-83.3333333333333,4,2,27,50,0,0
92851,-83.3333333333333,4,2,25,50,0,0
93068,-83.3333333333333,4,2,60,50,0,0
93285,-83.3333333333333,4,2,21,50,0,0
93503,-83.3333333333333,4,2,22,50,0,0
93720,-83.3333333333333,4,2,23,50,0,0
94155,-83.3333333333333,4,2,22,50,0,0
95025,-83.3333333333333,4,2,28,50,0,0
95459,-83.3333333333333,4,2,21,50,0,0
95894,-83.3333333333333,4,2,24,50,0,0
96111,-83.3333333333333,4,2,23,50,0,0
96329,-83.3333333333333,4,2,20,50,0,0
96546,-83.3333333333333,4,2,21,50,0,0
97198,-83.3333333333333,4,2,22,50,0,0
97416,-83.3333333333333,4,2,21,50,0,0
97633,-83.3333333333333,4,2,20,50,0,0
97851,-83.3333333333333,4,2,23,50,0,0
98068,-83.3333333333333,4,2,24,50,0,0
98286,-83.3333333333333,4,2,44,50,0,0
99155,-83.3333333333333,4,2,23,50,0,0
100025,-100,4,2,15,50,0,0
106981,-100,4,2,20,50,0,0
107851,-100,4,2,21,50,0,0
108721,-100,4,2,22,50,0,0
109155,-100,4,2,36,50,0,0
109590,-100,4,2,35,50,0,0
110460,-100,4,2,21,50,0,0
111329,-100,4,2,20,50,0,0
111547,-100,4,2,23,50,0,0
111764,-100,4,2,24,50,0,0
111981,-100,4,2,27,50,0,0
112199,-100,4,2,23,50,0,0
112416,-100,4,2,15,50,0,0
112851,-100,4,2,24,50,0,0
113068,-100,4,2,15,50,0,0
113286,-100,4,2,15,50,0,0
124373,-100,4,2,15,50,0,0
129590,-83.3333333333333,4,2,15,65,0,1
141764,-83.3333333333333,4,2,15,50,0,0
141981,-83.3333333333333,4,3,15,50,0,0
142851,-83.3333333333333,4,2,15,50,0,0
143503,-83.3333333333333,4,2,15,65,0,1
155677,-100,4,2,15,50,0,0
216547,-83.3333333333333,4,2,15,65,0,1
228721,-83.3333333333333,4,2,15,50,0,0
230460,-125,4,2,20,35,0,0
230677,-125,4,2,21,35,0,0
230894,-125,4,2,22,35,0,0
231112,-125,4,2,23,35,0,0
231546,-125,4,2,22,35,0,0
232416,-125,4,2,21,35,0,0
232633,-125,4,2,20,35,0,0
232851,-125,4,2,21,35,0,0
233286,-125,4,2,24,35,0,0
233503,-125,4,2,23,35,0,0
233720,-125,4,2,20,35,0,0
233938,-125,4,2,21,35,0,0
234155,-125,4,2,22,35,0,0
234373,-125,4,2,21,35,0,0
234590,-125,4,2,20,35,0,0
235025,-125,4,2,24,35,0,0
235242,-125,4,2,25,35,0,0
235459,-125,4,2,26,35,0,0
235894,-125,4,2,23,35,0,0
236112,-125,4,2,20,35,0,0
236329,-125,4,2,24,35,0,0
236764,-125,4,2,25,35,0,0
236981,-125,4,2,27,35,0,0
237199,-125,4,2,25,35,0,0
237416,-125,4,2,20,35,0,0
237633,-125,4,2,21,35,0,0
237851,-125,4,2,22,35,0,0
238068,-125,4,2,23,35,0,0
238503,-125,4,2,22,35,0,0
239373,-125,4,2,28,35,0,0
239807,-125,4,2,21,35,0,0
240242,-125,4,2,24,35,0,0
240459,-125,4,2,23,35,0,0
240677,-125,4,2,20,35,0,0
240894,-125,4,2,21,35,0,0
241546,-125,4,2,22,35,0,0
241764,-125,4,2,21,35,0,0
241981,-125,4,2,20,35,0,0
242199,-125,4,2,23,35,0,0
242416,-125,4,2,24,35,0,0
243286,-125,4,2,27,35,0,0
243503,-125,4,2,23,35,0,0
244476,434.782608695652,4,2,37,30,1,0
244693,-125,4,2,38,30,0,0
244911,-125,4,2,24,30,0,0
245128,-125,4,2,25,30,0,0
245345,-125,4,2,21,30,0,0
245617,545.454545454546,4,2,24,30,1,0
245889,-100,4,2,25,30,0,0
246332,600,4,2,28,30,1,0
246382,-100,4,2,28,5,0,0

[Colours]
Combo1 : 0,176,0
Combo2 : 255,43,255
Combo3 : 255,112,43
Combo4 : 19,137,255
Combo5 : 217,217,0
SliderTrackOverride : 17,89,115
SliderBorder : 133,127,210

[HitObjects]
172,352,895,6,0,L|176:272,1,56,8|8,0:0|0:0,0:0:0:0:
152,224,1329,1,8,0:0:0:0:
224,240,1547,2,0,P|273:245|328:195,2,112,8|8|8,0:0|0:0|0:0,0:0:0:0:
224,240,2851,6,0,L|227:185,1,56,8|8,0:0|0:0,0:0:0:0:
236,108,3286,2,0,P|284:124|344:108,1,112,8|8,0:0|0:0,0:0:0:0:
372,40,3938,1,8,0:0:0:0:
420,100,4155,1,8,0:0:0:0:
388,172,4373,6,0,L|385:227,1,56,8|8,0:0|0:0,0:0:0:0:
424,296,4808,1,8,0:0:0:0:
348,296,5025,2,0,P|292:284|220:307,1,112,8|8,0:0|0:0,0:0:0:0:
196,356,5677,1,8,0:0:0:0:
164,288,5894,6,0,P|152:236|172:156,1,112,8|8,0:0|0:0,0:0:0:0:
164,104,6547,1,8,0:0:0:0:
232,144,6764,2,0,P|288:156|344:144,1,112,8|8,0:0|0:0,0:0:0:0:
416,144,7416,2,0,L|403:198,1,56,8|8,0:0|0:0,0:0:0:0:
396,212,7742,1,0,0:0:0:0:
392,228,7851,6,0,L|404:282,1,56,10|8,0:0|0:0,0:0:0:0:
472,320,8286,1,8,0:0:0:0:
404,360,8503,2,0,P|348:349|292:361,1,112,10|8,0:0|0:0,0:0:0:0:
224,212,9373,6,0,B|227:323,1,112,10|8,0:0|0:0,0:0:0:0:
48,352,10242,2,0,P|104:363|160:351,1,112,10|8,0:0|0:0,0:0:0:0:
227,323,10894,2,0,L|225:267,1,56,10|8,0:0|0:0,0:0:0:0:
292,228,11329,6,0,P|353:241|421:221,1,112,10|8,0:0|0:0,0:0:0:0:
470,193,11981,1,10,0:0:0:0:
482,185,12090,1,0,0:0:0:0:
494,177,12199,2,0,L|481:123,1,56,8|8,0:0|0:0,0:0:0:0:
423,69,12634,2,0,L|395:117,1,56,10|8,0:0|0:0,0:0:0:0:
317,106,13068,6,0,B|277:90|237:106|237:106|189:122|145:94,1,168,10|8,0:0|0:0,0:0:0:0:
106,37,13938,1,8,0:0:0:0:
106,37,14808,5,10,0:0:0:0:
76,108,15025,1,0,0:0:0:0:
104,180,15242,2,0,L|112:235,1,56,0|0,0:0|0:0,0:0:0:0:
108,312,15677,2,0,L|87:363,2,56,10|0|0,0:0|0:0|0:0,0:0:0:0:
176,280,16329,1,0,0:0:0:0:
243,311,16547,6,0,P|295:326|348:309,1,112,10|0,0:0|0:0,0:0:0:0:
400,252,17199,1,0,0:0:0:0:
428,324,17416,2,0,L|443:377,1,56,10|0,0:0|0:0,0:0:0:0:
365,363,17851,2,0,L|349:309,1,56,0|0,0:0|0:0,0:0:0:0:
400,252,18286,6,0,P|411:197|400:143,1,112,10|0,0:0|0:0,0:0:0:0:
352,84,18938,1,0,0:0:0:0:
428,72,19155,1,10,0:0:0:0:
400,143,19373,1,0,0:0:0:0:
324,156,19590,2,0,L|272:136,1,56,0|0,0:0|0:0,0:0:0:0:
212,84,20025,6,0,P|156:72|100:84,1,112,10|0,0:0|0:0,0:0:0:0:
32,116,20677,1,0,0:0:0:0:
92,164,20894,2,0,P|104:224|84:280,1,112,10|10,0:0|0:0,0:0:0:0:
224,344,21764,6,0,P|280:356|340:340,1,112,10|0,0:0|0:0,0:0:0:0:
268,212,22634,2,0,P|268:180|264:148,1,56,10|0,0:0|0:0,0:0:0:0:
224,88,23068,1,0,0:0:0:0:
304,84,23286,1,0,0:0:0:0:
348,156,23503,5,10,0:0:0:0:
348,156,23721,2,0,L|400:136,2,56,0|0|0,0:0|0:0|0:0,0:0:0:0:
265,156,24373,1,10,0:0:0:0:
224,88,24591,1,0,0:0:0:0:
144,80,24808,2,0,L|116:144,1,56,0|0,0:0|0:0,0:0:0:0:
68,192,25242,5,10,0:0:0:0:
144,208,25460,1,8,0:0:0:0:
184,276,25677,1,8,0:0:0:0:
180,356,25894,2,0,L|236:352,1,56,10|0,0:0|0:0,0:0:0:0:
312,324,26329,1,8,0:0:0:0:
264,256,26547,1,10,0:0:0:0:
272,172,26764,1,8,0:0:0:0:
340,120,26981,6,0,B|401:129|415:193|415:193|427:128|502:114,1,224,10|10,0:0|0:0,0:0:0:0:
487,118,28068,1,2,0:0:0:0:
492,200,28286,2,0,P|484:252|496:308,1,84,2|2,0:0|0:0,0:0:0:0:
488,312,28721,6,0,P|450:319|405:342,1,70,14|8,0:0|0:0,0:0:0:0:
352,368,29155,1,10,0:0:0:0:
352,368,29373,1,8,0:0:0:0:
352,284,29590,2,0,L|376:218,1,70,10|8,0:0|0:0,0:0:0:0:
304,188,30025,2,0,L|279:122,1,70,10|10,0:0|0:0,0:0:0:0:
252,276,30460,6,0,P|211:282|164:268,1,70,14|8,0:0|0:0,0:0:0:0:
112,264,30894,1,10,0:0:0:0:
112,264,31112,1,8,0:0:0:0:
164,200,31329,2,0,L|178:132,1,70,10|8,0:0|0:0,0:0:0:0:
168,56,31764,2,0,P|202:61|260:47,1,70,10|10,0:0|0:0,0:0:0:0:
376,3,32199,6,0,P|371:37|376:72,1,70,12|8,0:0|0:0,0:0:0:0:
443,127,32634,1,10,0:0:0:0:
443,127,32851,1,8,0:0:0:0:
512,169,33068,2,0,L|480:261,1,70,10|8,0:0|0:0,0:0:0:0:
501,314,33503,2,0,L|423:313,1,70,10|10,0:0|0:0,0:0:0:0:
336,271,33938,6,0,L|358:204,1,70,12|8,0:0|0:0,0:0:0:0:
348,123,34373,1,10,0:0:0:0:
348,123,34590,1,8,0:0:0:0:
256,119,34808,2,0,L|278:186,1,70,10|8,0:0|0:0,0:0:0:0:
272,199,35134,1,0,0:0:0:0:
268,211,35242,2,0,L|290:278,1,70,10|8,0:0|0:0,0:0:0:0:
152,347,35677,6,0,L|174:280,1,70,12|0,0:0|0:0,0:0:0:0:
168,192,36112,1,2,0:0:0:0:
168,192,36329,1,0,0:0:0:0:
56,248,36547,2,0,L|78:181,1,70,10|0,0:0|0:0,0:0:0:0:
88,92,36981,1,2,0:0:0:0:
88,92,37199,1,0,0:0:0:0:
200,112,37416,6,0,P|179:165|184:223,1,105,10|0,0:0|0:0,0:0:0:0:
200,244,37851,2,0,P|252:242|300:262,1,105,12|0,0:0|0:0,0:0:0:0:
336,248,38286,2,0,P|356:194|353:153,1,70,12|0,0:0|0:0,0:0:0:0:
352,163,38612,1,0,0:0:0:0:
348,144,38721,2,0,L|440:144,1,70
444,224,39155,6,0,L|432:308,1,70,12|0,0:0|0:0,0:0:0:0:
388,356,39590,1,2,0:0:0:0:
388,356,39808,1,0,0:0:0:0:
328,296,40025,2,0,L|318:226,1,70,10|8,0:0|0:0,0:0:0:0:
240,352,40460,2,0,L|227:276,1,70,12|12,0:0|0:0,0:0:0:0:
213,279,40786,1,0,0:0:0:0:
200,272,40894,6,0,L|187:196,1,70,10|0,0:0|0:0,0:0:0:0:
104,236,41329,2,0,P|98:201|103:166,1,70,4|0,0:0|0:0,0:0:0:0:
152,104,41764,1,2,0:0:0:0:
193,8,41981,1,4,0:0:0:0:
254,92,42199,1,4,0:0:0:0:
100,48,42416,1,4,0:0:0:0:
88,56,42525,1,0,0:0:0:0:
76,64,42634,6,0,L|76:164,1,70,12|0,0:0|0:0,0:0:0:0:
40,200,43068,1,8,0:0:0:0:
76,268,43286,1,0,0:0:0:0:
44,340,43503,2,0,P|88:344|136:336,1,70,8|0,0:0|0:0,0:0:0:0:
188,324,43938,1,8,0:0:0:0:
135,239,44155,1,0,0:0:0:0:
123,223,44264,1,0,0:0:0:0:
111,207,44373,6,0,L|63:290,1,70,8|0,0:0|0:0,0:0:0:0:
24,200,44808,2,0,L|59:139,1,70,8|0,0:0|0:0,0:0:0:0:
24,64,45242,2,0,L|96:64,1,70,8|0,0:0|0:0,0:0:0:0:
168,40,45677,1,2,0:0:0:0:
252,128,45894,1,0,0:0:0:0:
264,116,46003,1,0,0:0:0:0:
276,104,46112,6,0,L|276:32,1,70,8|0,0:0|0:0,0:0:0:0:
352,12,46547,1,8,0:0:0:0:
352,12,46764,1,0,0:0:0:0:
424,36,46981,2,0,P|432:84|420:121,1,70,8|0,0:0|0:0,0:0:0:0:
384,168,47416,1,8,0:0:0:0:
424,272,47634,1,0,0:0:0:0:
412,284,47742,1,0,0:0:0:0:
400,296,47851,6,0,L|328:284,1,70,8|0,0:0|0:0,0:0:0:0:
288,220,48286,2,0,L|218:231,1,70,8|0,0:0|0:0,0:0:0:0:
188,304,48721,1,8,0:0:0:0:
140,240,48938,1,0,0:0:0:0:
135,224,49047,1,0,0:0:0:0:
131,208,49155,1,2,0:0:0:0:
36,24,49590,6,0,P|88:36|152:20,1,105,12|0,0:0|0:0,0:0:0:0:
152,20,50025,1,2,0:0:0:0:
272,20,50242,2,0,P|280:80|272:132,1,105,12|0,0:0|0:0,0:0:0:0:
272,144,50677,1,2,0:0:0:0:
272,144,50894,1,2,0:0:0:0:
152,148,51112,6,0,P|140:200|156:264,1,105,12|0,0:0|0:0,0:0:0:0:
164,264,51547,1,2,0:0:0:0:
164,264,51764,1,2,0:0:0:0:
284,268,51981,2,0,P|336:256|400:271,1,105,12|0,0:0|0:0,0:0:0:0:
408,280,52416,1,2,0:0:0:0:
408,280,52634,1,2,0:0:0:0:
408,280,52851,1,2,0:0:0:0:
488,184,53068,6,0,P|496:220|488:264,2,70,12|8|2,0:0|0:0|0:0,0:0:0:0:
464,96,53721,1,8,0:0:0:0:
392,164,53938,2,0,P|356:168|323:159,1,70,8|8,0:0|0:0,0:0:0:0:
328,52,54373,1,2,0:0:0:0:
236,100,54590,6,0,P|220:156|228:204,1,105,8|0,0:0|0:0,0:0:0:0:
236,216,55025,1,2,0:0:0:0:
244,348,55242,2,0,L|332:332,1,70,2|2,0:0|0:0,0:0:0:0:
332,336,55568,1,2,0:0:0:0:
348,344,55677,1,2,0:0:0:0:
476,352,55894,1,2,0:0:0:0:
348,344,56112,1,2,0:0:0:0:
424,216,56329,6,0,P|428:168|420:108,1,105,10|0,0:0|0:0,0:0:0:0:
412,100,56764,1,10,0:0:0:0:
332,192,56981,1,10,0:0:0:0:
296,72,57199,1,0,0:0:0:0:
204,160,57416,2,0,L|197:229,1,70,8|0,0:0|0:0,0:0:0:0:
156,344,57851,2,0,L|132:276,1,70,0|0,0:0|0:0,0:0:0:0:
63,130,58286,6,0,L|51:262,1,125.999996154785,12|0,0:0|0:0,0:0:0:0:
52,272,58721,1,2,0:0:0:0:
164,352,58938,1,0,0:0:0:0:
164,352,59047,1,0,0:0:0:0:
164,352,59155,2,0,P|208:344|268:360,1,83.9999974365235,8|8,0:0|0:0,0:0:0:0:
368,348,59590,1,2,0:0:0:0:
368,348,59808,1,0,0:0:0:0:
304,224,60025,6,0,P|312:168|344:228,1,167.999994873047,8|2,0:0|0:0,0:0:0:0:
364,344,60677,1,8,0:0:0:0:
246,350,60894,2,0,L|182:366,2,41.9999987182618,8|8|8,0:0|0:0|0:0,0:0:0:0:
364,344,61329,1,2,0:0:0:0:
452,260,61547,1,8,0:0:0:0:
304,224,61764,6,0,P|287:142|304:60,1,167.999994873047,8|2,0:0|0:0,0:0:0:0:
404,16,62416,1,8,0:0:0:0:
404,16,62634,2,0,P|424:8|452:4,2,41.9999987182618,8|8|8,0:0|0:0|0:0,0:0:0:0:
388,120,63068,1,2,0:0:0:0:
303,60,63286,1,0,0:0:0:0:
452,88,63503,6,0,P|452:152|421:182,1,83.9999974365235,8|8,0:0|0:0,0:0:0:0:
364,268,63938,2,0,P|364:203|394:173,1,83.9999974365235,2|8,0:0|0:0,0:0:0:0:
468,236,64373,1,8,0:0:0:0:
482,246,64481,1,8,0:0:0:0:
496,257,64590,1,8,0:0:0:0:
440,368,64808,1,2,0:0:0:0:
372,276,65025,1,8,0:0:0:0:
372,276,65134,1,8,0:0:0:0:
372,276,65242,6,0,P|330:271|288:276,1,83.9999974365235,12|0,0:0|0:0,0:0:0:0:
224,368,65677,1,2,0:0:0:0:
172,272,65894,1,8,0:0:0:0:
158,261,66003,1,8,0:0:0:0:
145,250,66112,2,0,L|144:151,1,83.9999974365235,8|8,0:0|0:0,0:0:0:0:
220,104,66547,1,2,0:0:0:0:
220,104,66764,1,8,0:0:0:0:
324,204,66981,6,0,P|368:212|424:192,1,83.9999974365235,12|2,0:0|0:0,0:0:0:0:
472,132,67416,1,2,0:0:0:0:
340,80,67634,2,0,P|366:139|383:76,1,167.999994873047,12|8,0:0|0:0,0:0:0:0:
472,132,68286,1,2,0:0:0:0:
405,202,68503,1,2,0:0:0:0:
387,212,68612,1,2,0:0:0:0:
370,222,68721,6,0,L|266:222,1,83.9999974365235,12|0,0:0|0:0,0:0:0:0:
216,304,69155,1,2,0:0:0:0:
216,304,69373,1,2,0:0:0:0:
286,222,69590,1,8,0:0:0:0:
216,304,69808,1,2,0:0:0:0:
216,304,70025,1,2,0:0:0:0:
184,213,70242,1,2,0:0:0:0:
184,213,70351,1,2,0:0:0:0:
184,213,70460,5,8,0:0:0:0:
286,222,70677,2,0,L|333:210,3,41.9999987182618,8|8|8|8,0:0|0:0|0:0|0:0,0:0:0:0:
362,212,71112,1,4,0:0:0:0:
428,316,71329,1,4,0:0:0:0:
311,320,71547,1,8,0:0:0:0:
311,320,71764,1,2,0:0:0:0:
362,212,71981,1,2,0:0:0:0:
354,194,72090,1,8,0:0:0:0:
346,177,72199,6,0,L|344:48,1,125.999996154785,12|0,0:0|0:0,0:0:0:0:
344,32,72634,1,2,0:0:0:0:
240,48,72851,1,8,0:0:0:0:
240,48,72960,1,8,0:0:0:0:
240,48,73068,2,0,P|190:51|147:32,1,83.9999974365235,8|8,2:0|0:0,0:0:0:0:
60,40,73503,1,2,0:0:0:0:
124,144,73721,1,0,0:0:0:0:
240,48,73938,6,0,P|304:50|253:90,1,167.999994873047,12|2,0:0|0:0,0:0:0:0:
158,39,74590,1,8,0:0:0:0:
124,144,74808,2,0,L|92:172,2,41.9999987182618,8|8|8,0:0|0:0|0:0,0:0:0:0:
253,90,75242,1,2,0:0:0:0:
232,236,75460,1,8,0:0:0:0:
232,236,75568,1,8,0:0:0:0:
232,236,75677,6,0,P|180:227|137:183,1,83.9999974365235,12|0,0:0|0:0,0:0:0:0:
64,108,76112,1,2,0:0:0:0:
163,216,76329,1,2,0:0:0:0:
163,216,76438,1,2,0:0:0:0:
163,216,76547,2,0,P|169:257|158:297,1,83.9999974365235,8|8,0:0|0:0,0:0:0:0:
56,353,76981,1,2,0:0:0:0:
165,305,77199,1,2,0:0:0:0:
165,305,77308,1,2,0:0:0:0:
165,305,77416,6,0,P|210:298|259:311,1,83.9999974365235,12|8,0:0|0:0,0:0:0:0:
349,354,77851,1,2,0:0:0:0:
349,354,78068,2,0,P|333:286|356:181,1,167.999994873047,8|8,0:0|0:0,0:0:0:0:
366,179,78612,1,8,0:0:0:0:
366,179,78721,1,10,0:0:0:0:
442,273,78938,1,10,0:0:0:0:
290,235,79155,6,0,P|226:219|159:236,1,125.999996154785,12|0,0:0|0:0,0:0:0:0:
152,238,79590,1,2,0:0:0:0:
74,349,79808,2,0,P|84:294|68:223,1,125.999996154785,12|0,0:0|0:0,0:0:0:0:
64,216,80242,1,2,0:0:0:0:
64,216,80460,1,2,0:0:0:0:
20,88,80677,6,0,P|74:98|145:82,1,125.999996154785,12|0,0:0|0:0,0:0:0:0:
156,76,81112,1,2,0:0:0:0:
156,76,81329,1,2,0:0:0:0:
276,16,81547,2,0,P|265:70|281:141,1,125.999996154785,12|0,0:0|0:0,0:0:0:0:
292,159,81981,1,2,0:0:0:0:
292,159,82199,1,2,0:0:0:0:
352,268,82416,1,2,0:0:0:0:
336,279,82525,1,2,0:0:0:0:
320,287,82634,6,0,L|192:271,1,125.999996154785,8|0,0:0|0:0,0:0:0:0:
180,268,83068,1,6,0:0:0:0:
50,267,83286,1,8,0:0:0:0:
155,343,83503,1,6,0:0:0:0:
114,220,83721,1,8,0:0:0:0:
75,343,83938,1,8,0:0:0:0:
37,235,84155,1,4,0:0:0:0:
40,217,84264,1,0,0:0:0:0:
44,200,84373,6,0,L|59:114,1,83.9999974365235,12|0,0:0|0:0,0:0:0:0:
129,137,84808,2,0,L|113:222,1,83.9999974365235
180,268,85242,1,0,0:0:0:0:
180,268,85460,2,0,P|256:288|352:260,1,167.999994873047
456,236,86112,5,12,0:0:0:0:
496,164,86329,1,8,0:0:0:0:
456,92,86547,1,8,0:0:0:0:
376,92,86764,1,8,0:0:0:0:
296,236,87199,1,8,0:0:0:0:
376,92,87634,1,8,0:0:0:0:
296,236,88068,5,8,0:0:0:0:
256,164,88286,1,8,0:0:0:0:
296,92,88503,1,8,0:0:0:0:
376,236,88938,1,8,0:0:0:0:
336,308,89155,1,8,0:0:0:0:
256,308,89373,1,8,0:0:0:0:
216,236,89590,5,8,0:0:0:0:
176,308,89808,1,8,0:0:0:0:
216,380,90025,1,8,0:0:0:0:
296,380,90242,1,8,0:0:0:0:
376,236,90677,1,8,0:0:0:0:
336,308,90894,1,8,0:0:0:0:
296,236,91112,1,8,0:0:0:0:
216,92,91547,5,8,0:0:0:0:
256,20,91764,1,8,0:0:0:0:
296,92,91982,1,8,0:0:0:0:
136,236,92416,1,8,0:0:0:0:
96,308,92633,1,8,0:0:0:0:
56,236,92851,1,8,0:0:0:0:
16,308,93068,5,12,0:0:0:0:
56,380,93286,1,8,0:0:0:0:
136,380,93503,1,8,0:0:0:0:
176,308,93721,1,8,0:0:0:0:
256,164,94155,1,8,0:0:0:0:
176,308,94590,1,8,0:0:0:0:
336,308,95025,5,8,0:0:0:0:
176,308,95460,1,8,0:0:0:0:
256,164,95894,1,8,0:0:0:0:
216,236,96112,1,8,0:0:0:0:
136,236,96329,1,8,0:0:0:0:
96,164,96547,5,12,0:0:0:0:
176,20,96981,1,8,0:0:0:0:
136,92,97199,1,8,0:0:0:0:
176,164,97416,1,8,0:0:0:0:
256,164,97634,1,8,0:0:0:0:
296,236,97851,1,8,0:0:0:0:
256,308,98068,1,8,0:0:0:0:
176,308,98286,6,0,P|156:224|248:313,1,335.999989746094,14|8,0:0|0:0,0:0:0:0:
255,308,100025,5,8,0:0:0:0:
320,344,100242,2,0,P|360:344|413:323,1,70,8|0,0:0|0:0,0:0:0:0:
456,300,100677,1,8,0:0:0:0:
392,260,100894,2,0,P|379:215|377:177,1,70,2|0,0:0|0:0,0:0:0:0:
431,139,101329,1,8,0:0:0:0:
358,119,101547,1,8,0:0:0:0:
307,173,101764,5,8,0:0:0:0:
236,152,101981,2,0,L|226:111,3,35,8|8|8|8,0:0|0:0|0:0|0:0,0:0:0:0:
220,88,102416,1,8,0:0:0:0:
152,52,102634,2,0,P|108:48|60:56,1,70,2|0,0:0|0:0,0:0:0:0:
32,108,103068,2,0,P|36:152|24:204,1,70,8|0,0:0|0:0,0:0:0:0:
4,248,103503,5,8,0:0:0:0:
80,240,103721,2,0,L|128:236,3,35,8|8|8|8,0:0|0:0|0:0|0:0,0:0:0:0:
148,236,104155,1,8,0:0:0:0:
224,228,104373,2,0,P|220:272|226:311,1,70,2|0,0:0|0:0,0:0:0:0:
280,352,104808,2,0,P|324:344|364:344,1,70,8|0,0:0|0:0,0:0:0:0:
424,356,105242,5,8,0:0:0:0:
400,284,105460,2,0,L|420:248,3,35,8|8|8|8,0:0|0:0|0:0|0:0,0:0:0:0:
436,220,105894,1,8,0:0:0:0:
360,204,106112,2,0,P|324:212|276:208,1,70,2|0,0:0|0:0,0:0:0:0:
216,204,106547,1,8,0:0:0:0:
216,204,106981,6,0,P|192:253|218:330,1,140,8|0,0:0|0:0,0:0:0:0:
288,364,107634,1,4,0:0:0:0:
356,328,107851,2,0,P|379:278|353:201,1,140,10|2,0:0|0:0,0:0:0:0:
284,168,108503,1,0,0:0:0:0:
216,204,108721,6,0,P|159:214|89:200,1,105,14|0,0:0|0:0,0:0:0:0:
76,216,109155,2,0,P|86:159|79:96,1,105,12|0,0:0|0:0,0:0:0:0:
68,76,109590,2,0,P|125:82|162:70,1,70,12|0,0:0|0:0,0:0:0:0:
153,71,109916,1,0,0:0:0:0:
168,64,110025,2,0,P|203:56|259:71,1,70,4|0,0:0|0:0,0:0:0:0:
348,32,110460,6,0,P|340:112|360:184,1,140,12|2,0:0|0:0,0:0:0:0:
424,196,111112,1,0,0:0:0:0:
364,244,111329,2,0,P|328:252|280:244,1,70,10|8,0:0|0:0,0:0:0:0:
256,180,111764,2,0,P|220:172|172:180,1,70,12|12,0:0|0:0,0:0:0:0:
116,200,112199,5,12,0:0:0:0:
172,252,112416,2,0,P|176:280|172:316,2,35,8|8|8,0:0|0:0|0:0,0:0:0:0:
116,200,112851,1,10,0:0:0:0:
187,175,113068,2,0,P|192:132|184:84,1,70,10|8,0:0|0:0,0:0:0:0:
136,52,113503,1,8,0:0:0:0:
264,52,113721,1,8,0:0:0:0:
276,60,113830,1,8,0:0:0:0:
288,68,113939,6,0,L|288:168,1,70,8|0,0:0|0:0,0:0:0:0:
260,220,114373,1,2,0:0:0:0:
260,220,114591,1,8,0:0:0:0:
287,295,114808,2,0,P|328:304|384:288,1,70,8|0,0:0|0:0,0:0:0:0:
448,244,115243,1,2,0:0:0:0:
360,144,115460,1,8,0:0:0:0:
340,137,115569,1,8,0:0:0:0:
321,130,115678,6,0,P|312:176|324:224,1,70,8|0,0:0|0:0,0:0:0:0:
448,244,116112,2,0,P|457:198|445:150,1,70,2|8,0:0|0:0,0:0:0:0:
472,56,116547,2,0,P|432:64|384:56,1,70,8|8,0:0|0:0,0:0:0:0:
312,16,116982,1,2,0:0:0:0:
312,16,117199,1,8,0:0:0:0:
220,123,117417,6,0,P|184:126|148:122,1,70,8|0,0:0|0:0,0:0:0:0:
88,56,117852,1,2,0:0:0:0:
88,56,118069,1,8,0:0:0:0:
60,140,118286,2,0,P|48:184|60:224,1,70,8|8,0:0|0:0,0:0:0:0:
120,280,118721,1,2,0:0:0:0:
256,320,118939,1,8,0:0:0:0:
246,333,119047,1,8,0:0:0:0:
236,347,119156,6,0,L|163:347,1,70,8|0,0:0|0:0,0:0:0:0:
120,280,119591,2,0,P|108:240|124:184,1,70,2|8,0:0|0:0,0:0:0:0:
152,120,120025,1,8,0:0:0:0:
224,208,120242,1,8,0:0:0:0:
292,116,120460,1,8,0:0:0:0:
364,204,120677,1,8,0:0:0:0:
472,264,124373,6,0,P|478:298|472:344,2,70,12|8|2,0:0|0:0|0:0,0:0:0:0:
440,184,125025,1,8,0:0:0:0:
464,100,125243,2,0,P|428:104|392:100,1,70,8|8,0:0|0:0,0:0:0:0:
316,48,125677,1,2,0:0:0:0:
236,100,125895,6,0,P|212:140|228:204,1,105,8|0,0:0|0:0,0:0:0:0:
232,208,126330,1,2,0:0:0:0:
280,280,126547,1,2,0:0:0:0:
236,352,126764,2,0,L|201:352,2,35,2|2|2,0:0|0:0|0:0,0:0:0:0:
280,280,127199,2,0,L|316:280,2,35,2|2|2,0:0|0:0|0:0,0:0:0:0:
232,208,127634,6,0,L|196:208,2,35,2|2|2,0:0|0:0|0:0,0:0:0:0:
280,280,128068,2,0,L|316:280,2,35,2|2|2,0:0|0:0|0:0,0:0:0:0:
244,359,128503,1,2,0:0:0:0:
244,359,128612,1,2,0:0:0:0:
244,359,128721,2,0,L|250:289,1,70,2|0,0:0|0:0,0:0:0:0:
163,209,129155,2,0,L|156:278,1,70
351,279,129590,6,0,L|362:153,1,125.999996154785,12|0,0:0|0:0,0:0:0:0:
360,130,130025,1,2,0:0:0:0:
344,44,130242,1,0,0:0:0:0:
344,44,130351,1,8,0:0:0:0:
344,44,130459,2,0,P|300:52|240:36,1,83.9999974365235,8|8,0:0|0:0,0:0:0:0:
164,20,130894,1,2,0:0:0:0:
164,20,131112,1,8,0:0:0:0:
180,128,131329,6,0,P|172:184|140:124,1,167.999994873047,12|2,0:0|0:0,0:0:0:0:
160,16,131981,1,8,0:0:0:0:
261,45,132199,2,0,L|325:61,2,41.9999987182618,8|8|8,0:0|0:0|0:0,0:0:0:0:
160,16,132633,1,2,0:0:0:0:
180,128,132851,1,8,0:0:0:0:
56,96,133068,6,0,P|39:178|56:260,1,167.999994873047,8|2,0:0|0:0,0:0:0:0:
124,332,133720,1,8,0:0:0:0:
124,332,133938,2,0,P|106:344|79:354,2,41.9999987182618,8|8|8,0:0|0:0|0:0,0:0:0:0:
156,232,134372,1,2,0:0:0:0:
56,260,134590,1,8,0:0:0:0:
220,200,134807,6,0,P|220:264|189:294,1,83.9999974365235,8|8,0:0|0:0,0:0:0:0:
56,260,135242,2,0,P|56:195|86:165,1,83.9999974365235,2|8,0:0|0:0,0:0:0:0:
156,124,135677,1,8,0:0:0:0:
166,110,135785,1,8,0:0:0:0:
177,97,135894,1,8,0:0:0:0:
304,96,136112,1,2,0:0:0:0:
228,208,136329,1,8,0:0:0:0:
228,208,136438,1,8,0:0:0:0:
228,208,136546,6,0,P|186:203|144:208,1,83.9999974365235,12|0,0:0|0:0,0:0:0:0:
56,260,136981,1,2,0:0:0:0:
144,324,137198,1,8,0:0:0:0:
155,338,137307,1,8,0:0:0:0:
166,351,137416,2,0,L|265:352,1,83.9999974365235,0|8,0:0|0:0,0:0:0:0:
344,376,137851,1,2,0:0:0:0:
344,376,138068,1,8,0:0:0:0:
312,264,138285,6,0,P|320:220|300:164,1,83.9999974365235,12|2,0:0|0:0,0:0:0:0:
240,116,138720,1,2,0:0:0:0:
188,248,138938,2,0,P|247:222|184:205,1,167.999994873047,12|8,0:0|0:0,0:0:0:0:
240,116,139590,1,2,0:0:0:0:
184,204,139807,1,2,0:0:0:0:
166,214,139916,1,2,0:0:0:0:
149,224,140025,6,0,L|45:224,1,83.9999974365235,12|0,0:0|0:0,0:0:0:0:
12,132,140459,1,2,0:0:0:0:
12,132,140677,1,2,0:0:0:0:
116,128,140894,1,8,0:0:0:0:
12,132,141112,1,2,0:0:0:0:
12,132,141329,1,2,0:0:0:0:
72,232,141546,1,2,0:0:0:0:
72,232,141655,1,2,0:0:0:0:
72,232,141764,5,8,0:0:0:0:
116,128,141981,2,0,L|163:116,3,41.9999987182618,8|8|8|8,0:0|0:0|0:0|0:0,0:0:0:0:
192,117,142416,1,4,0:0:0:0:
300,116,142634,1,4,0:0:0:0:
248,224,142851,1,8,0:0:0:0:
248,224,143068,1,2,0:0:0:0:
356,216,143285,1,2,0:0:0:0:
348,196,143394,1,2,0:0:0:0:
340,177,143503,6,0,L|338:48,1,125.999996154785,12|0,0:0|0:0,0:0:0:0:
336,28,143938,1,2,0:0:0:0:
232,56,144155,1,0,0:0:0:0:
232,56,144265,1,8,0:0:0:0:
232,56,144372,2,0,P|182:59|139:40,1,83.9999974365235,8|8,2:0|0:0,0:0:0:0:
72,16,144807,1,2,0:0:0:0:
80,104,145025,1,0,0:0:0:0:
176,160,145242,6,0,P|205:217|146:191,1,167.999994873047,12|2,0:0|0:0,0:0:0:0:
80,104,145894,1,8,0:0:0:0:
40,208,146112,2,0,L|8:236,2,41.9999987182618,8|8|8,0:0|0:0|0:0,0:0:0:0:
80,104,146546,1,2,0:0:0:0:
184,168,146764,1,8,0:0:0:0:
184,168,146872,1,8,0:0:0:0:
184,168,146981,6,0,P|236:172|288:156,1,83.9999974365235,12|0,0:0|0:0,0:0:0:0:
328,96,147416,1,2,0:0:0:0:
360,188,147633,1,2,0:0:0:0:
360,188,147742,1,2,0:0:0:0:
360,188,147851,2,0,P|356:232|364:280,1,83.9999974365235,8|8,0:0|0:0,0:0:0:0:
412,344,148285,1,2,0:0:0:0:
328,356,148503,1,2,0:0:0:0:
328,356,148612,1,2,0:0:0:0:
328,356,148720,6,0,P|283:349|234:362,1,83.9999974365235,12|8,0:0|0:0,0:0:0:0:
164,368,149155,1,2,0:0:0:0:
164,368,149373,2,0,P|180:300|157:195,1,167.999994873047,8|8,0:0|0:0,0:0:0:0:
156,192,149916,1,8,0:0:0:0:
156,192,150025,1,10,0:0:0:0:
128,76,150242,1,10,0:0:0:0:
222,149,150460,6,0,P|286:165|353:148,1,125.999996154785,12|0,0:0|0:0,0:0:0:0:
356,145,150895,1,2,0:0:0:0:
438,35,151113,2,0,P|428:90|444:161,1,125.999996154785,12|0,0:0|0:0,0:0:0:0:
452,176,151547,1,2,0:0:0:0:
452,176,151765,1,2,0:0:0:0:
492,296,151982,6,0,P|438:286|367:302,1,125.999996154785,12|0,0:0|0:0,0:0:0:0:
356,308,152417,1,2,0:0:0:0:
356,308,152634,1,2,0:0:0:0:
236,368,152852,2,0,P|247:314|231:243,1,125.999996154785,12|0,0:0|0:0,0:0:0:0:
232,232,153286,1,2,0:0:0:0:
232,232,153504,1,2,0:0:0:0:
112,304,153720,1,2,0:0:0:0:
98,290,153829,1,2,0:0:0:0:
87,275,153938,6,0,L|80:146,1,125.999996154785,8|0,0:0|0:0,0:0:0:0:
80,132,154372,1,6,0:0:0:0:
116,8,154590,1,8,0:0:0:0:
156,132,154807,1,6,0:0:0:0:
192,8,155025,1,8,0:0:0:0:
232,132,155242,2,0,L|239:173,3,41.9999987182618,8|8|8|8,0:0|0:0|0:0|0:0,0:0:0:0:
239,207,155677,6,0,L|224:289,1,70,12|0,0:0|0:0,0:0:0:0:
328,280,156112,2,0,L|313:362,1,70,8|8,0:0|0:0,0:0:0:0:
227,276,156547,1,8,0:0:0:0:
329,189,156764,1,12,0:0:0:0:
336,196,157199,1,0,0:0:0:0:
336,196,157416,6,0,P|344:152|332:104,1,70,8|8,0:0|0:0,0:0:0:0:
296,32,157851,2,0,P|340:40|388:28,1,70,2|8,0:0|0:0,0:0:0:0:
432,96,158286,1,2,0:0:0:0:
448,16,158503,1,10,0:0:0:0:
508,76,158721,1,2,0:0:0:0:
508,76,158829,1,2,0:0:0:0:
508,76,158938,6,0,P|496:148|432:176,1,140,14|8,0:0|0:0,0:0:0:0:
424,184,159481,1,8,0:0:0:0:
424,184,159590,1,8,0:0:0:0:
424,314,159808,1,8,0:0:0:0:
348,209,160025,1,8,0:0:0:0:
470,249,160242,1,8,0:0:0:0:
348,289,160460,1,8,0:0:0:0:
424,184,160677,1,8,0:0:0:0:
424,314,160894,6,0,P|384:324|336:308,1,70,12|8,0:0|0:0,0:0:0:0:
272,268,161329,1,2,0:0:0:0:
356,216,161547,1,8,0:0:0:0:
356,216,161655,1,8,0:0:0:0:
356,216,161764,2,0,P|364:172|352:116,1,70,8|8,0:0|0:0,0:0:0:0:
328,60,162199,1,2,0:0:0:0:
272,144,162416,1,8,0:0:0:0:
272,144,162525,1,8,0:0:0:0:
272,144,162634,6,0,P|228:152|176:144,1,70,8|8,0:0|0:0,0:0:0:0:
116,100,163068,2,0,P|124:148|116:188,1,70,2|8,0:0|0:0,0:0:0:0:
64,256,163503,2,0,P|112:248|152:256,1,70,8|8,0:0|0:0,0:0:0:0:
212,292,163938,1,2,0:0:0:0:
212,292,164155,1,8,0:0:0:0:
304,352,164373,6,0,P|290:291|306:223,1,105,12|8,0:0|0:0,0:0:0:0:
304,236,164808,1,2,0:0:0:0:
304,236,165025,1,2,0:0:0:0:
368,116,165242,2,0,P|276:124|244:108,1,105,8|8,0:0|0:0,0:0:0:0:
252,116,165677,1,2,0:0:0:0:
252,116,165894,1,2,0:0:0:0:
136,52,166112,6,0,P|144:144|128:176,1,105,12|8,0:0|0:0,0:0:0:0:
136,176,166547,1,2,0:0:0:0:
136,176,166764,1,2,0:0:0:0:
80,280,166981,2,0,P|172:272|204:288,1,105,8|8,0:0|0:0,0:0:0:0:
204,288,167416,1,2,0:0:0:0:
204,288,167633,1,2,0:0:0:0:
311,347,167851,6,8,P|303:307|311:255,1,70,12|8,0:0|0:0,0:0:0:0:
399,219,168286,2,0,P|407:259|398:311,1,70,2|8,0:0|0:0,0:0:0:0:
305,279,168721,2,0,P|297:239|305:187,1,70,2|8,0:0|0:0,0:0:0:0:
394,151,169156,2,0,P|402:191|393:243,1,70,2|8,0:0|0:0,0:0:0:0:
298,210,169590,5,2,0:0:0:0:
394,151,169808,1,8,0:0:0:0:
392,256,170025,1,2,0:0:0:0:
298,210,170242,2,0,P|290:162|302:110,1,70,12|0,0:0|0:0,0:0:0:0:
388,96,170677,1,8,0:0:0:0:
388,96,170894,1,2,0:0:0:0:
308,24,171112,1,8,0:0:0:0:
308,24,171221,1,8,0:0:0:0:
308,24,171329,6,0,P|260:20|212:36,1,70,12|8,0:0|0:0,0:0:0:0:
137,15,171764,2,0,P|132:62|148:111,1,70,8|8,0:0|0:0,0:0:0:0:
125,185,172199,2,0,P|173:189|221:173,1,70,8|8,0:0|0:0,0:0:0:0:
301,199,172634,2,0,P|305:151|289:103,1,70,8|8,0:0|0:0,0:0:0:0:
323,50,173068,5,8,0:0:0:0:
379,106,173286,1,8,0:0:0:0:
459,83,173503,1,8,0:0:0:0:
402,27,173721,1,8,0:0:0:0:
323,50,173938,1,8,0:0:0:0:
300,129,174155,1,8,0:0:0:0:
356,185,174373,1,8,0:0:0:0:
436,163,174590,1,8,0:0:0:0:
383,106,174808,5,4,0:0:0:0:
216,232,181764,6,0,P|224:192|212:144,1,70,12|0,0:0|0:0,0:0:0:0:
136,120,182199,2,0,P|128:160|140:208,1,70,8|0,0:0|0:0,0:0:0:0:
219,163,182634,2,0,P|259:171|307:159,1,70,8|0,0:0|0:0,0:0:0:0:
324,88,183069,2,0,P|284:80|236:92,1,70,8|0,0:0|0:0,0:0:0:0:
287,166,183503,5,8,0:0:0:0:
299,255,183721,1,0,0:0:0:0:
372,196,183938,1,8,0:0:0:0:
214,227,184155,2,0,P|210:268|226:315,1,70,0|8,0:0|0:0,0:0:0:0:
302,324,184590,2,0,P|306:283|290:236,1,70,0|8,0:0|0:0,0:0:0:0:
217,296,185025,1,0,0:0:0:0:
299,255,185242,5,12,0:0:0:0:
214,227,185460,1,10,0:0:0:0:
136,260,185677,1,8,0:0:0:0:
98,334,185894,1,12,0:0:0:0:
84,192,186329,1,10,0:0:0:0:
50,267,186546,1,8,0:0:0:0:
98,334,186763,1,12,0:0:0:0:
98,334,187199,6,0,L|98:381,2,35,0|0|0,0:0|0:0|0:0,0:0:0:0:
136,260,187634,2,0,L|176:236,2,35,0|0|0,0:0|0:0|0:0,0:0:0:0:
50,267,188068,2,0,L|9:243,2,35,8|0|0,0:0|0:0|0:0,0:0:0:0:
98,334,188503,1,8,0:0:0:0:
166,241,188721,6,0,P|174:197|162:157,1,70,12|0,0:0|0:0,0:0:0:0:
204,84,189155,2,0,P|164:97|123:91,1,70,2|0,0:0|0:0,0:0:0:0:
72,32,189590,1,8,0:0:0:0:
56,36,189699,1,8,0:0:0:0:
41,41,189808,1,8,0:0:0:0:
36,136,190025,1,2,0:0:0:0:
36,136,190242,1,0,0:0:0:0:
169,172,190460,6,0,P|209:180|265:164,1,70,8|8,0:0|0:0,0:0:0:0:
328,144,190894,1,2,0:0:0:0:
403,195,191112,2,0,P|411:239|403:295,1,70,8|0,0:0|0:0,0:0:0:0:
324,324,191547,1,8,0:0:0:0:
416,372,191764,1,2,0:0:0:0:
409,264,191981,1,8,0:0:0:0:
324,324,192199,6,0,P|284:332|224:324,1,70,8|0,0:0|0:0,0:0:0:0:
152,312,192634,1,2,0:0:0:0:
216,244,192851,2,0,P|220:212|216:156,1,70,8|0,0:0|0:0,0:0:0:0:
144,80,193286,2,0,P|188:84|240:75,1,70,8|2,0:0|0:0,0:0:0:0:
312,8,193721,6,0,P|308:48|312:92,1,70,8|0,0:0|0:0,0:0:0:0:
340,176,194155,1,8,0:0:0:0:
396,112,194373,1,2,0:0:0:0:
428,192,194590,2,0,P|436:236|428:276,1,70,8|0,0:0|0:0,0:0:0:0:
380,348,195025,1,8,0:0:0:0:
344,268,195242,1,6,0:0:0:0:
344,268,195677,6,0,P|300:264|248:272,1,70,12|0,0:0|0:0,0:0:0:0:
208,336,196112,1,0,0:0:0:0:
180,256,196329,1,0,0:0:0:0:
124,320,196547,1,2,0:0:0:0:
100,240,196764,2,0,P|92:196|104:144,1,70,0|0,0:0|0:0,0:0:0:0:
160,72,197199,6,0,P|116:80|63:68,1,70,8|0,0:0|0:0,0:0:0:0:
16,20,197634,1,8,0:0:0:0:
91,77,197851,1,8,0:0:0:0:
94,171,198068,1,0,0:0:0:0:
168,232,198286,2,0,P|208:235|256:228,1,70,2|0,0:0|0:0,0:0:0:0:
240,140,198721,2,0,P|200:136|152:143,1,70,8|0,0:0|0:0,0:0:0:0:
130,67,199155,5,12,0:0:0:0:
90,139,199373,1,8,0:0:0:0:
130,211,199590,1,8,0:0:0:0:
90,283,199808,1,8,0:0:0:0:
50,211,200025,1,8,0:0:0:0:
90,139,200242,1,8,0:0:0:0:
170,139,200460,1,8,0:0:0:0:
210,211,200677,1,8,0:0:0:0:
170,283,200894,5,8,0:0:0:0:
90,283,201112,2,0,L|56:316,2,35,8|0|0,0:0|0:0|0:0,0:0:0:0:
50,211,201547,2,0,L|8:211,2,35,8|0|0,0:0|0:0|0:0,0:0:0:0:
90,139,201981,2,0,L|60:109,2,35,8|0|0,0:0|0:0|0:0,0:0:0:0:
170,139,202416,2,0,L|203:105,1,35,8|0,0:0|0:0,0:0:0:0:
249,56,202634,5,12,0:0:0:0:
249,56,204373,5,12,0:0:0:0:
249,56,205025,2,0,P|244:108|259:147,1,70,8|0,3:0|3:0,0:0:0:0:
333,175,205460,2,0,P|337:122|322:82,1,70,4|0,3:0|3:0,0:0:0:0:
333,12,205894,1,8,0:0:0:0:
249,56,206112,5,0,0:0:0:0:
220,172,208938,5,8,0:0:0:0:
130,211,209155,1,0,0:0:0:0:
211,266,209373,1,8,0:0:0:0:
130,211,209590,6,0,P|82:204|44:220,1,70,12|0,0:0|0:0,0:0:0:0:
56,294,210025,2,0,P|104:299|142:283,1,70,8|0,0:0|0:0,0:0:0:0:
211,266,210460,2,0,P|212:314|193:351,1,70,8|0,0:0|0:0,0:0:0:0:
118,361,210894,2,0,P|116:312|135:275,1,70,8|0,0:0|0:0,0:0:0:0:
130,211,211329,5,8,0:0:0:0:
220,172,211547,1,0,0:0:0:0:
211,266,211764,1,8,0:0:0:0:
130,211,211981,2,0,P|121:178|135:128,1,70,0|8,0:0|0:0,0:0:0:0:
130,34,212416,1,0,0:0:0:0:
230,93,212634,1,8,0:0:0:0:
126,143,212851,1,0,0:0:0:0:
280,160,213069,6,0,P|320:156|364:160,1,70,12|0,0:0|0:0,0:0:0:0:
479,185,213503,1,2,0:0:0:0:
479,185,213721,1,8,0:0:0:0:
388,275,213938,1,8,0:0:0:0:
479,185,214156,1,8,0:0:0:0:
479,185,214373,1,2,0:0:0:0:
357,165,214590,1,8,0:0:0:0:
357,165,214699,1,8,0:0:0:0:
357,165,214808,6,0,L|305:177,3,35,12|8|8|8,0:0|0:0|0:0|0:0,0:0:0:0:
285,177,215242,2,0,L|244:167,3,35,8|8|8|8,0:0|0:0|0:0|0:0,0:0:0:0:
213,169,215677,1,8,0:0:0:0:
213,169,216547,6,0,P|220:108|211:40,1,125.999996154785,12|0,0:0|0:0,0:0:0:0:
208,24,216982,1,2,0:0:0:0:
84,56,217199,1,8,0:0:0:0:
84,56,217308,1,8,0:0:0:0:
84,56,217416,2,0,P|76:104|84:144,1,83.9999974365235,8|8,2:0|0:0,0:0:0:0:
112,228,217851,1,2,0:0:0:0:
82,138,218069,1,0,0:0:0:0:
197,209,218286,6,0,P|261:211|213:169,1,167.999994873047,12|2,0:0|0:0,0:0:0:0:
112,228,218938,1,8,0:0:0:0:
164,312,219156,2,0,L|169:354,2,41.9999987182618,8|8|8,0:0|0:0|0:0,0:0:0:0:
112,228,219590,1,2,0:0:0:0:
219,177,219808,1,8,0:0:0:0:
219,177,219916,1,8,0:0:0:0:
219,177,220025,6,0,P|227:133|215:72,1,83.9999974365235,12|0,0:0|0:0,0:0:0:0:
216,4,220460,1,2,0:0:0:0:
312,72,220677,1,2,0:0:0:0:
312,72,220786,1,2,0:0:0:0:
312,72,220895,2,0,P|353:78|393:67,1,83.9999974365235,8|8,0:0|0:0,0:0:0:0:
484,40,221329,1,2,0:0:0:0:
444,148,221547,1,2,0:0:0:0:
444,148,221656,1,2,0:0:0:0:
444,148,221764,6,0,P|437:193|450:242,1,83.9999974365235,12|8,0:0|0:0,0:0:0:0:
484,320,222199,1,2,0:0:0:0:
484,320,222416,2,0,P|416:304|311:327,1,167.999994873047,8|8,0:0|0:0,0:0:0:0:
304,332,222960,1,8,0:0:0:0:
304,332,223069,1,10,0:0:0:0:
360,228,223286,1,10,0:0:0:0:
232,228,223503,6,0,P|248:163|231:96,1,125.999996154785,12|0,0:0|0:0,0:0:0:0:
228,88,223938,1,2,0:0:0:0:
152,24,224156,2,0,P|91:38|29:28,1,125.999996154785,12|0,0:0|0:0,0:0:0:0:
12,24,224590,1,2,0:0:0:0:
12,24,224808,1,2,0:0:0:0:
20,116,225025,6,0,P|34:176|24:238,1,125.999996154785,12|0,0:0|0:0,0:0:0:0:
20,264,225459,1,2,0:0:0:0:
20,264,225677,1,2,0:0:0:0:
108,288,225894,2,0,P|168:273|230:283,1,125.999996154785,12|0,0:0|0:0,0:0:0:0:
252,292,226328,1,2,0:0:0:0:
252,292,226546,1,2,0:0:0:0:
352,352,226764,1,2,0:0:0:0:
363,336,226873,1,2,0:0:0:0:
372,321,226982,6,0,L|372:196,1,125.999996154785,8|0,0:0|0:0,0:0:0:0:
372,172,227416,1,6,0:0:0:0:
415,49,227634,1,8,0:0:0:0:
309,123,227851,1,6,0:0:0:0:
438,125,228068,1,8,0:0:0:0:
335,48,228286,2,0,L|293:41,3,41.9999987182618,8|8|8|8,0:0|0:0|0:0|0:0,0:0:0:0:
266,42,228721,5,12,0:0:0:0:
266,42,230460,6,0,L|262:122,1,56,8|8,0:0|0:0,0:0:0:0:
284,170,230894,1,8,0:0:0:0:
212,152,231112,2,0,P|156:147|100:139,2,112,8|8|8,0:0|0:0|0:0,0:0:0:0:
212,153,232416,6,0,L|209:208,1,56,8|8,0:0|0:0,0:0:0:0:
264,261,232851,2,0,P|217:284|159:264,1,112,8|8,0:0|0:0,0:0:0:0:
136,197,233503,1,8,0:0:0:0:
88,255,233720,1,8,0:0:0:0:
115,326,233938,6,0,L|142:373,1,56,8|8,0:0|0:0,0:0:0:0:
216,377,234373,1,8,0:0:0:0:
285,349,234590,2,0,P|339:338|412:355,1,112,8|8,0:0|0:0,0:0:0:0:
467,366,235242,1,8,0:0:0:0:
488,294,235459,6,0,P|494:246|485:175,1,112,8|8,0:0|0:0,0:0:0:0:
428,135,236112,1,8,0:0:0:0:
370,185,236329,2,0,P|364:232|373:303,1,112,8|8,0:0|0:0,0:0:0:0:
319,354,236981,2,0,L|256:376,1,56,8|8,0:0|0:0,0:0:0:0:
250,377,237307,1,0,0:0:0:0:
234,381,237416,6,0,L|222:327,1,56,8|8,0:0|0:0,0:0:0:0:
151,296,237851,1,8,0:0:0:0:
213,252,238068,2,0,P|224:196|212:140,1,112,8|8,0:0|0:0,0:0:0:0:
209,11,238938,6,0,P|247:40|313:67,1,112,8|8,0:0|0:0,0:0:0:0:
424,123,239808,2,0,P|379:141|322:185,1,112,8|8,0:0|0:0,0:0:0:0:
333,258,240459,2,0,L|322:323,1,56,8|8,0:0|0:0,0:0:0:0:
246,291,240894,6,0,P|188:284|117:298,1,112,8|8,0:0|0:0,0:0:0:0:
56,292,241547,1,8,0:0:0:0:
16,220,241764,1,8,0:0:0:0:
56,147,241981,1,8,0:0:0:0:
136,148,242199,1,8,0:0:0:0:
176,220,242416,1,8,0:0:0:0:
136,292,242634,5,8,0:0:0:0:
216,148,243286,1,8,0:0:0:0:
296,148,243503,1,8,0:0:0:0:
216,292,244476,5,8,0:0:0:0:
296,292,244694,1,8,0:0:0:0:
336,220,244911,1,8,0:0:0:0:
296,148,245128,1,8,0:0:0:0:
216,148,245346,1,8,0:0:0:0:
176,220,245617,5,8,0:0:0:0:
256,220,245889,1,8,0:0:0:0:
256,76,246332,6,0,L|256:64,1,11.6666666666667,8|0,0:0|0:0,0:0:0:0:
