osu file format v14

[General]
AudioFilename: audio.mp3
AudioLeadIn: 0
PreviewTime: 740
Countdown: 0
SampleSet: Soft
StackLeniency: 0.4
Mode: 0
LetterboxInBreaks: 0
WidescreenStoryboard: 1

[Editor]
Bookmarks: 890,14803,28716,42629,56542,58281,72194,86107,100020,113933,127846,129585,143498,157411,171324,185237,199150,213063,214803,216542,230455,244368
DistanceSpacing: 1.1
BeatDivisor: 4
GridSize: 8
TimelineZoom: 1.7

[Metadata]
Title:Fairy Tale
TitleUnicode:フェアリーテイル
Artist:Sangatsu no Phantasia
ArtistUnicode:三月のパンタシア
Creator:Present
Version:Demi-Chan
Source:亜人ちゃんは語りたい
Tags:Demi-chan wa Kataritai Interviews With Monster Girls anime ending ed sidetail betastar AngelSnow japanese
BeatmapID:1850608
BeatmapSetID:885430

[Difficulty]
HPDrainRate:5.3
CircleSize:4
OverallDifficulty:8.3
ApproachRate:8.3
SliderMultiplier:1.4
SliderTickRate:2

[Events]
//Background and Video events
0,0,"osu.png",0,0
//Break Periods
2,86312,97582
2,120877,123669
2,176747,181060
2,206312,208234
2,233051,236712
//Storyboard Layer 0 (Background)
//Storyboard Layer 1 (Fail)
//Storyboard Layer 2 (Pass)
//Storyboard Layer 3 (Foreground)
//Storyboard Sound Samples

[TimingPoints]
895,434.782608695652,4,2,20,35,1,0
895,-125,4,2,20,35,0,0
1112,-125,4,2,21,35,0,0
1329,-125,4,2,22,35,0,0
1547,-125,4,2,23,35,0,0
1981,-125,4,2,22,35,0,0
2851,-125,4,2,21,35,0,0
3068,-125,4,2,20,35,0,0
3286,-125,4,2,21,35,0,0
3721,-125,4,2,24,35,0,0
3938,-125,4,2,23,35,0,0
4155,-125,4,2,20,35,0,0
4373,-125,4,2,21,35,0,0
4590,-125,4,2,22,35,0,0
4808,-125,4,2,21,35,0,0
5025,-125,4,2,20,35,0,0
5460,-125,4,2,24,35,0,0
5677,-125,4,2,25,35,0,0
5894,-125,4,2,26,35,0,0
6329,-125,4,2,23,35,0,0
6547,-125,4,2,20,35,0,0
6764,-125,4,2,24,35,0,0
7199,-125,4,2,25,35,0,0
7416,-125,4,2,27,35,0,0
7634,-125,4,2,25,35,0,0
7851,-125,4,2,40,35,0,0
8068,-125,4,2,21,35,0,0
8286,-125,4,2,22,35,0,0
8503,-125,4,2,23,35,0,0
8938,-125,4,2,50,35,0,0
9808,-125,4,2,28,35,0,0
10242,-125,4,2,51,35,0,0
10677,-125,4,2,24,35,0,0
10894,-125,4,2,23,35,0,0
11112,-125,4,2,20,35,0,0
11329,-125,4,2,51,35,0,0
11981,-125,4,2,22,35,0,0
12199,-125,4,2,51,35,0,0
12416,-125,4,2,20,35,0,0
12634,-125,4,2,23,35,0,0
12851,-125,4,2,52,35,0,0
13721,-125,4,2,27,35,0,0
13938,-125,4,2,23,35,0,0
14808,-125,4,2,40,35,0,0
15677,-125,4,2,51,35,0,0
16547,-125,4,2,50,35,0,0
17416,-125,4,2,51,35,0,0
19155,-125,4,2,40,35,0,0
20894,-125,4,2,52,35,0,0
21329,-125,4,2,27,35,0,0
21764,-125,4,2,40,35,0,0
22634,-125,4,2,51,35,0,0
23503,-125,4,2,50,35,0,0
24373,-125,4,2,23,35,0,0
25242,-125,4,2,40,35,0,0
25460,-125,4,2,21,35,0,0
25677,-125,4,2,20,35,0,0
25894,-125,4,2,52,35,0,0
27851,-125,4,2,23,35,0,0
28068,-125,4,2,10,35,0,0
28286,-125,4,2,15,35,0,0
28612,-125,4,2,15,5,0,0
28721,-111.111111111111,4,2,41,35,0,0
28938,-111.111111111111,4,2,22,35,0,0
29155,-111.111111111111,4,2,28,35,0,0
29373,-111.111111111111,4,2,22,35,0,0
29590,-111.111111111111,4,2,32,35,0,0
29808,-111.111111111111,4,2,22,35,0,0
30025,-111.111111111111,4,2,31,35,0,0
30242,-111.111111111111,4,2,22,35,0,0
30460,-111.111111111111,4,2,30,35,0,0
30677,-111.111111111111,4,2,22,35,0,0
30894,-111.111111111111,4,2,28,35,0,0
31112,-111.111111111111,4,2,22,35,0,0
31329,-111.111111111111,4,2,33,35,0,0
31547,-111.111111111111,4,2,22,35,0,0
31764,-111.111111111111,4,2,28,35,0,0
31981,-111.111111111111,4,2,22,35,0,0
32199,-111.111111111111,4,2,33,35,0,0
32416,-111.111111111111,4,2,22,35,0,0
32634,-111.111111111111,4,2,28,35,0,0
32851,-111.111111111111,4,2,22,35,0,0
33068,-111.111111111111,4,2,30,35,0,0
33286,-111.111111111111,4,2,22,35,0,0
33503,-111.111111111111,4,2,28,35,0,0
33721,-111.111111111111,4,2,22,35,0,0
33938,-111.111111111111,4,2,32,35,0,0
34155,-111.111111111111,4,2,45,35,0,0
34373,-111.111111111111,4,2,35,35,0,0
34590,-111.111111111111,4,2,34,35,0,0
34808,-111.111111111111,4,2,28,35,0,0
35025,-111.111111111111,4,2,41,35,0,0
35242,-111.111111111111,4,2,31,35,0,0
35460,-111.111111111111,4,2,22,35,0,0
35677,-111.111111111111,4,2,20,35,0,0
36547,-111.111111111111,4,2,21,35,0,0
37416,-111.111111111111,4,2,22,35,0,0
37851,-111.111111111111,4,2,36,35,0,0
38286,-111.111111111111,4,2,35,35,0,0
39155,-111.111111111111,4,2,21,35,0,0
40025,-111.111111111111,4,2,20,35,0,0
40242,-111.111111111111,4,2,23,35,0,0
40460,-111.111111111111,4,2,24,35,0,0
40677,-111.111111111111,4,2,27,35,0,0
40894,-111.111111111111,4,2,24,35,0,0
42416,-111.111111111111,4,2,27,35,0,0
42634,-111.111111111111,4,2,15,50,0,0
49481,-111.111111111111,4,2,15,50,0,0
49590,-111.111111111111,4,2,15,50,0,0
57416,-111.111111111111,4,2,22,50,0,0
58286,-100,4,2,15,65,0,1
70460,-100,4,2,15,50,0,1
70677,-100,4,3,15,50,0,1
71547,-100,4,2,15,50,0,1
72199,-100,4,2,15,65,0,1
83721,-100,4,3,15,65,0,1
84373,-125,4,2,15,50,0,0
86112,-125,4,2,20,50,0,0
86329,-125,4,2,21,50,0,0
86546,-125,4,2,22,50,0,0
86764,-125,4,2,24,50,0,0
87198,-125,4,2,22,50,0,0
88068,-125,4,2,21,50,0,0
88285,-125,4,2,20,50,0,0
88503,-125,4,2,21,50,0,0
88938,-125,4,2,24,50,0,0
89155,-125,4,2,23,50,0,0
89372,-125,4,2,20,50,0,0
89590,-125,4,2,21,50,0,0
89807,-125,4,2,22,50,0,0
90025,-125,4,2,21,50,0,0
90242,-125,4,2,20,50,0,0
90677,-125,4,2,24,50,0,0
90894,-125,4,2,25,50,0,0
91111,-125,4,2,26,50,0,0
91546,-125,4,2,23,50,0,0
91764,-125,4,2,20,50,0,0
91981,-125,4,2,24,50,0,0
92416,-125,4,2,25,50,0,0
92633,-125,4,2,27,50,0,0
92851,-125,4,2,25,50,0,0
93068,-125,4,2,20,50,0,0
93285,-125,4,2,21,50,0,0
93503,-125,4,2,22,50,0,0
93720,-125,4,2,23,50,0,0
94155,-125,4,2,22,50,0,0
95025,-125,4,2,28,50,0,0
95459,-125,4,2,21,50,0,0
95894,-125,4,2,24,50,0,0
96111,-125,4,2,23,50,0,0
96329,-125,4,2,20,50,0,0
96546,-125,4,2,21,50,0,0
97198,-125,4,2,22,50,0,0
97416,-125,4,2,21,50,0,0
97633,-125,4,2,20,50,0,0
97851,-125,4,2,23,50,0,0
98068,-125,4,2,44,50,0,0
99155,-125,4,2,23,50,0,0
100025,-111.111111111111,4,2,15,50,0,0
106438,-111.111111111111,4,2,15,5,0,0
106547,-111.111111111111,4,2,15,50,0,0
106873,-111.111111111111,4,2,15,5,0,0
106981,-111.111111111111,4,2,20,50,0,0
107851,-111.111111111111,4,2,21,50,0,0
108721,-111.111111111111,4,2,22,50,0,0
109155,-111.111111111111,4,2,36,50,0,0
109590,-111.111111111111,4,2,35,50,0,0
110351,-111.111111111111,4,2,35,5,0,0
110460,-111.111111111111,4,2,21,50,0,0
111329,-111.111111111111,4,2,20,50,0,0
111547,-111.111111111111,4,2,23,50,0,0
111764,-111.111111111111,4,2,24,50,0,0
111981,-111.111111111111,4,2,27,50,0,0
112199,-111.111111111111,4,2,23,50,0,0
112416,-111.111111111111,4,2,15,50,0,0
112851,-111.111111111111,4,2,44,50,0,0
113068,-111.111111111111,4,2,15,50,0,0
113286,-111.111111111111,4,2,15,50,0,0
117742,-111.111111111111,4,2,15,5,0,0
117851,-111.111111111111,4,2,15,50,0,0
126981,-111.111111111111,4,2,15,55,0,0
127851,-111.111111111111,4,2,15,60,0,0
128775,-111.111111111111,4,2,15,5,0,0
129590,-100,4,2,15,65,0,1
134047,-100,4,2,15,5,0,1
134155,-100,4,2,15,65,0,1
141764,-100,4,2,15,50,0,1
141981,-100,4,3,15,50,0,1
142851,-100,4,2,15,50,0,1
143503,-100,4,2,15,65,0,1
147308,-100,4,2,15,5,0,1
147416,-100,4,2,15,65,0,1
155677,-100,4,2,15,50,0,0
157416,-100,4,2,15,50,0,1
157471,-100,4,2,15,50,0,0
160894,-90.9090909090909,4,2,15,50,0,1
171329,-90.9090909090909,4,2,15,50,0,0
171384,-90.9090909090909,4,2,15,50,0,1
171764,-90.9090909090909,4,2,15,50,0,1
174808,-125,4,2,15,50,0,0
176547,-125,4,2,15,25,0,0
181764,-100,4,2,15,50,0,1
181818,-100,4,2,15,50,0,0
185242,-83.3333333333333,4,2,15,50,0,0
186981,-100,4,2,15,50,0,0
187199,-83.3333333333333,4,2,15,35,0,0
188068,-100,4,2,15,50,0,0
188721,-100,4,2,15,50,0,0
196003,-100,4,2,15,50,0,0
196112,-100,4,2,15,50,0,0
199590,-100,4,2,15,50,0,0
200894,-100,4,2,15,50,0,0
202634,-111.111111111111,4,2,15,50,0,0
204373,-125,4,2,15,50,0,0
206112,-142.857142857143,4,2,15,50,0,0
207851,-166.666666666667,4,2,15,50,0,0
208938,-153.846153846154,4,2,15,50,0,0
209155,-142.857142857143,4,2,15,50,0,0
209373,-133.333333333333,4,2,15,50,0,0
209590,-125,4,2,15,50,0,1
209644,-125,4,2,15,50,0,0
209916,-125,4,2,15,50,0,0
210025,-125,4,2,15,50,0,0
211329,-111.111111111111,4,2,15,50,0,1
211384,-111.111111111111,4,2,15,50,0,0
213068,-100,4,2,15,50,0,1
213123,-100,4,2,15,50,0,0
214808,-90.9090909090909,4,2,15,50,0,1
215677,-90.9090909090909,4,2,15,50,0,0
216547,-83.3333333333333,4,2,15,65,0,1
228721,-100,4,2,15,50,0,0
230460,-125,4,2,20,35,0,0
230677,-125,4,2,21,35,0,0
230894,-125,4,2,22,35,0,0
231112,-125,4,2,23,35,0,0
231546,-125,4,2,22,35,0,0
232416,-125,4,2,21,35,0,0
232633,-125,4,2,20,35,0,0
232851,-125,4,2,21,35,0,0
233286,-125,4,2,24,35,0,0
233503,-125,4,2,23,35,0,0
233720,-125,4,2,20,35,0,0
233938,-125,4,2,21,35,0,0
234155,-125,4,2,22,35,0,0
234373,-125,4,2,21,35,0,0
234590,-125,4,2,20,35,0,0
235025,-125,4,2,24,35,0,0
235242,-125,4,2,25,35,0,0
235459,-125,4,2,26,35,0,0
235894,-125,4,2,23,35,0,0
236112,-125,4,2,20,35,0,0
236329,-125,4,2,24,35,0,0
236764,-125,4,2,25,35,0,0
236981,-125,4,2,27,35,0,0
237199,-125,4,2,25,35,0,0
237416,-125,4,2,20,35,0,0
237633,-125,4,2,21,35,0,0
237851,-125,4,2,22,35,0,0
238068,-125,4,2,23,35,0,0
238503,-125,4,2,22,35,0,0
239373,-125,4,2,28,35,0,0
239807,-125,4,2,21,35,0,0
240242,-125,4,2,24,35,0,0
240459,-125,4,2,23,35,0,0
240677,-125,4,2,20,35,0,0
240894,-125,4,2,21,35,0,0
241546,-125,4,2,22,35,0,0
241764,-125,4,2,21,35,0,0
241981,-125,4,2,20,35,0,0
242199,-125,4,2,23,35,0,0
242416,-125,4,2,24,35,0,0
243286,-125,4,2,27,20,0,0
243503,-125,4,2,23,35,0,0
244264,-125,4,2,23,5,0,0
244476,434.782608695652,4,2,37,30,1,0
244476,-166.666666666667,4,2,37,30,0,0
244693,-166.666666666667,4,2,38,30,0,0
244911,-166.666666666667,4,2,24,30,0,0
245128,-166.666666666667,4,2,25,30,0,0
245345,-166.666666666667,4,2,21,30,0,0
245617,545.454545454546,4,2,24,30,1,0
245617,-166.666666666667,4,2,24,30,0,0
245889,-166.666666666667,4,2,25,30,0,0
246332,600,4,2,28,30,1,0
246332,-166.666666666667,4,2,28,30,0,0
246382,-166.666666666667,4,2,28,5,0,0

[Colours]
Combo1 : 0,176,0
Combo2 : 255,43,255
Combo3 : 255,112,43
Combo4 : 19,137,255
Combo5 : 217,217,0
SliderTrackOverride : 17,89,115
SliderBorder : 133,127,210

[HitObjects]
256,113,895,5,8,0:0:0:0:
316,45,1112,1,8,0:0:0:0:
403,64,1329,1,8,0:0:0:0:
431,149,1547,2,0,B|438:228|438:228|426:258,1,112,8|8,0:0|0:0,0:0:0:0:
183,231,2416,2,0,P|227:197|282:196,1,112,8|8,0:0|0:0,0:0:0:0:
258,282,3068,1,8,0:0:0:0:
202,122,3286,1,8,0:0:0:0:
405,322,3721,5,8,0:0:0:0:
320,345,3939,1,8,0:0:0:0:
258,282,4155,1,8,0:0:0:0:
282,196,4373,2,0,P|289:166|288:136,2,56,8|8|8,0:0|0:0|0:0,0:0:0:0:
320,345,5025,1,8,0:0:0:0:
320,345,5460,5,8,0:0:0:0:
235,368,5677,1,8,0:0:0:0:
173,306,5894,1,8,0:0:0:0:
173,306,6329,5,8,0:0:0:0:
111,368,6546,1,8,0:0:0:0:
26,345,6764,2,0,B|25:293|25:293|25:263|42:237,1,112,8|8,0:0|0:0,0:0:0:0:
107,192,7416,2,0,L|163:192,1,56,8|8,0:0|0:0,0:0:0:0:
273,82,7851,5,10,0:0:0:0:
186,105,8068,1,8,0:0:0:0:
163,192,8286,1,8,0:0:0:0:
336,146,8503,2,0,P|354:126|362:96,1,56,10|0,0:0|0:0,0:0:0:0:
273,82,8938,1,8,0:0:0:0:
273,82,9373,6,0,P|264:56|242:34,1,56,10|0,0:0|0:0,0:0:0:0:
99,128,9808,2,0,L|153:113,1,56,8|0,0:0|0:0,0:0:0:0:
260,217,10242,2,0,L|314:232,1,56,10|0,0:0|0:0,0:0:0:0:
140,279,10677,5,8,0:0:0:0:
163,192,10894,1,10,0:0:0:0:
290,318,11112,1,8,0:0:0:0:
314,232,11329,2,0,L|329:178,1,56,10|0,0:0|0:0,0:0:0:0:
268,111,11764,5,8,0:0:0:0:
290,24,11981,1,8,0:0:0:0:
379,4,12199,1,10,0:0:0:0:
440,67,12416,1,8,0:0:0:0:
416,153,12634,1,8,0:0:0:0:
328,178,12851,1,8,0:0:0:0:
480,219,13068,1,10,0:0:0:0:
416,153,13721,5,8,0:0:0:0:
328,177,13938,2,0,B|297:144|255:167|259:216|281:247|295:263|310:272,1,168,10|0,0:0|0:0,0:0:0:0:
380,330,14808,6,0,P|377:360|367:386,2,56,10|0|0,0:0|0:0|0:0,0:0:0:0:
443,266,15460,2,0,P|421:247|393:242,1,56,0|10,0:0|0:0,0:0:0:0:
310,272,15894,2,0,P|297:297|298:324,1,56
196,349,16329,2,8,P|187:322|166:303,1,56,0|10,0:0|0:0,0:0:0:0:
167,201,16764,1,0,0:0:0:0:
102,128,16981,1,0,0:0:0:0:
140,38,17199,2,0,P|161:20|188:15,1,56,0|10,0:0|0:0,0:0:0:0:
205,111,17634,5,0,0:0:0:0:
303,69,17851,1,0,0:0:0:0:
388,132,18068,1,0,0:0:0:0:
291,175,18286,1,10,0:0:0:0:
272,331,18721,2,0,L|280:274,1,56
342,196,19155,2,0,P|319:180|287:176,1,56,10|0,0:0|0:0,0:0:0:0:
200,219,19590,1,0,0:0:0:0:
219,137,19808,1,0,0:0:0:0:
279,275,20025,6,0,P|306:278|332:268,2,56,10|0|0,0:0|0:0|0:0,0:0:0:0:
181,301,20677,1,0,0:0:0:0:
292,176,20894,2,0,B|304:140|304:140|285:68,1,112,10|8,0:0|0:0,0:0:0:0:
332,267,21764,6,0,B|387:260|387:260|418:256|432:228,1,112,10|0,0:0|0:0,0:0:0:0:
400,349,22634,1,10,0:0:0:0:
494,270,22851,1,0,0:0:0:0:
370,186,23068,1,0,0:0:0:0:
293,330,23286,2,0,L|345:352,1,56,0|10,0:0|0:0,0:0:0:0:
431,229,23721,1,0,0:0:0:0:
307,145,23938,1,0,0:0:0:0:
286,274,24155,2,0,L|292:330,1,56,0|10,0:0|0:0,0:0:0:0:
228,178,24590,5,0,0:0:0:0:
207,307,24808,2,0,L|214:365,1,56
130,227,25242,2,0,L|86:261,2,56,10|8|8,0:0|0:0|0:0,0:0:0:0:
160,121,25894,2,0,L|108:99,2,56,8|2|8,0:0|0:0|0:0,0:0:0:0:
267,93,26547,1,8,0:0:0:0:
344,173,26764,1,8,0:0:0:0:
313,279,26981,2,0,B|361:293|392:354|392:354|416:293|469:279,1,224,10|8,0:0|0:0,0:0:0:0:
432,173,28068,1,2,0:0:0:0:
313,279,28286,2,0,P|278:297|233:290,1,84,2|2,0:0|0:0,0:0:0:0:
193,304,28721,5,14,0:0:0:0:
108,211,28938,1,8,0:0:0:0:
75,336,29155,1,10,0:0:0:0:
75,336,29373,1,8,0:0:0:0:
182,229,29590,2,0,P|182:197|170:169,1,62.9999980773926,10|8,0:0|0:0,0:0:0:0:
246,103,30025,2,0,P|273:118|303:122,1,62.9999980773926,10|10,0:0|0:0,0:0:0:0:
324,222,30460,2,0,P|296:238|278:262,2,62.9999980773926,14|8|10,0:0|0:0|0:0,0:0:0:0:
182,229,31112,1,8,0:0:0:0:
246,103,31329,6,0,L|239:40,1,62.9999980773926,10|8,0:0|0:0,0:0:0:0:
330,159,31764,2,0,L|323:222,1,62.9999980773926,10|10,0:0|0:0,0:0:0:0:
256,297,32199,2,0,L|263:360,2,62.9999980773926,12|8|10,0:0|0:0|0:0,0:0:0:0:
182,229,32851,2,0,P|151:239|120:236,1,62.9999980773926,8|10,0:0|0:0,0:0:0:0:
71,148,33286,2,0,P|77:116|95:90,1,62.9999980773926,8|10,0:0|0:0,0:0:0:0:
190,126,33721,1,10,0:0:0:0:
190,126,33938,6,0,B|279:120|279:120|259:150,1,125.999996154785,12|10,0:0|0:0,0:0:0:0:
296,44,34590,1,8,0:0:0:0:
296,44,34808,2,0,P|346:78|353:139,1,125.999996154785,10|10,0:0|0:0,0:0:0:0:
313,225,35460,1,8,0:0:0:0:
352,139,35677,6,0,P|383:132|414:136,1,62.9999980773926,12|0,0:0|0:0,0:0:0:0:
260,90,36112,2,0,P|229:83|198:87,1,62.9999980773926,2|0,0:0|0:0,0:0:0:0:
132,180,36547,1,10,0:0:0:0:
107,94,36764,1,0,0:0:0:0:
225,177,36981,2,0,P|232:208|228:239,1,62.9999980773926,2|0,0:0|0:0,0:0:0:0:
413,135,37416,6,0,P|406:104|409:73,1,62.9999980773926,10|0,0:0|0:0,0:0:0:0:
405,285,37851,2,0,P|380:266|350:255,1,62.9999980773926,10|0,0:0|0:0,0:0:0:0:
224,176,38286,2,0,P|253:164|276:143,1,62.9999980773926,14|0,0:0|0:0,0:0:0:0:
311,68,38612,1,0,0:0:0:0:
311,68,38721,2,0,P|280:61|249:65,1,62.9999980773926,4|0,0:0|0:0,0:0:0:0:
107,132,39155,6,0,B|99:230|99:230|125:212,1,125.999996154785,12|2,0:0|0:0,0:0:0:0:
224,176,39808,1,0,0:0:0:0:
262,279,40025,1,10,0:0:0:0:
159,317,40242,1,8,0:0:0:0:
332,329,40460,2,0,P|346:301|347:270,1,62.9999980773926,12|12,0:0|0:0,0:3:0:0:
391,201,40786,1,0,0:0:0:0:
391,201,40894,6,0,P|362:188|331:190,1,62.9999980773926,10|0,0:0|0:0,0:0:0:0:
170,223,41329,2,0,P|198:235|229:233,1,62.9999980773926,4|0,0:0|0:0,0:0:0:0:
345,266,41764,1,2,0:0:0:0:
494,225,41981,1,4,0:0:0:0:
312,156,42199,1,4,0:0:0:0:
461,115,42416,1,4,0:0:0:0:
335,82,42634,6,0,B|301:75|278:87|278:87|274:50|251:26,1,125.999996154785,12|8,0:0|0:0,0:0:0:0:
172,104,43286,1,0,0:0:0:0:
68,57,43503,2,0,B|54:94|61:121|61:121|28:119|7:143,1,125.999996154785,8|8,0:0|0:0,0:0:0:0:
95,282,44155,1,0,0:0:0:0:
248,219,44373,5,8,0:0:0:0:
132,190,44590,1,0,0:0:0:0:
301,158,44808,2,0,B|324:178|329:214,1,62.9999980773926,8|0,0:0|0:0,0:0:0:0:
274,291,45242,2,0,B|245:301|213:288,1,62.9999980773926,8|0,0:0|0:0,0:0:0:0:
205,149,45677,1,2,0:0:0:0:
352,94,45894,1,0,0:0:0:0:
352,94,46112,6,0,B|398:134|408:204,1,125.999996154785,8|8,0:0|0:0,0:0:0:0:
414,323,46764,1,0,0:0:0:0:
303,367,46981,2,0,B|245:386|179:360,1,125.999996154785,8|8,0:0|0:0,0:0:0:0:
73,305,47634,1,0,0:0:0:0:
109,186,47851,5,8,0:0:0:0:
248,260,48068,1,0,0:0:0:0:
73,305,48286,2,0,P|40:296|19:275,1,62.9999980773926,8|0,0:0|0:0,0:0:0:0:
109,186,48721,1,8,0:0:0:0:
179,360,48938,1,0,0:0:0:0:
179,360,49047,1,0,0:0:0:0:
179,360,49155,2,0,B|226:382|295:372,1,94.499997116089,2|0,0:0|0:0,0:0:0:0:
303,367,49590,5,12,0:0:0:0:
303,367,50025,5,2,0:0:0:0:
400,210,50243,1,12,0:0:0:0:
400,210,50677,5,2,0:0:0:0:
195,186,50894,1,2,0:0:0:0:
352,289,51111,1,12,0:0:0:0:
352,289,51547,5,2,0:0:0:0:
245,110,51764,1,2,0:0:0:0:
146,262,51981,2,0,P|140:298|143:328,1,62.9999980773926,12|0,0:0|0:0,0:0:0:0:
248,276,52416,1,2,0:0:0:0:
195,186,52634,2,0,P|165:173|131:174,1,62.9999980773926,2|2,0:0|0:0,0:0:0:0:
316,116,53068,5,12,0:0:0:0:
352,289,53286,1,8,0:0:0:0:
248,276,53503,1,2,0:0:0:0:
334,202,53721,1,8,0:0:0:0:
370,376,53938,1,8,0:0:0:0:
266,363,54155,1,8,0:0:0:0:
352,289,54373,1,2,0:0:0:0:
162,350,54590,1,8,0:0:0:0:
162,350,55025,6,0,L|155:284,1,62.9999980773926,2|2,0:0|0:0,0:0:0:0:
109,176,55460,2,0,L|77:181,2,31.4999990386963,2|2|2,0:0|0:0|0:0,1:0:0:0:
240,197,55894,1,2,0:0:0:0:
194,86,56112,1,2,0:0:0:0:
155,287,56329,1,10,0:0:0:0:
155,287,56764,5,10,0:0:0:0:
325,107,56981,1,10,0:0:0:0:
325,107,57416,5,8,0:0:0:0:
325,107,58286,6,0,P|306:138|276:152,1,70,12|0,0:0|0:0,0:0:0:0:
175,121,58721,1,2,0:0:0:0:
170,244,58938,1,0,0:0:0:0:
170,244,59155,2,0,P|150:314|151:380,1,140,8|2,0:0|0:0,0:0:0:0:
357,330,59808,1,0,0:0:0:0:
357,330,59916,1,0,0:0:0:0:
357,330,60025,2,0,L|427:340,2,70,8|0|2,0:0|0:0|0:0,0:0:0:0:
230,331,60677,1,8,0:0:0:0:
239,213,60894,6,0,L|235:178,2,35,8|8|8,0:0|0:0|0:0,0:0:0:0:
343,221,61329,2,0,L|335:151,1,70,2|8,0:0|0:0,0:0:0:0:
236,87,61764,2,0,P|201:92|172:111,1,70,8|0,0:0|0:0,0:0:0:0:
81,221,62199,1,2,0:0:0:0:
72,121,62416,1,8,0:0:0:0:
181,210,62634,2,0,P|188:279|183:349,1,140,8|2,0:0|0:0,0:0:0:0:
272,367,63286,1,0,0:0:0:0:
360,266,63503,6,0,P|329:245|289:237,1,70,8|8,0:0|0:0,0:0:0:0:
181,210,63938,2,0,P|214:193|240:163,1,70,2|8,0:0|0:0,0:0:0:0:
325,150,64264,1,0,0:0:0:0:
325,150,64373,2,0,P|315:116|318:82,1,70,8|8,0:0|0:0,0:0:0:0:
413,153,64808,1,2,0:0:0:0:
360,266,65025,1,8,0:0:0:0:
180,209,65242,6,0,P|170:175|173:141,2,70,12|0|2,0:0|0:0|0:0,0:0:0:0:
141,329,65894,1,8,0:0:0:0:
303,306,66112,2,0,P|306:271|297:238,1,70,8|8,0:0|0:0,0:0:0:0:
173,140,66547,2,0,P|170:175|180:209,1,70,2|8,0:0|0:0,0:0:0:0:
224,318,66981,5,12,0:0:0:0:
97,252,67199,1,2,0:0:0:0:
252,163,67416,1,2,0:0:0:0:
252,163,67634,2,0,P|286:154|321:157,1,70,12|0,0:0|0:0,0:0:0:0:
335,281,68068,2,0,P|301:290|266:287,1,70,8|2,0:0|0:0,0:0:0:0:
212,96,68503,1,2,0:0:0:0:
212,96,68612,1,2,0:0:0:0:
212,96,68721,6,0,P|280:78|350:84,1,140,12|2,0:0|0:0,0:0:0:0:
454,106,69373,1,2,0:0:0:0:
431,210,69590,1,8,0:0:0:0:
327,188,69808,1,2,0:0:0:0:
327,188,70025,1,2,0:0:0:0:
207,247,70242,2,0,L|204:281,2,35,2|0|8,0:0|0:0|0:0,0:0:0:0:
217,121,70677,5,0,3:0:0:0:
217,121,70786,1,0,3:0:0:0:
217,121,70894,2,0,L|252:128,3,35,4|4|0|0,0:0|0:0|3:0|3:0,3:0:0:0:
314,84,71329,1,4,0:0:0:0:
377,186,71547,1,8,0:0:0:0:
253,204,71764,2,0,L|183:189,1,70,2|2,0:0|0:0,0:0:0:0:
126,127,72090,1,8,0:0:0:0:
126,126,72199,6,0,P|105:154|99:188,1,70,12|0,0:0|0:0,0:0:0:0:
136,294,72634,1,2,0:0:0:0:
246,271,72851,2,0,B|257:238|257:238|252:204,1,70,8|8,0:0|2:0,0:0:0:0:
226,110,73286,1,8,0:0:0:0:
319,85,73503,1,2,0:0:0:0:
344,178,73721,2,0,B|353:247|353:247|331:313,1,140,0|8,0:0|0:0,0:0:0:0:
221,369,74373,1,2,0:0:0:0:
128,296,74590,1,8,0:0:0:0:
128,296,74808,2,0,L|123:226,2,70,8|8|2,0:0|0:0|0:0,0:0:0:0:
51,171,75460,5,8,0:0:0:0:
51,171,75568,1,8,0:0:0:0:
51,171,75677,2,0,P|111:138|179:153,1,140,12|2,0:0|0:0,0:0:0:0:
295,198,76329,1,2,0:0:0:0:
295,198,76438,1,2,0:0:0:0:
295,198,76547,2,0,L|298:268,1,70,8|8,0:0|0:0,0:0:0:0:
422,178,76981,1,2,0:0:0:0:
347,102,77199,1,2,0:0:0:0:
347,102,77308,1,2,0:0:0:0:
347,102,77416,6,0,L|342:32,2,70,12|8|2,0:0|0:0|0:0,0:0:0:0:
422,178,78068,2,0,L|492:173,2,70,8|10|0,0:0|0:0|0:0,0:0:0:0:
346,252,78721,1,10,0:0:0:0:
271,177,78938,1,10,0:0:0:0:
310,329,79155,6,0,P|344:338|378:331,1,70,12|0,0:0|0:0,0:0:0:0:
242,279,79590,1,2,0:0:0:0:
346,253,79808,2,0,P|379:244|413:251,1,70,12|0,0:0|0:0,0:0:0:0:
271,177,80242,1,2,0:0:0:0:
242,279,80460,1,2,0:0:0:0:
271,177,80677,6,0,P|237:168|203:175,1,70,12|0,0:0|0:0,0:0:0:0:
125,256,81112,1,2,0:0:0:0:
233,283,81329,1,2,0:0:0:0:
203,175,81547,2,0,P|196:140|204:107,1,70,12|0,0:0|0:0,0:0:0:0:
336,146,81981,1,2,0:0:0:0:
233,283,82199,1,2,0:0:0:0:
117,179,82416,1,2,0:0:0:0:
113,170,82525,1,2,0:0:0:0:
109,160,82634,6,0,L|116:90,1,70,8|0,0:0|0:0,0:0:0:0:
203,175,83068,2,0,L|195:244,1,70,2|8,0:0|0:0,0:2:0:0:
178,377,83503,1,2,0:0:0:0:
112,259,83721,1,8,0:0:0:0:
234,318,83938,1,8,0:0:0:0:
103,341,84155,1,4,0:0:0:0:
92,342,84264,1,4,0:0:0:0:
83,343,84373,1,12,0:0:0:0:
256,192,84481,12,0,86112,0:0:0:0:
236,187,98286,5,12,0:0:0:0:
353,263,98938,1,0,0:0:0:0:
306,340,99155,2,0,B|267:311|265:271|265:271|227:284|184:259,1,168,8|0,0:0|0:0,0:0:0:0:
92,128,100025,6,0,L|217:114,1,125.999996154785,8|0,0:0|0:0,0:0:0:0:
311,104,100677,1,8,0:0:0:0:
346,226,100894,2,0,L|221:213,1,125.999996154785,2|8,0:0|0:0,0:0:0:0:
125,204,101547,1,8,0:0:0:0:
70,283,101764,6,0,L|64:348,1,62.9999980773926,8|8,0:0|0:0,0:0:0:0:
108,361,102090,1,8,0:0:0:0:
108,361,102199,2,0,B|151:369|182:353|182:353|209:339|244:353,1,125.999996154785,8|2,0:0|0:0,0:0:0:0:
353,318,102851,1,0,0:0:0:0:
450,342,103068,2,0,L|444:272,1,62.9999980773926,8|0,0:0|0:0,0:0:0:0:
347,225,103503,6,0,B|311:232|291:251|291:251|272:232|234:225,1,125.999996154785,8|8,0:0|0:0,0:0:0:0:
229,308,104155,1,8,0:0:0:0:
138,256,104373,2,0,P|107:263|76:256,1,62.9999980773926,2|0,0:0|0:0,0:0:0:0:
77,142,104808,2,0,P|107:135|138:142,1,62.9999980773926,8|0,0:0|0:0,0:0:0:0:
249,125,105242,6,0,L|246:92,3,31.4999990386963,8|0|8|8,0:0|2:0|0:0|0:0,2:0:0:0:
269,52,105677,2,0,P|298:42|329:46,1,62.9999980773926,8|8,0:0|0:0,0:0:0:0:
368,82,106003,1,0,0:0:0:0:
368,82,106112,2,0,L|379:178,1,94.499997116089,2|0,0:0|0:0,0:0:0:0:
444,217,106547,2,0,L|433:313,1,94.499997116089,8|0,0:0|0:0,0:0:0:0:
454,382,106981,6,0,P|419:384|388:368,1,62.9999980773926,8|0,0:0|0:3,0:3:0:0:
328,304,107416,2,0,P|293:302|262:318,1,62.9999980773926,0|0,0:0|0:3,0:3:0:0:
175,323,107851,1,10,0:0:0:0:
175,323,108068,2,0,P|145:308|111:313,1,62.9999980773926,0|2,0:0|0:0,0:0:0:0:
48,245,108503,1,0,0:0:0:0:
135,207,108721,6,0,P|162:220|194:217,1,62.9999980773926,10|0,0:0|0:0,0:0:0:0:
135,74,109155,2,0,P|109:91|96:119,1,62.9999980773926,12|0,0:0|0:3,0:3:0:0:
249,141,109590,2,0,P|247:109|229:83,1,62.9999980773926,12|0,0:0|0:0,0:0:0:0:
226,36,109916,1,0,0:0:0:0:
226,36,110025,2,0,L|320:41,1,94.499997116089,4|0,0:0|0:0,0:0:0:0:
367,43,110460,5,12,0:0:0:0:
419,122,110677,1,0,0:0:0:0:
336,166,110894,2,0,P|325:197|326:228,1,62.9999980773926,2|0,0:0|0:0,0:0:0:0:
249,303,111329,1,10,0:0:0:0:
394,317,111547,1,8,0:0:0:0:
336,166,111764,2,0,P|304:155|273:156,1,62.9999980773926,12|12,0:0|0:0,0:0:0:0:
146,124,112199,5,12,0:0:0:0:
272,72,112416,1,8,0:0:0:0:
295,69,112524,1,8,0:0:0:0:
319,70,112633,1,8,0:0:0:0:
342,76,112742,1,8,0:0:0:0:
364,85,112850,1,10,0:0:0:0:
186,43,113068,1,2,0:0:0:0:
220,223,113286,1,8,0:0:0:0:
336,166,113503,1,8,0:0:0:0:
147,122,113721,5,8,0:0:0:0:
147,122,113829,1,8,0:0:0:0:
147,122,113938,2,0,P|122:142|106:171,1,62.9999980773926,8|0,0:0|0:0,0:0:0:0:
113,286,114373,1,2,0:0:0:0:
236,114,114590,1,8,0:0:0:0:
236,286,114808,2,0,L|236:350,1,62.9999980773926,8|0,0:0|0:0,0:0:0:0:
106,168,115242,2,0,L|170:168,1,62.9999980773926,2|8,0:0|0:0,0:0:0:0:
209,197,115568,1,8,0:0:0:0:
209,197,115677,6,0,P|242:202|273:194,1,62.9999980773926,8|0,0:0|0:0,0:0:0:0:
388,70,116112,1,2,0:0:0:0:
238,116,116329,1,8,0:0:0:0:
394,225,116547,2,0,L|398:289,2,62.9999980773926,8|8|2,0:0|0:0|0:0,0:0:0:0:
244,271,117199,1,8,0:0:0:0:
359,358,117416,6,0,P|408:368|448:352,1,94.499997116089,8|0,0:0|0:0,0:0:0:0:
480,321,117851,1,2,0:0:0:0:
322,256,118068,2,0,L|315:221,2,31.4999990386963,8|0|8,0:0|0:0|0:0,0:0:0:0:
385,146,118503,1,8,0:0:0:0:
223,175,118721,1,2,0:0:0:0:
417,252,118938,1,8,0:0:0:0:
417,252,119047,1,0,0:0:0:0:
417,252,119155,6,0,P|423:221|418:187,1,62.9999980773926,8|0,0:0|0:0,0:0:0:0:
304,72,119590,2,0,P|327:92|359:105,1,62.9999980773926,2|8,0:0|0:0,0:0:0:0:
512,63,120025,1,8,0:0:0:0:
418,190,120242,1,8,0:0:0:0:
512,63,120460,1,8,0:0:0:0:
356,104,120677,1,8,0:0:0:0:
159,76,124373,5,12,0:0:0:0:
189,248,124590,1,8,0:0:0:0:
346,132,124808,1,2,0:0:0:0:
174,162,125025,1,8,0:0:0:0:
361,218,125242,5,8,0:0:0:0:
331,46,125459,1,8,0:0:0:0:
174,162,125677,1,2,0:0:0:0:
346,132,125894,1,8,0:0:0:0:
346,132,126330,5,2,0:0:0:0:
159,76,126546,1,2,0:0:0:0:
279,188,126764,1,2,0:0:0:0:
279,188,126873,1,2,0:0:0:0:
279,188,126981,2,0,L|299:211,3,31.4999990386963,2|0|2|2,0:0|0:0|0:0|0:0,0:0:0:0:
299,262,127416,2,0,L|278:285,3,31.4999990386963,2|0|2|2,0:0|0:0|0:0|0:0,0:0:0:0:
236,314,127851,5,8,0:0:0:0:
206,324,127960,1,8,0:0:0:0:
174,321,128068,2,0,L|142:308,1,31.4999990386963,10|2,0:0|0:0,0:0:0:0:
72,275,128286,1,8,0:0:0:0:
78,244,128395,1,8,0:0:0:0:
97,218,128503,2,0,L|124:196,1,31.4999990386963,10|2,0:0|0:0,0:0:0:0:
187,153,128721,2,0,L|184:132,1,15.7499995193482,8|0,0:0|0:0,0:0:0:0:
187,153,129590,5,12,0:0:0:0:
360,95,129808,1,0,0:0:0:0:
272,212,130025,1,2,0:0:0:0:
294,66,130242,2,0,P|317:38|353:24,1,70,0|8,0:0|0:0,0:0:0:0:
400,192,130677,1,8,0:0:0:0:
284,139,130894,1,2,0:0:0:0:
426,57,131112,1,8,0:0:0:0:
426,57,131221,1,0,0:0:0:0:
426,57,131329,6,0,P|433:91|421:129,1,70,8|0,0:0|0:0,0:0:0:0:
306,278,131764,2,0,L|295:207,1,70,2|8,0:0|0:0,0:0:0:0:
152,139,132199,1,8,0:0:0:0:
226,279,132416,1,8,0:0:0:0:
249,122,132634,1,2,0:0:0:0:
138,236,132851,1,8,0:0:0:0:
295,208,133068,6,0,L|366:197,1,70,8|0,0:0|0:0,0:0:0:0:
479,228,133503,1,2,0:0:0:0:
381,295,133721,2,0,P|358:244|364:196,1,105,8|0,0:0|0:0,0:0:0:0:
384,152,134155,1,8,0:0:0:0:
457,52,134373,1,2,0:0:0:0:
479,228,134590,1,8,0:0:0:0:
457,52,134808,6,0,L|385:43,1,70,8|8,0:0|0:0,0:0:0:0:
278,82,135242,2,0,L|206:91,1,70,2|8,0:0|0:0,0:0:0:0:
162,232,135677,1,8,0:0:0:0:
285,160,135894,1,8,0:0:0:0:
146,61,136112,2,0,P|139:96|148:128,1,70,2|8,0:0|0:0,0:0:0:0:
148,308,136547,6,0,P|213:292|241:228,1,140,12|2,0:0|0:0,0:0:0:0:
389,216,137199,2,0,L|320:207,1,70,8|0,0:0|0:0,0:0:0:0:
162,232,137634,1,8,0:0:0:0:
211,91,137851,1,2,0:0:0:0:
78,249,138068,1,8,0:0:0:0:
239,317,138286,5,12,0:0:0:0:
265,152,138503,1,2,0:0:0:0:
343,290,138721,1,2,0:0:0:0:
162,232,138938,2,0,B|146:227|130:216|130:216|95:236|95:236|65:252|33:237,1,140,12|8,0:0|0:0,0:0:0:0:
239,317,139590,5,2,0:0:0:0:
62,172,139808,1,2,0:0:0:0:
62,172,139916,1,2,0:0:0:0:
62,172,140025,2,0,L|124:139,1,70,12|0,0:0|0:0,0:0:0:0:
278,61,140460,1,2,0:0:0:0:
124,61,140677,1,2,0:0:0:0:
278,139,140894,2,0,L|340:172,1,70,8|2,0:0|0:0,0:0:0:0:
313,341,141329,1,2,0:0:0:0:
432,219,141547,6,0,L|466:215,2,35,2|2|8,0:0|0:0|0:0,3:0:0:0:
265,246,141981,1,8,0:0:0:0:
237,251,142090,1,8,0:0:0:0:
209,256,142199,2,0,P|189:258|172:254,1,35,8|8,0:0|0:0,3:2:0:0:
159,182,142416,2,0,P|179:180|196:184,1,35,4|4,0:0|0:0,3:2:0:0:
284,154,142634,6,0,P|292:117|288:81,1,70,4|8,0:0|0:0,0:0:0:0:
144,108,143068,1,2,0:0:0:0:
289,85,143286,1,2,0:0:0:0:
289,85,143394,1,2,0:0:0:0:
289,85,143503,6,0,P|326:93|362:89,1,70,12|0,0:0|0:0,0:0:0:0:
494,36,143938,2,0,P|468:64|454:97,1,70,2|0,0:0|0:0,0:0:0:0:
376,241,144373,1,8,2:0:0:0:
357,90,144590,1,8,0:0:0:0:
483,171,144808,2,0,P|448:173|415:166,1,70,2|0,0:0|0:0,0:0:0:0:
234,191,145242,6,0,L|198:200,2,35,8|0|0,0:0|0:0|0:0,0:0:0:0:
357,90,145677,1,2,0:0:0:0:
269,259,145894,2,0,L|197:277,1,70,8|8,0:0|0:0,0:0:0:0:
197,122,146329,1,8,0:0:0:0:
340,239,146547,1,2,0:0:0:0:
161,343,146764,1,8,0:0:0:0:
161,343,146873,1,8,0:0:0:0:
161,343,146981,6,0,P|130:303|130:249,1,105,12|0,0:0|0:0,0:0:0:0:
148,204,147416,1,2,0:0:0:0:
221,60,147634,2,0,L|216:26,2,35,2|2|8,0:0|0:0|0:0,0:0:0:0:
95,133,148068,1,8,0:0:0:0:
201,275,148286,1,2,0:0:0:0:
346,165,148503,1,2,0:0:0:0:
346,165,148612,1,2,0:0:0:0:
346,165,148721,6,0,L|339:94,1,70,12|8,0:0|0:0,0:0:0:0:
276,235,149155,1,2,0:0:0:0:
429,220,149373,1,8,0:0:0:0:
414,67,149590,1,8,0:0:0:0:
261,82,149808,2,0,L|225:85,2,35,8|8|10,0:0|0:0|0:0,0:0:0:0:
422,144,150242,1,10,0:0:0:0:
276,235,150460,6,0,L|205:242,1,70,12|0,0:0|0:0,0:0:0:0:
345,287,150894,1,2,0:0:0:0:
147,283,151112,2,0,P|135:250|141:215,1,70,12|0,0:0|0:0,0:0:0:0:
328,166,151547,1,2,0:0:0:0:
345,287,151764,1,2,0:0:0:0:
168,149,151981,2,0,P|133:143|101:155,1,70,12|0,0:0|0:0,0:0:0:0:
243,272,152416,2,0,P|248:237|236:205,1,70,2|2,0:0|0:0,0:0:0:0:
120,347,152851,2,0,P|154:352|186:340,1,70,12|0,0:0|0:0,0:0:0:0:
236,205,153286,5,2,0:0:0:0:
68,297,153503,1,2,0:0:0:0:
269,351,153721,1,2,0:0:0:0:
269,351,153829,1,2,0:0:0:0:
269,351,153938,1,8,0:0:0:0:
269,351,154373,5,2,0:0:0:0:
437,259,154590,1,8,0:0:0:0:
247,234,154808,1,2,0:0:0:0:
386,365,155025,1,8,0:0:0:0:
350,177,155242,2,0,P|348:159|342:138,1,35,10|8,0:0|0:0,0:0:0:0:
308,77,155460,2,0,P|293:87|278:103,1,35,10|8,0:0|0:0,0:0:0:0:
242,163,155677,1,12,0:0:0:0:
242,163,156112,5,10,0:0:0:0:
56,225,156329,1,8,0:0:0:0:
223,259,156547,1,10,0:0:0:0:
76,129,156765,1,14,0:0:0:0:
129,290,156981,1,8,0:2:0:0:
168,98,157199,1,2,0:0:0:0:
168,98,157308,1,2,0:0:0:0:
168,98,157416,1,12,0:0:0:0:
168,98,157851,5,2,0:0:0:0:
375,65,158068,1,8,0:0:0:0:
152,97,158286,1,2,0:0:0:0:
383,148,158503,1,10,0:0:0:0:
223,322,158721,1,2,0:0:0:0:
223,322,158829,1,2,0:0:0:0:
223,322,158938,2,0,P|188:330|152:325,1,70,14|0,0:0|0:0,0:0:0:0:
25,270,159373,5,10,0:0:0:0:
25,270,159481,1,10,0:0:0:0:
25,270,159590,2,0,P|35:235|57:207,1,70,10|10,0:0|0:0,0:0:0:0:
273,267,160025,1,10,0:0:0:0:
169,125,160242,1,8,0:0:0:0:
105,272,160460,1,10,0:0:0:0:
270,160,160677,1,8,0:0:0:0:
64,106,160894,6,0,P|60:145|65:182,1,77.0000023498536,14|8,0:0|0:0,0:0:0:0:
207,31,161329,2,0,P|168:27|131:32,1,77.0000023498536,2|8,0:0|0:0,0:0:0:0:
65,182,161764,1,8,0:0:0:0:
167,109,161981,1,8,0:0:0:0:
270,160,162199,2,0,P|290:192|294:231,1,77.0000023498536,2|8,0:0|0:0,0:0:0:0:
179,322,162634,5,8,0:0:0:0:
365,275,162851,1,8,0:0:0:0:
219,216,163068,1,2,0:0:0:0:
380,275,163286,1,8,0:0:0:0:
380,121,163503,1,8,0:0:0:0:
318,316,163721,1,8,0:0:0:0:
318,316,163829,1,0,0:0:0:0:
318,316,163938,2,0,P|347:341|384:350,1,77.0000023498536,2|8,0:0|0:0,0:0:0:0:
373,197,164373,6,0,P|336:209|310:237,1,77.0000023498536,12|0,0:0|0:0,0:0:0:0:
446,235,164808,1,2,0:0:0:0:
380,121,165025,1,2,0:0:0:0:
450,310,165242,2,0,P|457:272|446:235,1,77.0000023498536,8|0,0:0|0:0,0:0:0:0:
308,166,165677,1,2,0:0:0:0:
474,107,165894,1,2,0:0:0:0:
467,84,166003,1,8,0:0:0:0:
461,61,166112,1,12,0:0:0:0:
321,120,166329,5,0,0:0:0:0:
315,143,166438,1,8,0:0:0:0:
308,166,166547,1,2,0:0:0:0:
446,235,166764,1,2,0:0:0:0:
263,314,166981,2,0,L|286:239,1,77.0000023498536,8|0,0:0|0:0,0:0:0:0:
166,108,167416,1,2,0:0:0:0:
201,255,167634,1,2,0:0:0:0:
364,137,167851,6,0,L|288:127,1,77.0000023498536,12|8,0:0|0:0,0:0:0:0:
122,178,168286,1,2,0:0:0:0:
241,55,168503,1,8,0:0:0:0:
285,240,168721,1,2,0:0:0:0:
235,41,168938,1,8,0:0:0:0:
109,183,169155,1,2,0:0:0:0:
288,127,169373,1,8,0:0:0:0:
288,127,169481,1,0,0:0:0:0:
288,127,169590,6,0,L|364:137,1,77.0000023498536,6|8,0:0|0:0,0:0:0:0:
209,192,170025,1,2,0:0:0:0:
440,186,170242,2,0,P|454:150|450:110,1,77.0000023498536,12|0,0:0|0:0,0:0:0:0:
339,52,170677,1,8,0:0:0:0:
323,234,170894,1,6,0:0:0:0:
263,65,171112,1,8,0:0:0:0:
263,65,171221,1,0,0:0:0:0:
263,65,171329,6,0,L|342:51,1,77.0000023498536,12|8,0:0|0:0,0:0:0:0:
248,211,171764,1,8,0:0:0:0:
127,120,171981,1,8,0:0:0:0:
263,65,172199,1,8,0:0:0:0:
134,207,172416,1,8,0:0:0:0:
120,33,172634,1,8,0:0:0:0:
248,211,172851,1,8,0:0:0:0:
49,123,173068,5,12,0:0:0:0:
149,337,173286,1,8,0:0:0:0:
285,143,173503,1,8,0:0:0:0:
127,120,173721,5,12,0:0:0:0:
226,331,173939,1,8,0:0:0:0:
360,139,174156,1,12,0:0:0:0:
203,115,174373,5,8,0:0:0:0:
302,327,174591,1,8,0:0:0:0:
437,135,174808,1,12,0:0:0:0:
256,192,174916,12,0,176547,0:0:0:0:
362,319,181764,5,12,0:0:0:0:
328,169,181981,1,0,0:0:0:0:
213,285,182199,1,8,0:0:0:0:
179,135,182416,1,0,0:0:0:0:
265,104,182634,5,8,0:0:0:0:
328,169,182851,1,0,0:0:0:0:
414,138,183068,1,8,0:0:0:0:
477,203,183285,1,0,0:0:0:0:
391,234,183503,5,8,0:0:0:0:
242,200,183721,1,0,0:0:0:0:
351,73,183938,1,8,0:0:0:0:
328,169,184155,1,0,0:0:0:0:
265,104,184373,5,8,0:0:0:0:
414,138,184591,1,0,0:0:0:0:
305,265,184808,1,8,0:0:0:0:
328,169,185025,1,0,0:0:0:0:
179,135,185242,6,0,P|139:145|96:144,2,83.9999974365235,12|10|8,0:0|0:0|0:0,0:0:0:0:
328,169,185894,1,12,0:0:0:0:
328,169,186329,1,10,0:0:0:0:
240,292,186547,1,8,0:0:0:0:
105,226,186764,2,0,P|95:186|96:143,1,83.9999974365235,12|0,0:0|0:0,0:0:0:0:
193,103,187199,6,0,L|191:78,4,20.9999993591309
327,171,187634,2,0,L|323:193,4,20.9999993591309
299,61,188068,1,8,0:0:0:0:
214,210,188286,1,0,0:0:0:0:
189,79,188503,1,8,0:0:0:0:
324,192,188721,6,0,L|313:260,1,70,12|0,0:0|0:0,0:0:0:0:
217,353,189155,1,2,0:0:0:0:
214,210,189373,2,0,L|205:177,2,35,0|0|8,0:0|0:0|0:0,0:0:0:0:
329,337,189808,1,8,0:0:0:0:
390,203,190025,2,0,P|357:190|322:192,1,70,2|0,0:0|0:0,0:0:0:0:
154,87,190460,6,0,L|163:157,1,70,8|8,0:0|0:0,0:0:0:0:
277,246,190894,1,2,0:0:0:0:
89,272,191112,1,8,0:0:0:0:
91,254,191220,1,0,0:0:0:0:
93,237,191329,1,0,0:0:0:0:
95,219,191438,1,0,0:0:0:0:
97,202,191546,1,8,0:0:0:0:
51,57,191764,2,0,P|86:46|121:49,1,70,2|8,0:0|0:0,0:0:0:0:
285,73,192199,6,0,L|322:68,2,35,8|0|0,0:0|0:0|0:0,0:0:0:0:
152,137,192634,1,2,0:0:0:0:
317,165,192851,2,0,L|354:160,2,35,8|0|0,0:0|0:0|0:0,0:0:0:0:
184,229,193286,1,8,0:0:0:0:
349,257,193503,2,0,L|418:247,1,70,2|8,0:0|0:0,0:0:0:0:
317,165,193938,6,0,L|247:155,1,70,0|8,0:0|0:0,0:0:0:0:
141,286,194373,1,2,0:0:0:0:
279,267,194590,2,0,L|348:257,1,70,8|0,0:0|0:0,0:0:0:0:
247,155,195025,1,8,0:0:0:0:
270,346,195242,2,0,L|274:380,2,35,6|0|0,0:0|0:0|0:0,0:0:0:0:
387,203,195677,6,0,B|345:169|345:169|326:155|297:155,1,105,12|0,0:0|0:0,0:0:0:0:
247,155,196112,1,0,0:0:0:0:
371,299,196329,1,0,0:0:0:0:
474,153,196547,2,0,L|468:78,1,70,2|0,0:0|0:0,0:0:0:0:
310,160,196981,2,0,L|298:229,1,70,0|8,0:0|0:0,0:0:0:0:
240,79,197416,5,0,0:0:0:0:
399,110,197634,1,8,0:0:0:0:
299,230,197851,1,8,0:0:0:0:
312,139,198068,1,0,0:0:0:0:
142,304,198286,2,0,P|150:270|173:242,1,70,2|0,0:0|0:0,0:0:0:0:
338,302,198721,2,0,P|305:311|269:306,1,70,8|0,0:0|0:0,0:0:0:0:
429,232,199155,6,0,P|453:258|465:291,1,70,12|8,0:0|0:0,0:0:0:0:
358,378,199590,1,8,0:0:0:0:
299,230,199808,1,8,0:0:0:0:
142,304,200025,1,8,0:0:0:0:
201,155,200243,1,8,0:0:0:0:
63,204,200460,1,8,0:0:0:0:
288,126,200677,1,8,0:0:0:0:
122,61,200894,6,0,L|115:99,3,35,8|8|8|8,0:0|0:0|0:0|0:0,0:0:0:0:
68,165,201329,2,0,L|61:203,3,35,8|8|8|8,0:0|0:0|0:0|0:0,0:0:0:0:
54,283,201764,6,0,L|92:290,1,35,8|8,0:0|0:0,0:0:0:0:
146,350,201981,2,0,L|171:320,1,35,8|8,0:0|0:0,0:0:0:0:
261,311,202199,1,8,0:0:0:0:
267,285,202307,1,8,0:0:0:0:
273,263,202416,1,8,0:0:0:0:
278,240,202525,1,8,0:0:0:0:
282,218,202634,6,0,P|423:121|306:245,1,503.999984619141,12|12,0:0|0:0,0:0:0:0:
305,244,205025,5,8,3:0:0:0:
441,161,205242,1,0,2:0:0:0:
281,143,205460,1,4,3:0:0:0:
400,252,205677,1,4,3:0:0:0:
368,93,205894,1,4,3:0:0:0:
359,179,206112,5,0,2:0:0:0:
331,294,208938,6,0,L|311:271,1,22.7499989585877,8|0,0:0|0:0,0:0:0:0:
249,314,209155,2,0,L|246:282,1,24.4999992523194,8|0,0:0|0:0,0:0:0:0:
169,317,209373,2,0,L|179:282,1,26.2500010013581,8|0,0:0|0:0,0:0:0:0:
89,293,209590,2,0,B|110:247|110:247|122:222|152:222,1,84,12|0,0:0|0:0,0:0:0:0:
178,210,210025,5,8,0:0:0:0:
374,193,210242,1,0,0:0:0:0:
170,106,210460,5,8,0:0:0:0:
186,315,210677,1,0,0:0:0:0:
381,298,210894,1,8,0:0:0:0:
365,88,211111,1,0,0:0:0:0:
170,106,211329,5,8,0:0:0:0:
186,315,211546,1,0,0:0:0:0:
365,88,211764,1,8,0:0:0:0:
381,298,211981,1,0,0:0:0:0:
170,106,212199,5,8,0:0:0:0:
381,298,212416,1,0,0:0:0:0:
186,315,212634,1,8,0:0:0:0:
365,88,212851,1,0,0:0:0:0:
450,337,213068,6,0,P|461:304|456:269,1,70,12|0,0:0|0:0,0:0:0:0:
484,109,213503,1,2,0:0:0:0:
273,199,213721,1,8,0:0:0:0:
422,223,213938,1,8,0:0:0:0:
272,94,214156,1,8,0:0:0:0:
236,285,214373,1,2,0:0:0:0:
107,271,214590,5,8,3:2:0:0:
87,242,214698,1,8,3:2:0:0:
82,208,214808,2,0,L|102:166,3,38.5000011749268,12|8|8|8,3:2|3:2|3:2|3:2,0:0:0:0:
175,138,215242,2,0,L|213:147,1,38.5000011749268,8|8,3:2|3:2,3:2:0:0:
287,190,215460,2,0,L|324:181,1,38.5000011749268,8|8,3:2|3:2,3:2:0:0:
398,158,215677,5,8,3:2:0:0:
398,158,216547,6,0,P|370:127|331:116,1,83.9999974365235,12|0,0:0|0:0,0:0:0:0:
173,129,216981,1,2,0:0:0:0:
302,22,217199,1,8,0:0:0:0:
332,188,217416,2,0,L|326:271,1,83.9999974365235,8|8,2:0|0:0,0:0:0:0:
250,307,217851,1,2,0:0:0:0:
400,235,218068,1,0,0:0:0:0:
256,224,218286,6,0,L|173:218,1,83.9999974365235,8|0,0:0|0:0,0:0:0:0:
5,240,218721,1,2,0:0:0:0:
150,127,218938,1,8,0:0:0:0:
175,309,219155,1,8,0:0:0:0:
175,309,219264,1,8,0:0:0:0:
175,309,219373,1,8,0:0:0:0:
80,181,219590,2,0,P|63:142|66:101,1,83.9999974365235,2|8,0:0|0:0,0:0:0:0:
221,73,220025,6,0,P|238:112|235:153,1,83.9999974365235,12|0,0:0|0:0,0:0:0:0:
329,34,220460,1,2,0:0:0:0:
432,92,220677,1,2,0:0:0:0:
432,92,220786,1,2,0:0:0:0:
432,92,220894,2,0,L|420:177,1,83.9999974365235,8|8,0:0|0:0,0:0:0:0:
394,349,221329,1,2,0:0:0:0:
258,239,221547,2,0,B|301:246,1,41.9999987182618,2|2,0:0|0:0,0:0:0:0:
457,270,221764,5,12,0:0:0:0:
294,333,221981,1,8,0:0:0:0:
321,160,222198,1,2,0:0:0:0:
394,349,222416,1,8,0:0:0:0:
258,239,222633,5,2,0:2:0:0:
420,175,222851,1,8,0:0:0:0:
294,333,223068,1,10,0:0:0:0:
457,270,223286,1,10,0:0:0:0:
182,271,223503,6,0,P|174:228|188:192,1,83.9999974365235,12|0,0:0|0:0,0:0:0:0:
304,77,223938,1,2,0:0:0:0:
304,77,224155,2,0,L|320:159,1,83.9999974365235,12|0,0:0|0:0,0:0:0:0:
240,325,224590,1,2,0:0:0:0:
188,191,224808,1,2,0:0:0:0:
397,182,225025,6,0,P|371:219|337:236,1,83.9999974365235,12|0,0:0|0:0,0:0:0:0:
150,250,225460,1,2,0:0:0:0:
240,138,225678,1,2,0:0:0:0:
355,313,225894,2,0,P|311:310|278:288,1,83.9999974365235,12|0,0:0|0:0,0:0:0:0:
116,188,226329,5,2,0:0:0:0:
154,338,226547,1,2,0:0:0:0:
35,213,226764,1,2,0:0:0:0:
35,213,226873,1,2,0:0:0:0:
35,213,226981,2,0,L|53:129,1,83.9999974365235,8|0,0:0|0:0,0:0:0:0:
230,85,227416,5,6,0:0:0:0:
52,130,227634,1,8,0:0:0:0:
224,169,227851,1,6,0:0:0:0:
40,134,228068,1,8,0:0:0:0:
218,255,228286,1,8,0:0:0:0:
238,252,228394,1,8,0:0:0:0:
258,247,228503,1,8,0:0:0:0:
276,237,228612,1,8,0:0:0:0:
293,221,228721,6,0,B|316:166|236:144|228:69|317:22|364:74|364:74|440:20|542:130|419:221|372:195|364:240|384:280,1,560,12|0,0:0|0:0,0:0:0:0:
256,192,230568,12,0,232851,0:0:0:0:
106,148,237416,6,0,L|161:136,1,56,8|8,0:0|0:0,0:0:0:0:
233,63,237851,1,8,0:0:0:0:
233,63,238068,2,0,P|261:110|258:165,1,112,8|8,0:0|0:0,0:0:0:0:
357,284,238938,2,0,P|302:284|256:254,1,112,8|8,0:0|0:0,0:0:0:0:
103,279,239808,2,0,P|130:231|179:207,1,112,8|8,0:0|0:0,0:0:0:0:
257,165,240460,5,8,0:0:0:0:
255,254,240677,1,8,0:0:0:0:
332,211,240894,2,0,L|397:211,1,56,8|0,0:0|0:0,0:0:0:0:
446,167,241329,1,8,0:0:0:0:
437,94,241546,1,8,0:0:0:0:
370,66,241764,1,8,0:0:0:0:
312,110,241981,1,8,0:0:0:0:
304,182,242198,1,8,0:0:0:0:
236,211,242416,1,8,0:0:0:0:
229,284,242634,6,0,P|165:236|184:159,1,168,8|8,0:0|0:0,0:0:0:0:
267,128,243503,2,0,B|259:101|231:85|231:85|370:74,1,196,8|0,0:0|0:0,0:0:0:0:
450,140,244476,6,0,P|482:137|510:131,2,41.9999987182618,8|8|8,0:0|0:0|0:0,0:0:0:0:
391,198,245128,2,0,L|396:239,1,41.9999987182618,8|8,0:0|0:0,0:0:0:0:
296,326,245617,2,0,L|251:317,1,41.9999987182618,8|8,0:0|0:0,0:0:0:0:
158,285,246332,6,0,L|161:279,1,6.99999978637696,8|0,0:0|0:0,0:0:0:0:
