osu file format v14

[General]
AudioFilename: audio.mp3
AudioLeadIn: 0
PreviewTime: 208514
Countdown: 0
SampleSet: Soft
StackLeniency: 0.7
Mode: 0
LetterboxInBreaks: 0
WidescreenStoryboard: 0

[Editor]
Bookmarks: 139601,209166
DistanceSpacing: 1.2
BeatDivisor: 8
GridSize: 16
TimelineZoom: 1.9

[Metadata]
Title:Collage
TitleUnicode:コラージュ
Artist:Sangatsu no Phantasia
ArtistUnicode:三月のパンタシア
Creator:CoLouRed GlaZeE
Version:Umai
Source:衛宮さんちの今日のごはん
Tags:emiya-san chi no kyou no gohan today's menu for the emiya family ed ending full size version garden Mia みあ
BeatmapID:1784378
BeatmapSetID:853833

[Difficulty]
HPDrainRate:6
CircleSize:4
OverallDifficulty:7
ApproachRate:8
SliderMultiplier:1.4
SliderTickRate:1

[Events]
//Background and Video events
0,0,"bbbggg.jpg",0,0
//Break Periods
//Storyboard Layer 0 (Background)
//Storyboard Layer 1 (Fail)
//Storyboard Layer 2 (Pass)
//Storyboard Layer 3 (Foreground)
//Storyboard Sound Samples

[TimingPoints]
471,434.782608695652,4,2,1,30,1,0
28297,-100,4,2,1,40,0,0
42210,-133.333333333333,4,2,1,30,0,0
49166,-200,4,2,1,20,0,0
52644,-133.333333333333,4,2,1,30,0,0
54384,-100,4,2,1,30,0,0
56992,-80,4,2,1,40,0,0
57862,-80,4,2,1,50,0,1
62970,-80,4,2,1,50,0,0
63079,-66.6666666666667,4,2,1,60,0,1
63297,-66.6666666666667,4,2,1,60,0,0
63514,-66.6666666666667,4,2,1,60,0,1
63731,-66.6666666666667,4,2,1,60,0,0
63949,-66.6666666666667,4,2,1,60,0,1
64166,-66.6666666666667,4,2,1,60,0,0
64384,-66.6666666666667,4,2,1,60,0,1
64601,-66.6666666666667,4,2,1,60,0,0
64818,-66.6666666666667,4,2,1,60,0,1
64927,-80,4,2,1,50,0,1
71557,-80,4,2,1,50,0,0
71775,-80,4,2,1,50,0,1
76884,-80,4,2,1,50,0,0
76992,-66.6666666666667,4,2,1,60,0,1
77210,-66.6666666666667,4,2,1,60,0,0
77427,-66.6666666666667,4,2,1,60,0,1
77644,-66.6666666666667,4,2,1,60,0,0
77862,-66.6666666666667,4,2,1,60,0,1
78079,-66.6666666666667,4,2,1,60,0,0
78297,-66.6666666666667,4,2,1,60,0,1
78514,-66.6666666666667,4,2,1,60,0,0
78731,-66.6666666666667,4,2,1,60,0,1
78840,-80,4,2,1,50,0,1
89166,-100,4,2,1,40,0,0
96123,-133.333333333333,4,2,1,30,0,0
110036,-100,4,2,1,40,0,0
123949,-133.333333333333,4,2,1,30,0,0
136123,-100,4,2,1,40,0,0
139601,-80,4,2,1,50,0,1
144710,-80,4,2,1,50,0,0
144818,-66.6666666666667,4,2,1,60,0,1
145036,-66.6666666666667,4,2,1,60,0,0
145253,-66.6666666666667,4,2,1,60,0,1
145470,-66.6666666666667,4,2,1,60,0,0
145688,-66.6666666666667,4,2,1,60,0,1
145905,-66.6666666666667,4,2,1,60,0,0
146123,-66.6666666666667,4,2,1,60,0,1
146340,-66.6666666666667,4,2,1,60,0,0
146557,-66.6666666666667,4,2,1,60,0,1
146666,-80,4,2,1,50,0,1
153297,-80,4,2,1,50,0,0
153514,-80,4,2,1,50,0,1
158623,-80,4,2,1,50,0,0
158731,-66.6666666666667,4,2,1,60,0,1
158949,-66.6666666666667,4,2,1,60,0,0
159166,-66.6666666666667,4,2,1,60,0,1
159384,-66.6666666666667,4,2,1,60,0,0
159601,-66.6666666666667,4,2,1,60,0,1
159818,-66.6666666666667,4,2,1,60,0,0
160036,-66.6666666666667,4,2,1,60,0,1
160253,-66.6666666666667,4,2,1,60,0,0
160470,-66.6666666666667,4,2,1,60,0,1
160579,-80,4,2,1,50,0,1
167427,-100,4,2,1,40,0,0
181340,-100,4,2,1,50,0,1
195253,-100,4,2,1,50,0,0
209275,-133.333333333333,4,2,1,30,0,0
216123,-100,4,2,1,40,0,0
223079,-80,4,2,1,50,0,1
228188,-80,4,2,1,50,0,0
228297,-66.6666666666667,4,2,1,60,0,1
228514,-66.6666666666667,4,2,1,60,0,0
228731,-66.6666666666667,4,2,1,60,0,1
228949,-66.6666666666667,4,2,1,60,0,0
229166,-66.6666666666667,4,2,1,60,0,1
229384,-66.6666666666667,4,2,1,60,0,0
229601,-66.6666666666667,4,2,1,60,0,1
229818,-66.6666666666667,4,2,1,60,0,0
230036,-66.6666666666667,4,2,1,60,0,1
230144,-80,4,2,1,50,0,1
236992,-133.333333333333,4,2,1,30,0,0
239057,-100,4,2,1,30,0,0
239166,-133.333333333333,4,2,1,30,0,0
240742,-133.333333333333,4,2,1,20,0,0
240905,-133.333333333333,4,2,1,15,0,0
241557,-133.333333333333,4,2,1,20,0,0
241775,-133.333333333333,4,2,1,30,0,0
242210,-100,4,2,1,50,0,1
256123,-200,4,2,1,30,0,0
262427,-200,4,2,1,5,0,0

[Colours]
Combo1 : 255,191,128
Combo2 : 255,128,128
Combo3 : 255,242,128
Combo4 : 255,164,209

[HitObjects]
84,310,471,6,0,P|47:309|13:310,1,70
144,253,905,1,2,0:0:0:0:
214,304,1123,2,0,P|222:244|221:164,1,140
297,138,1775,1,2,0:0:0:0:
349,200,1992,2,0,P|346:272|351:351,1,140
426,313,2644,1,2,0:0:0:0:
501,341,2862,2,0,P|505:235|503:198,1,140
466,130,3514,2,0,L|395:137,1,70,2|0,0:0|0:0,0:0:0:0:
361,228,3949,6,0,P|371:265|378:301,1,70
295,182,4384,1,2,0:0:0:0:
270,258,4601,2,0,P|199:280|128:291,1,140
72,342,5253,1,2,0:0:0:0:
20,281,5470,2,0,P|23:206|20:129,1,140
84,91,6123,1,2,0:0:0:0:
125,160,6340,2,0,P|216:156|270:162,1,140
370,89,6992,2,0,P|335:91|301:90,1,70,2|0,0:0|0:0,0:0:0:0:
300,253,7427,5,0,1:0:0:0:
380,255,7644,1,0,0:0:0:0:
380,255,7753,1,0,0:0:0:0:
380,255,7862,1,2,0:0:0:0:
424,349,8079,5,0,1:0:0:0:
462,285,8297,1,0,0:0:0:0:
462,285,8405,1,0,0:0:0:0:
462,285,8514,1,0,0:0:0:0:
418,191,8731,1,2,0:0:0:0:
499,215,8949,6,0,L|506:142,1,70,0|0,1:0|0:0,0:0:0:0:
465,79,9384,1,0,0:0:0:0:
465,79,9492,1,0,0:0:0:0:
465,79,9601,1,2,0:0:0:0:
321,101,9818,6,0,L|390:113,1,70,0|0,1:0|0:0,0:0:0:0:
389,112,10144,1,0,0:0:0:0:
389,112,10253,1,0,0:0:0:0:
418,191,10470,1,2,0:0:0:0:
345,211,10688,5,0,0:0:0:0:
345,211,10797,1,0,0:0:0:0:
345,211,10905,1,0,1:0:0:0:
400,277,11123,1,0,0:0:0:0:
315,292,11340,1,2,0:0:0:0:
345,211,11557,5,0,1:0:0:0:
238,257,11775,1,0,0:0:0:0:
299,370,11992,1,0,0:0:0:0:
299,370,12101,1,0,0:0:0:0:
299,370,12210,1,2,0:0:0:0:
406,324,12427,5,4,1:0:0:0:
74,83,14384,6,0,P|150:78|232:88,1,140,4|2,1:0|0:0,0:0:0:0:
293,189,15036,2,0,P|296:151|292:115,1,70,0|0,1:0|0:0,0:0:0:0:
113,168,15470,2,0,P|148:169|189:168,1,70,0|2,0:0|0:0,0:0:0:0:
251,258,15905,2,0,P|181:255|110:259,1,140,0|0,1:0|0:0,0:0:0:0:
260,343,16557,1,2,0:0:0:0:
344,370,16775,2,0,L|363:300,1,70,0|0,1:0|0:0,0:0:0:0:
430,123,17210,5,0,0:0:0:0:
498,206,17427,1,2,0:0:0:0:
392,223,17644,1,0,0:0:0:0:
428,84,17862,5,0,1:0:0:0:
486,173,18079,1,0,0:0:0:0:
406,239,18297,1,2,0:0:0:0:
348,150,18514,2,0,P|346:108|347:73,1,70,0|0,1:0|0:0,0:0:0:0:
248,35,18949,2,0,P|250:77|249:112,1,70,0|2,0:0|0:0,0:0:0:0:
146,256,19384,6,0,P|142:197|144:114,1,140,0|0,1:0|0:0,0:0:0:0:
254,188,20036,1,2,0:0:0:0:
340,157,20253,2,0,P|346:232|343:303,1,140,0|0,1:0|0:0,0:0:0:0:
255,331,20905,2,0,P|216:328|182:330,1,70
21,235,21340,6,0,P|98:231|173:239,1,140,4|2,1:0|0:0,0:0:0:0:
271,144,21992,2,0,P|194:148|119:140,1,140,0|0,1:0|0:0,0:0:0:0:
282,236,22644,1,2,0:0:0:0:
366,126,22862,2,0,P|373:197|368:278,1,140,0|0,1:0|0:0,0:0:0:0:
303,334,23514,1,2,0:0:0:0:
219,302,23731,2,0,P|149:297|70:299,1,140,0|0,1:0|0:0,0:0:0:0:
12,186,24384,1,2,0:0:0:0:
95,153,24601,1,0,0:0:0:0:
174,203,24818,6,0,P|172:141|177:61,1,140,0|2,1:0|0:0,0:0:0:0:
259,98,25470,1,0,1:0:0:0:
345,72,25688,1,0,0:0:0:0:
376,162,25905,2,0,P|335:157|279:162,1,70,0|2,0:0|0:0,0:0:0:0:
465,86,26340,6,0,P|460:168|464:247,1,140,0|0,1:0|0:0,0:0:0:0:
379,264,26992,1,2,0:0:0:0:
428,346,27210,2,0,P|357:341|269:349,1,140
208,256,27862,2,0,P|251:260|280:258,1,70,2|0,0:0|0:0,0:0:0:0:
393,82,28297,6,0,L|378:163,1,70,4|0,1:0|0:0,0:0:0:0:
407,287,28731,1,8,0:0:0:0:
487,239,28949,2,0,P|490:199|481:162,1,70,0|0,1:0|0:0,0:0:0:0:
317,269,29384,2,0,L|332:350,1,70,8|0,0:0|0:0,0:0:0:0:
218,337,29818,2,0,P|213:264|224:173,1,140,0|0,1:0|0:0,0:0:0:0:
127,319,30470,1,8,0:0:0:0:
56,269,30688,2,0,L|43:198,1,70,0|0,1:0|0:0,0:0:0:0:
123,36,31123,5,0,0:0:0:0:
192,150,31340,1,8,0:0:0:0:
123,211,31557,1,0,0:0:0:0:
122,115,31775,5,0,1:0:0:0:
186,264,31992,1,0,0:0:0:0:
42,224,32210,1,8,0:0:0:0:
103,362,32427,2,0,P|104:326|101:291,1,70,0|0,1:0|0:0,0:0:0:0:
273,204,32862,6,0,P|272:240|275:275,1,70,8|0,0:0|0:0,0:0:0:0:
376,374,33297,2,0,P|300:361|232:373,1,140,0|0,1:0|0:0,0:0:0:0:
377,278,33949,1,8,0:0:0:0:
456,334,34166,2,0,L|473:255,1,70,0|0,1:0|0:0,0:0:0:0:
423,196,34601,5,10,0:0:0:0:
386,38,34818,1,10,0:0:0:0:
470,81,35036,1,0,0:0:0:0:
339,153,35253,6,0,P|299:150|266:152,1,70,4|0,1:0|0:0,0:0:0:0:
199,89,35688,1,8,0:0:0:0:
238,299,35905,2,0,L|253:228,1,70,0|0,1:0|0:0,0:0:0:0:
182,167,36340,2,0,L|167:238,1,70,8|0,0:0|0:0,0:0:0:0:
22,359,36775,2,0,P|11:266|25:207,1,140,0|8,1:0|0:0,0:0:0:0:
131,330,37427,1,8,0:0:0:0:
168,235,37644,2,0,L|84:256,1,70,0|0,1:0|0:0,0:0:0:0:
131,330,38079,5,8,0:0:0:0:
259,292,38297,1,8,0:0:0:0:
222,164,38514,1,0,0:0:0:0:
100,252,38731,6,0,P|97:211|103:170,1,70,0|0,1:0|0:0,0:0:0:0:
55,98,39166,1,8,0:0:0:0:
161,27,39384,2,0,P|164:68|158:109,1,70,0|0,1:0|0:0,0:0:0:0:
282,173,39818,2,0,P|237:172|210:174,1,70,8|0,0:0|0:0,0:0:0:0:
304,80,40253,1,0,0:0:0:0:
398,168,40470,6,0,P|405:98|399:27,1,140,0|8,1:0|0:0,0:0:0:0:
501,107,41123,2,0,P|498:150|504:198,1,70,0|0,1:0|0:0,0:0:0:0:
480,276,41557,5,8,0:0:0:0:
341,236,41775,1,8,0:0:0:0:
392,325,41992,1,0,0:0:0:0:
429,187,42210,6,0,P|426:125|438:65,1,105.000004005432,4|0,1:0|0:0,0:0:0:0:
359,38,42862,1,0,1:0:0:0:
359,38,43079,2,0,L|355:94,1,52.5000020027161,0|2,1:0|0:0,0:0:0:0:
297,162,43514,2,0,P|329:165|349:168,1,52.5000020027161,10|0,0:0|0:0,0:0:0:0:
173,44,43949,6,0,P|117:45|64:41,1,105.000004005432,0|0,1:0|0:0,0:0:0:0:
22,155,44601,1,0,1:0:0:0:
22,155,44818,2,0,L|18:102,1,52.5000020027161,0|2,1:0|0:0,0:0:0:0:
99,123,45253,2,0,L|102:175,1,52.5000020027161,10|0,0:0|0:0,0:0:0:0:
325,240,45688,6,0,P|325:164|321:125,1,105.000004005432,0|0,1:0|0:0,0:0:0:0:
295,59,46340,1,0,1:0:0:0:
295,59,46557,2,0,P|325:61|352:59,1,52.5000020027161,0|2,1:0|0:0,0:0:0:0:
402,167,46992,2,0,L|404:115,1,52.5000020027161,10|0,0:0|0:0,0:0:0:0:
197,230,47427,6,0,P|197:306|201:345,1,105.000004005432,0|0,1:0|0:0,0:0:0:0:
124,358,48079,1,0,1:0:0:0:
124,358,48297,2,0,L|121:293,1,52.5000020027161,0|2,1:0|0:0,0:0:0:0:
69,231,48731,2,0,L|134:228,1,52.5000020027161,10|0,0:0|0:0,0:0:0:0:
281,175,49166,6,0,P|283:141|280:91,1,70,0|2,0:0|0:0,0:0:0:0:
204,33,49818,2,0,P|202:67|205:117,1,70
207,182,50470,1,2,0:0:0:0:
207,182,50688,2,0,P|189:181|172:181,1,35
96,119,51123,2,0,P|113:119|130:119,1,35,0|2,0:0|0:0,0:0:0:0:
29,221,51557,2,0,P|30:184|27:149,1,70
103,209,52210,2,0,P|102:225|103:244,1,35,2|0,0:0|0:0,0:0:0:0:
220,344,52644,6,0,P|253:347|273:346,1,52.5000020027161,0|0,1:0|0:0,0:0:0:0:
302,213,53079,2,0,P|276:210|250:213,1,52.5000020027161,8|0,0:0|1:0,0:0:0:0:
375,315,53514,2,0,P|406:317|433:312,1,52.5000020027161,0|0,0:0|1:0,0:0:0:0:
450,133,53949,2,0,P|424:130|398:134,1,52.5000020027161,8|0,0:0|0:0,0:0:0:0:
321,96,54384,5,0,1:0:0:0:
296,185,54601,1,0,0:0:0:0:
374,267,54818,1,8,0:0:0:0:
399,178,55036,5,0,1:0:0:0:
399,178,55144,1,0,0:0:0:0:
399,178,55253,1,0,0:0:0:0:
329,351,55470,1,0,1:0:0:0:
271,274,55688,1,8,0:0:0:0:
465,262,55905,5,0,1:0:0:0:
465,262,56014,1,0,0:0:0:0:
465,262,56123,1,0,0:0:0:0:
337,240,56340,1,0,1:0:0:0:
254,348,56557,1,8,0:0:0:0:
134,333,56775,5,0,1:0:0:0:
134,333,56884,1,0,0:0:0:0:
134,333,56992,2,0,P|127:258|132:197,1,131.25,4|0,1:0|0:0,0:0:0:0:
182,150,57427,2,0,L|208:146,7,21.875,4|0|0|0|0|0|0|0,1:0|0:0|0:0|0:0|0:0|0:0|0:0|0:0,0:0:0:0:
165,134,57862,6,0,P|119:131|73:135,1,87.5,4|0,1:0|0:0,0:0:0:0:
223,43,58297,1,8,0:0:0:0:
287,228,58514,2,0,P|333:231|379:227,1,87.5,2|0,1:2|0:0,0:0:0:0:
236,318,58949,1,0,1:0:0:0:
236,318,59057,1,2,0:0:0:0:
236,318,59166,1,8,0:0:0:0:
180,236,59384,1,0,0:0:0:0:
329,322,59601,5,2,1:2:0:0:
180,236,59818,1,0,0:0:0:0:
226,156,60036,1,8,0:0:0:0:
62,249,60253,1,2,1:2:0:0:
1,186,60470,2,0,L|17:91,1,87.5,0|0,0:0|1:0,0:0:0:0:
127,298,60905,2,0,L|111:393,1,87.5,8|0,0:0|0:0,0:0:0:0:
266,253,61340,6,0,P|252:167|266:81,1,175,2|8,1:2|0:0,0:0:0:0:
87,114,61992,2,0,P|130:109|174:112,1,87.5,2|0,1:2|0:0,0:0:0:0:
349,174,62427,1,0,1:0:0:0:
349,174,62536,1,2,0:0:0:0:
349,174,62644,1,8,0:0:0:0:
266,253,62862,1,0,0:0:0:0:
356,332,63079,6,0,L|460:350,1,105.000004005432,4|0,1:0|0:0,0:0:0:0:
356,52,63514,2,0,L|460:34,1,105.000004005432,4|0,1:0|0:0,0:0:0:0:
153,312,63949,2,0,L|257:294,1,105.000004005432,4|0,1:0|0:0,0:0:0:0:
153,72,64384,2,0,L|257:90,1,105.000004005432,4|0,1:0|0:0,0:0:0:0:
480,192,64818,5,4,1:0:0:0:
405,252,65036,1,0,0:0:0:0:
337,79,65253,1,8,0:0:0:0:
424,119,65470,2,0,L|355:173,1,87.5,2|0,1:2|0:0,0:0:0:0:
260,255,65905,1,0,1:0:0:0:
260,255,66014,1,2,0:0:0:0:
260,255,66123,1,8,0:0:0:0:
331,322,66340,1,2,0:0:0:0:
292,104,66557,5,2,1:2:0:0:
360,247,66775,1,0,0:0:0:0:
211,185,66992,1,8,0:0:0:0:
146,254,67210,2,0,P|143:298|147:349,1,87.5,2|0,1:2|0:0,0:0:0:0:
327,350,67644,2,0,P|279:346|227:353,1,87.5,0|8,1:0|0:0,0:0:0:0:
326,255,68079,1,0,0:0:0:0:
433,316,68297,6,0,P|440:226|424:127,1,175,2|8,1:2|0:0,0:0:0:0:
342,181,68949,1,2,1:2:0:0:
303,95,69166,1,0,0:0:0:0:
389,56,69384,1,0,1:0:0:0:
389,56,69492,1,2,0:0:0:0:
389,56,69601,1,8,0:0:0:0:
428,142,69818,1,0,0:0:0:0:
225,136,70036,5,0,1:0:0:0:
352,257,70253,1,8,0:0:0:0:
223,313,70470,1,2,0:1:0:0:
320,356,70688,5,0,1:0:0:0:
320,356,70797,1,0,1:0:0:0:
320,356,70905,1,0,1:0:0:0:
256,222,71123,1,2,0:1:0:0:
109,247,71340,1,2,0:1:0:0:
173,381,71557,1,0,0:0:0:0:
185,162,71775,6,0,L|196:51,1,87.5,4|0,1:0|0:0,0:0:0:0:
318,174,72210,1,8,0:0:0:0:
413,165,72427,2,0,P|429:127|428:81,1,87.5,2|0,1:2|0:0,0:0:0:0:
325,278,72862,1,0,1:0:0:0:
325,278,72970,1,2,0:0:0:0:
325,278,73079,1,8,0:0:0:0:
389,352,73297,1,0,0:0:0:0:
421,259,73514,5,2,1:2:0:0:
512,145,73731,1,0,0:0:0:0:
512,239,73949,1,8,0:0:0:0:
421,165,74166,1,2,1:2:0:0:
475,59,74384,1,0,0:0:0:0:
421,165,74601,2,0,P|373:168|325:160,1,87.5,0|8,1:0|0:0,0:0:0:0:
253,212,75036,1,0,0:0:0:0:
202,66,75253,6,0,P|113:55|18:69,1,175,2|8,1:2|0:0,0:0:0:0:
281,128,75905,2,0,P|329:132|390:124,1,87.5,2|0,1:2|0:0,0:0:0:0:
237,223,76340,1,0,1:0:0:0:
237,223,76449,1,2,0:0:0:0:
237,223,76557,1,8,0:0:0:0:
158,161,76775,1,0,0:0:0:0:
116,255,76992,6,0,L|98:359,1,105.000004005432,4|0,1:0|0:0,0:0:0:0:
396,255,77427,2,0,L|414:359,1,105.000004005432,4|0,1:0|0:0,0:0:0:0:
136,52,77862,2,0,L|154:156,1,105.000004005432,4|0,1:0|0:0,0:0:0:0:
376,52,78297,2,0,L|358:156,1,105.000004005432,4|0,1:0|0:0,0:0:0:0:
256,352,78731,5,4,1:0:0:0:
281,218,78949,1,0,0:0:0:0:
386,303,79166,1,8,0:0:0:0:
470,158,79384,2,0,L|459:245,1,87.5,2|0,1:2|0:0,0:0:0:0:
386,303,79818,1,0,1:0:0:0:
386,303,79927,1,2,0:0:0:0:
386,303,80036,1,8,0:0:0:0:
372,210,80253,1,0,0:0:0:0:
473,338,80470,5,2,1:2:0:0:
311,361,80688,1,0,0:0:0:0:
311,361,80797,1,2,0:0:0:0:
311,361,80905,1,8,0:0:0:0:
288,199,81123,2,0,P|292:108|281:14,1,175,2|0,1:2|1:0,0:0:0:0:
384,109,81775,2,0,P|437:112|494:109,1,87.5,8|0,0:0|0:0,0:0:0:0:
201,88,82210,6,0,P|113:81|20:91,1,175,2|8,1:2|0:0,0:0:0:0:
158,264,82862,2,0,P|160:220|156:176,1,87.5,2|0,1:2|0:0,0:0:0:0:
56,182,83297,1,0,1:0:0:0:
56,182,83405,1,2,0:0:0:0:
56,182,83514,1,8,0:0:0:0:
59,278,83731,1,0,0:0:0:0:
234,352,83949,6,0,L|322:320,1,87.5,4|2,1:2|0:0,0:0:0:0:
393,198,84384,1,10,0:0:0:0:
313,144,84601,2,0,P|254:144|212:162,1,87.5,2|0,1:2|0:0,0:0:0:0:
227,153,84927,1,0,1:0:0:0:
227,153,85036,1,0,1:0:0:0:
280,239,85253,1,0,1:0:0:0:
141,333,85470,5,0,1:0:0:0:
141,333,85579,1,0,1:0:0:0:
141,333,85688,2,0,L|122:223,1,87.5,4|0,1:0|0:0,0:0:0:0:
136,60,86123,2,0,L|155:170,1,87.5,8|2,0:0|0:0,0:0:0:0:
217,216,86557,1,0,1:0:0:0:
60,177,86775,1,0,1:0:0:0:
60,177,86884,1,2,0:0:0:0:
60,177,86992,1,8,0:0:0:0:
217,216,87210,1,0,0:0:0:0:
243,319,87427,5,0,1:0:0:0:
335,270,87644,1,2,0:1:0:0:
293,172,87862,1,0,0:0:0:0:
325,356,88079,5,2,1:0:0:0:
417,307,88297,1,0,0:0:0:0:
375,209,88514,1,2,0:1:0:0:
283,258,88731,1,2,0:1:0:0:
325,356,88949,1,0,0:0:0:0:
457,231,89166,5,4,1:0:0:0:
507,156,89384,2,0,L|513:80,1,70,0|8,0:0|0:0,0:0:0:0:
395,30,89818,2,0,P|391:88|396:172,1,140,0|0,1:0|1:0,0:0:0:0:
351,263,90470,2,0,P|395:259|425:264,1,70,8|0,0:0|0:0,0:0:0:0:
273,163,90905,6,0,P|202:169|160:224,1,140,0|8,1:0|0:0,0:0:0:0:
14,68,91557,2,0,P|101:72|138:114,1,140,0|0,1:0|1:0,0:0:0:0:
140,300,92210,1,8,0:0:0:0:
65,334,92427,1,0,0:0:0:0:
0,282,92644,6,0,P|-1:209|7:132,1,140,0|8,1:0|0:0,0:0:0:0:
88,244,93297,2,0,P|123:243|159:245,1,70,0|0,1:0|0:0,0:0:0:0:
204,167,93731,1,0,1:0:0:0:
115,84,93949,2,0,P|111:126|115:169,1,70,8|0,0:0|0:0,0:0:0:0:
286,252,94384,6,0,P|293:181|286:110,1,140,0|8,1:0|0:0,0:0:0:0:
365,40,95036,1,0,1:0:0:0:
449,112,95253,5,0,0:0:0:0:
385,141,95470,1,2,0:0:0:0:
428,197,95688,1,0,0:0:0:0:
492,168,95905,1,2,0:0:0:0:
345,73,96123,6,0,P|285:77|224:72,1,105.000004005432,4|2,0:0|0:0,0:0:0:0:
153,227,96775,2,0,P|149:173|154:119,1,105.000004005432
153,122,97427,1,2,0:0:0:0:
237,159,97644,2,0,P|291:154|354:159,1,105.000004005432
333,237,98297,1,2,0:0:0:0:
254,289,98514,2,0,P|253:248|254:231,1,52.5000020027161
101,210,98949,5,0,0:0:0:0:
137,297,99166,1,2,0:0:0:0:
44,303,99384,1,0,0:0:0:0:
82,225,99601,5,0,0:0:0:0:
67,324,99818,1,0,0:0:0:0:
166,339,100036,1,2,0:0:0:0:
181,240,100253,2,0,P|182:213|185:177,1,52.5000020027161
121,88,100688,2,0,P|120:115|117:151,1,52.5000020027161,0|2,0:0|0:0,0:0:0:0:
203,58,101123,6,0,P|258:55|310:59,1,105.000004005432
307,58,101775,1,2,0:0:0:0:
402,24,101992,2,0,P|402:87|404:130,1,105.000004005432
336,170,102644,2,0,P|307:169|280:170,1,52.5000020027161,2|0,0:0|0:0,0:0:0:0:
136,41,103079,6,0,P|139:96|136:159,1,105.000004005432,4|2,1:0|0:0,0:0:0:0:
54,245,103731,2,0,P|106:249|158:243,1,105.000004005432,0|0,1:0|0:0,0:0:0:0:
234,287,104384,1,2,0:0:0:0:
263,164,104601,2,0,P|268:109|260:40,1,105.000004005432,0|0,1:0|0:0,0:0:0:0:
263,59,105253,1,2,0:0:0:0:
183,98,105470,2,0,P|126:100|75:98,1,105.000004005432,0|0,1:0|0:0,0:0:0:0:
4,194,106123,2,0,P|2:167|3:141,1,52.5000020027161,10|0,0:0|0:0,0:0:0:0:
116,200,106557,6,0,P|113:252|116:304,1,105.000004005432,0|2,1:0|0:0,0:0:0:0:
199,361,107210,2,0,P|200:328|199:303,1,52.5000020027161,0|0,1:0|0:0,0:0:0:0:
248,224,107644,2,0,P|217:223|192:225,1,52.5000020027161,0|2,0:0|0:0,0:0:0:0:
81,111,108079,6,0,P|152:115|191:112,1,105.000004005432,0|0,1:0|0:0,0:0:0:0:
254,53,108731,1,2,0:0:0:0:
311,122,108949,2,0,P|315:174|313:241,1,105.000004005432,0|0,1:0|0:0,0:0:0:0:
228,197,109601,2,0,P|201:196|175:198,1,52.5000020027161,8|0,0:0|0:0,0:0:0:0:
403,344,110036,6,0,L|414:269,1,70,4|0,1:0|0:0,0:0:0:0:
468,195,110470,1,8,0:0:0:0:
387,43,110688,2,0,L|376:118,1,70,0|0,1:0|0:0,0:0:0:0:
307,262,111123,2,0,P|307:226|318:187,1,70,8|0,0:0|0:0,0:0:0:0:
209,38,111557,2,0,P|221:115|207:205,1,140,0|0,1:0|0:0,0:0:0:0:
168,259,112210,1,8,0:0:0:0:
59,352,112427,2,0,L|30:277,1,70,0|0,1:0|0:0,0:0:0:0:
63,114,112862,5,0,0:0:0:0:
90,215,113079,1,8,0:0:0:0:
0,182,113297,1,0,0:0:0:0:
138,109,113514,5,0,1:0:0:0:
70,290,113731,1,0,0:0:0:0:
34,182,113949,1,8,0:0:0:0:
174,217,114166,2,0,P|178:254|175:292,1,70,0|0,1:0|0:0,0:0:0:0:
72,360,114601,2,0,P|68:323|71:285,1,70,8|0,0:0|0:0,0:0:0:0:
138,133,115036,6,0,P|68:140|-4:131,1,140,0|0,1:0|0:0,0:0:0:0:
120,35,115688,1,8,0:0:0:0:
217,67,115905,2,0,P|222:108|217:149,1,70,0|0,1:0|0:0,0:0:0:0:
162,207,116340,5,8,0:0:0:0:
211,349,116557,1,8,0:0:0:0:
269,278,116775,1,0,0:0:0:0:
104,278,116992,6,0,P|108:233|103:134,1,140,4|8,1:0|0:0,0:0:0:0:
193,50,117644,2,0,P|154:46|122:51,1,70,0|0,1:0|0:0,0:0:0:0:
2,103,118079,1,8,0:0:0:0:
25,196,118297,1,0,0:0:0:0:
203,146,118514,2,0,P|213:226|200:312,1,140,0|8,1:0|0:0,0:0:0:0:
92,348,119166,1,8,0:0:0:0:
21,284,119384,2,0,L|29:206,1,70,0|0,1:0|0:0,0:0:0:0:
27,106,119818,5,8,0:0:0:0:
149,143,120036,1,8,0:0:0:0:
108,265,120253,1,0,0:0:0:0:
104,71,120470,6,0,L|175:66,1,70,0|0,1:0|0:0,0:0:0:0:
248,128,120905,2,0,P|284:127|319:123,1,70,8|0,0:0|1:0,0:0:0:0:
234,218,121340,1,0,0:0:0:0:
139,148,121557,2,0,P|138:185|144:219,1,70,8|0,0:0|0:0,0:0:0:0:
239,351,121992,5,0,0:0:0:0:
155,300,122210,1,0,1:0:0:0:
234,218,122427,1,0,0:0:0:0:
318,269,122644,1,8,0:0:0:0:
239,351,122862,2,0,P|154:344|86:353,1,140,0|8,1:0|0:0,0:0:0:0:
0,230,123514,1,8,0:0:0:0:
93,254,123731,1,0,0:0:0:0:
52,138,123949,6,0,P|49:82|53:29,1,105.000004005432,4|0,1:0|0:0,0:0:0:0:
131,67,124601,1,0,1:0:0:0:
131,67,124818,2,0,L|191:71,1,52.5000020027161,0|2,1:0|0:0,0:0:0:0:
160,148,125253,2,0,L|220:152,1,52.5000020027161,10|0,0:0|0:0,0:0:0:0:
398,238,125688,6,0,P|439:198|439:143,1,105.000004005432,0|0,1:0|0:0,0:0:0:0:
468,78,126340,1,0,1:0:0:0:
468,78,126557,2,0,P|439:76|416:78,1,52.5000020027161,0|2,1:0|0:0,0:0:0:0:
352,179,126992,2,0,P|350:150|352:127,1,52.5000020027161,10|0,0:0|0:0,0:0:0:0:
262,341,127427,6,0,P|355:338|387:345,1,105.000004005432,0|0,1:0|0:0,0:0:0:0:
444,314,128079,1,0,1:0:0:0:
444,314,128297,2,0,L|432:256,1,52.5000020027161,0|2,1:0|0:0,0:0:0:0:
346,213,128731,2,0,L|358:271,1,52.5000020027161,10|0,0:0|0:0,0:0:0:0:
170,348,129166,6,0,P|175:287|164:235,1,105.000004005432,0|0,1:0|0:0,0:0:0:0:
93,270,129818,1,0,1:0:0:0:
93,270,130036,2,0,L|96:326,1,52.5000020027161,0|2,1:0|0:0,0:0:0:0:
19,296,130470,2,0,L|22:352,1,52.5000020027161,10|0,0:0|0:0,0:0:0:0:
259,337,130905,6,0,P|256:296|262:225,1,105.000004005432,0|2,1:0|0:0,0:0:0:0:
313,152,131557,2,0,P|237:155|184:148,1,105.000004005432,0|0,1:0|1:0,0:0:0:0:
130,124,132210,2,0,P|127:162|129:182,1,52.5000020027161,10|0,0:0|0:0,0:0:0:0:
170,307,132644,5,0,1:0:0:0:
170,307,132862,2,0,P|173:269|171:249,1,52.5000020027161,0|2,0:0|0:0,0:0:0:0:
313,152,133297,2,0,P|310:221|315:264,1,105.000004005432,0|0,1:0|1:0,0:0:0:0:
395,273,133949,2,0,L|394:212,1,52.5000020027161,10|0,0:0|0:0,0:0:0:0:
380,90,134384,5,4,1:0:0:0:
512,226,134818,1,2,0:0:0:0:
376,358,135253,1,0,0:0:0:0:
244,222,135688,1,2,0:0:0:0:
244,222,135905,1,0,0:0:0:0:
327,171,136123,6,0,P|332:100|324:26,1,140,4|8,1:0|0:0,0:0:0:0:
230,32,136775,1,0,1:0:0:0:
231,127,136992,1,0,0:0:0:0:
421,125,137210,1,0,1:0:0:0:
420,30,137427,1,8,0:0:0:0:
512,180,137644,5,0,1:0:0:0:
512,180,137753,1,0,0:0:0:0:
512,180,137862,1,0,0:0:0:0:
377,230,138079,1,0,1:0:0:0:
512,280,138297,1,8,0:0:0:0:
414,318,138514,5,0,1:0:0:0:
414,318,138623,1,0,0:0:0:0:
414,318,138731,2,0,P|332:314|287:319,1,105,4|0,1:0|0:0,0:0:0:0:
249,360,139166,2,0,L|253:378,7,17.5,4|0|0|0|0|0|0|0,1:0|0:0|0:0|0:0|0:0|0:0|0:0|0:0,0:0:0:0:
226,349,139601,6,0,P|229:305|226:261,1,87.5,4|0,1:0|0:0,0:0:0:0:
49,307,140036,1,8,0:0:0:0:
122,146,140253,2,0,P|118:189|122:233,1,87.5,2|0,1:2|0:0,0:0:0:0:
294,180,140688,1,0,1:0:0:0:
294,180,140797,1,2,0:0:0:0:
294,180,140905,1,8,0:0:0:0:
225,97,141123,5,0,0:0:0:0:
225,97,141231,1,0,0:0:0:0:
225,97,141340,1,2,1:2:0:0:
122,233,141557,1,0,0:0:0:0:
225,97,141775,1,8,0:0:0:0:
294,180,141992,1,2,1:2:0:0:
381,137,142210,2,0,P|431:132|482:130,1,87.5,0|0,0:0|1:0,0:0:0:0:
254,8,142644,2,0,P|210:12|166:14,1,87.5,8|0,0:0|0:0,0:0:0:0:
294,180,143079,6,0,P|280:265|294:351,1,175,2|8,1:2|0:0,0:0:0:0:
387,384,143731,2,0,P|392:340|391:297,1,87.5,2|0,1:2|0:0,0:0:0:0:
210,384,144166,1,0,1:0:0:0:
210,384,144275,1,2,0:0:0:0:
210,384,144384,1,8,0:0:0:0:
281,265,144601,1,0,0:0:0:0:
185,224,144818,6,0,P|142:211|81:206,1,105.000004005432,4|0,1:0|0:0,0:0:0:0:
358,195,145253,2,0,P|408:209|460:212,1,105.000004005432,4|0,1:0|0:0,0:0:0:0:
266,368,145688,2,0,L|282:252,1,105.000004005432,4|0,1:0|0:0,0:0:0:0:
211,23,146123,2,0,L|195:129,1,105.000004005432,4|0,1:0|0:0,0:0:0:0:
301,106,146557,5,4,1:0:0:0:
358,195,146775,1,0,0:0:0:0:
301,106,146992,1,8,0:0:0:0:
358,195,147210,2,0,P|400:186|444:181,1,87.5,2|0,1:2|0:0,0:0:0:0:
209,279,147644,1,0,1:0:0:0:
209,279,147753,1,2,0:0:0:0:
209,279,147862,1,8,0:0:0:0:
266,368,148079,1,2,0:0:0:0:
301,106,148297,5,2,1:2:0:0:
417,280,148514,1,0,0:0:0:0:
444,181,148731,1,8,0:0:0:0:
417,280,148949,2,0,P|378:274|321:271,1,87.5,2|0,1:2|0:0,0:0:0:0:
111,384,149384,2,0,P|115:340|111:297,1,87.5,0|8,1:0|0:0,0:0:0:0:
302,153,149818,1,0,0:0:0:0:
213,105,150036,6,0,P|201:191|208:278,1,175,2|8,1:2|0:0,0:0:0:0:
49,140,150688,1,2,1:2:0:0:
111,59,150905,1,0,0:0:0:0:
213,105,151123,1,0,1:0:0:0:
213,105,151231,1,2,0:0:0:0:
213,105,151340,1,8,0:0:0:0:
149,187,151557,5,0,0:0:0:0:
149,187,151666,1,0,0:0:0:0:
149,187,151775,1,0,1:0:0:0:
275,31,151992,1,8,0:0:0:0:
456,118,152210,1,2,0:1:0:0:
331,271,152427,5,0,1:0:0:0:
331,271,152536,1,0,1:0:0:0:
331,271,152644,1,0,1:0:0:0:
441,234,152862,1,2,0:1:0:0:
353,159,153079,1,2,0:1:0:0:
229,282,153297,1,0,0:0:0:0:
317,357,153514,6,0,P|321:322|332:266,1,87.5,4|0,1:0|0:0,0:0:0:0:
159,384,153949,1,8,0:0:0:0:
86,314,154166,2,0,P|44:301|0:299,1,87.5,2|0,1:2|0:0,0:0:0:0:
188,123,154601,1,0,1:0:0:0:
188,123,154710,1,2,0:0:0:0:
188,123,154818,1,8,0:0:0:0:
261,193,155036,5,0,0:0:0:0:
261,193,155144,1,0,0:0:0:0:
261,193,155253,1,2,1:2:0:0:
89,137,155470,1,0,0:0:0:0:
218,31,155688,1,8,0:0:0:0:
89,137,155905,1,2,1:2:0:0:
158,221,156123,1,0,0:0:0:0:
347,195,156340,2,0,P|303:198|260:192,1,87.5,0|8,1:0|0:0,0:0:0:0:
478,149,156775,1,0,0:0:0:0:
391,96,156992,6,0,P|379:182|391:269,1,175,2|8,1:2|0:0,0:0:0:0:
300,384,157644,2,0,P|304:340|300:296,1,87.5,2|0,1:2|0:0,0:0:0:0:
231,237,158079,1,0,1:0:0:0:
231,237,158188,1,2,0:0:0:0:
231,237,158297,1,8,0:0:0:0:
288,109,158514,1,0,0:0:0:0:
219,50,158731,6,0,L|115:32,1,105.000004005432,4|0,1:0|0:0,0:0:0:0:
219,334,159166,2,0,L|115:352,1,105.000004005432,4|0,1:0|0:0,0:0:0:0:
392,92,159601,2,0,L|288:110,1,105.000004005432,4|0,1:0|0:0,0:0:0:0:
392,292,160036,2,0,L|288:274,1,105.000004005432,4|0,1:0|0:0,0:0:0:0:
73,192,160470,5,4,1:0:0:0:
150,122,160688,1,0,0:0:0:0:
73,192,160905,1,8,0:0:0:0:
193,291,161123,2,0,P|196:247|202:204,1,87.5,2|0,1:2|0:0,0:0:0:0:
231,65,161557,1,0,1:0:0:0:
231,65,161666,1,2,0:0:0:0:
231,65,161775,1,8,0:0:0:0:
295,216,161992,1,0,0:0:0:0:
402,1,162210,5,2,1:2:0:0:
343,141,162427,1,0,0:0:0:0:
343,141,162536,1,2,0:0:0:0:
343,141,162644,1,8,0:0:0:0:
434,297,162862,2,0,P|346:292|259:301,1,175,2|0,1:2|1:0,0:0:0:0:
425,197,163514,2,0,P|478:200|535:197,1,87.5,8|0,0:0|0:0,0:0:0:0:
334,32,163949,6,0,P|341:119|332:206,1,175,2|8,1:2|0:0,0:0:0:0:
159,85,164601,2,0,P|202:81|246:83,1,87.5,2|0,1:2|0:0,0:0:0:0:
425,197,165036,1,0,1:0:0:0:
425,197,165144,1,2,0:0:0:0:
425,197,165253,1,8,0:0:0:0:
497,118,165470,1,0,0:0:0:0:
425,197,165688,6,0,P|421:240|421:284,1,87.5,4|2,1:2|0:0,0:0:0:0:
240,336,166123,1,10,0:0:0:0:
421,284,166340,2,0,P|379:272|335:274,1,87.5,2|0,1:2|0:0,0:0:0:0:
335,274,166666,1,0,1:0:0:0:
335,274,166775,1,0,1:0:0:0:
169,256,166992,1,0,1:0:0:0:
270,208,167210,5,0,1:0:0:0:
270,208,167318,1,0,1:0:0:0:
270,208,167427,2,0,P|272:172|279:124,1,70,2|0,0:0|0:0,0:0:0:0:
331,77,167862,1,2,0:0:0:0:
274,19,168079,2,0,P|207:32|125:34,1,140
9,123,168731,1,2,0:0:0:0:
95,113,168949,2,0,P|83:181|79:251,1,140
116,323,169601,1,2,0:0:0:0:
183,276,169818,2,0,P|246:267|326:266,1,140
457,211,170470,6,0,P|422:210|387:203,1,70,2|0,0:0|0:0,0:0:0:0:
386,204,170797,1,2,0:0:0:0:
386,204,170905,1,0,0:0:0:0:
408,298,171123,2,0,P|396:331|389:365,1,70,0|2,0:0|0:0,0:0:0:0:
307,384,171557,2,0,P|237:378|167:378,1,140
33,344,172210,1,2,0:0:0:0:
112,312,172427,2,0,P|124:241|115:159,1,140
63,100,173079,1,2,0:0:0:0:
38,217,173297,1,0,0:0:0:0:
38,217,173731,5,0,0:0:0:0:
118,173,173949,1,0,0:0:0:0:
118,173,174057,2,0,L|143:189,5,17.5
148,184,174384,6,0,P|178:176|221:168,1,70,2|0,0:0|0:0,0:0:0:0:
294,188,174818,1,2,0:0:0:0:
367,149,175036,2,0,P|370:79|380:9,1,140
465,6,175688,1,2,0:0:0:0:
451,91,175905,2,0,P|381:83|311:78,1,140
249,21,176557,1,2,0:0:0:0:
187,123,176775,2,0,P|117:114|47:109,1,140
150,278,177427,6,0,P|150:243|155:208,1,70,2|0,0:0|0:0,0:0:0:0:
155,208,177753,1,2,0:0:0:0:
155,208,177862,1,0,0:0:0:0:
62,200,178079,2,0,P|62:234|57:269,1,70,0|2,0:0|0:0,0:0:0:0:
101,340,178514,2,0,P|170:333|240:331,1,140
311,268,179166,1,2,0:0:0:0:
256,192,179384,1,0,0:0:0:0:
256,192,179492,12,0,181123,0:0:0:0:
110,284,181340,5,4,1:2:0:0:
335,250,181775,1,2,0:0:0:0:
335,250,181992,2,0,P|287:201|219:205,1,140,0|0,1:0|1:0,0:0:0:0:
110,284,182644,1,8,1:2:0:0:
193,369,182862,2,0,P|196:334|201:299,1,70,2|0,0:0|1:0,0:0:0:0:
0,134,183514,5,2,0:0:0:0:
0,134,183731,2,0,P|113:148|146:150,1,140,0|0,1:0|1:0,0:0:0:0:
325,88,184384,1,8,1:2:0:0:
235,50,184601,1,0,1:0:0:0:
235,50,184710,1,0,1:0:0:0:
235,50,184818,2,0,P|226:121|222:210,1,140,2|0,1:2|0:0,0:0:0:0:
394,80,185470,5,0,1:0:0:0:
394,80,185688,2,0,P|362:86|307:86,1,70,2|0,0:0|1:0,0:0:0:0:
222,189,186123,2,0,P|256:184|291:181,1,70,8|0,1:2|0:0,0:0:0:0:
478,206,186557,6,0,P|410:201|361:248,1,140,4|8,1:2|1:2,0:0:0:0:
277,294,187210,1,0,1:0:0:0:
277,294,187318,1,0,1:0:0:0:
277,294,187427,2,0,P|344:289|394:336,1,140,4|8,1:2|1:2,0:0:0:0:
291,181,188079,5,0,1:0:0:0:
291,181,188188,1,0,1:0:0:0:
291,181,188297,1,4,1:2:0:0:
400,4,188731,1,2,0:0:0:0:
400,4,188949,2,0,P|386:105|381:153,1,140,0|0,1:0|1:0,0:0:0:0:
291,181,189601,1,8,1:2:0:0:
232,43,189818,2,0,P|225:77|221:112,1,70,2|0,0:0|1:0,0:0:0:0:
72,352,190470,5,2,0:0:0:0:
72,352,190688,2,0,P|121:287|108:218,1,140,0|0,1:0|1:0,0:0:0:0:
27,266,191340,1,8,1:2:0:0:
205,353,191557,1,0,1:0:0:0:
205,353,191666,1,0,1:0:0:0:
205,353,191775,2,0,P|277:344|356:338,1,140,0|0,1:0|0:0,0:0:0:0:
469,275,192427,2,0,P|434:271|399:266,1,70,0|0,1:0|0:0,0:0:0:0:
322,226,192862,1,0,1:0:0:0:
444,116,193079,2,0,P|440:150|438:185,1,70,8|0,1:2|0:0,0:0:0:0:
344,338,193514,5,0,1:0:0:0:
438,185,193731,1,0,1:0:0:0:
322,226,193949,1,8,1:2:0:0:
472,318,194166,5,0,1:0:0:0:
472,318,194275,1,0,1:0:0:0:
472,318,194384,1,8,1:2:0:0:
302,217,194601,1,8,1:2:0:0:
455,175,194818,1,0,1:0:0:0:
332,357,195036,1,8,1:2:0:0:
147,286,195253,5,4,1:2:0:0:
147,286,195470,2,0,P|156:252|159:210,1,70,2|0,0:0|0:0,0:0:0:0:
0,119,195905,2,0,P|68:131|138:132,1,140,0|0,1:0|1:0,0:0:0:0:
346,56,196557,1,8,1:2:0:0:
266,0,196775,1,2,0:0:0:0:
346,56,196992,6,0,P|338:158|337:205,1,140,0|2,1:0|0:0,0:0:0:0:
418,357,197644,2,0,P|423:287|427:217,1,140,0|0,1:0|1:0,0:0:0:0:
248,327,198297,1,8,1:2:0:0:
332,384,198514,1,0,1:0:0:0:
332,384,198623,1,0,1:0:0:0:
332,384,198731,1,2,1:2:0:0:
465,140,199166,5,2,0:0:0:0:
465,140,199384,2,0,P|415:186|347:179,1,140,0|0,1:0|1:0,0:0:0:0:
220,132,200036,1,8,1:2:0:0:
312,25,200253,5,0,1:0:0:0:
312,25,200362,1,0,1:0:0:0:
312,25,200470,2,0,P|305:71|302:105,1,70,4|0,1:2|0:0,0:0:0:0:
204,223,200905,2,0,P|175:209|133:209,1,70,2|0,1:2|0:0,0:0:0:0:
109,218,201231,1,0,1:0:0:0:
109,218,201340,1,4,1:2:0:0:
270,281,201557,1,2,0:0:0:0:
220,132,201775,1,8,1:2:0:0:
165,311,201992,5,0,1:0:0:0:
165,311,202101,1,0,1:0:0:0:
165,311,202210,1,4,1:2:0:0:
265,350,202427,2,0,P|265:315|269:280,1,70,2|0,0:0|0:0,0:0:0:0:
504,325,202862,2,0,P|434:325|364:318,1,140,0|0,1:0|1:0,0:0:0:0:
259,188,203514,1,8,1:2:0:0:
350,222,203731,1,2,0:0:0:0:
259,188,203949,6,0,P|263:147|265:107,1,70,0|0,1:0|0:0,0:0:0:0:
335,0,204384,1,2,0:0:0:0:
463,36,204601,2,0,P|421:89|353:92,1,140,0|0,1:0|1:0,0:0:0:0:
138,33,205253,2,0,L|217:26,1,70,8|0,1:2|0:0,0:0:0:0:
245,27,205579,1,0,1:0:0:0:
245,27,205688,1,2,1:2:0:0:
85,119,205905,6,0,L|15:125,1,70,2|0,0:0|0:0,0:0:0:0:
121,285,206340,2,0,P|171:239|172:171,1,140,0|0,1:0|1:0,0:0:0:0:
24,272,206992,1,8,1:2:0:0:
206,347,207210,5,0,1:0:0:0:
206,347,207318,1,0,1:0:0:0:
206,347,207427,1,2,1:2:0:0:
268,161,207644,1,8,1:2:0:0:
206,347,207862,1,8,1:2:0:0:
428,290,208079,5,0,1:0:0:0:
398,264,208188,1,0,1:0:0:0:
361,251,208297,1,8,1:2:0:0:
322,249,208405,1,0,1:0:0:0:
287,266,208514,1,8,1:2:0:0:
475,178,208731,1,0,1:0:0:0:
349,79,208949,1,0,1:0:0:0:
359,115,209057,1,0,1:0:0:0:
369,152,209166,1,4,1:0:0:0:
105,45,209601,5,2,0:0:0:0:
54,119,209818,2,0,P|48:207|56:243,1,105.000004005432
134,212,210470,1,2,0:0:0:0:
136,296,210688,2,0,P|105:293|74:298,1,52.5000020027161
234,256,211123,1,0,0:0:0:0:
207,337,211340,2,0,P|237:339|269:335,1,52.5000020027161,2|0,0:0|0:0,0:0:0:0:
364,300,211775,5,0,0:0:0:0:
339,219,211992,1,0,0:0:0:0:
419,149,212210,1,2,0:0:0:0:
414,240,212427,1,0,0:0:0:0:
339,53,212644,5,0,0:0:0:0:
339,53,213079,1,2,0:0:0:0:
394,129,213297,2,0,P|324:128|286:130,1,105.000004005432
192,58,213949,2,0,P|218:60|246:58,1,52.5000020027161,2|0,0:0|0:0,0:0:0:0:
163,195,214384,6,0,L|144:147,1,52.5000020027161,0|2,0:0|0:0,0:0:0:0:
61,268,214818,2,0,L|69:212,1,52.5000020027161,0|2,0:0|0:0,0:0:0:0:
214,309,215253,2,0,L|206:251,1,52.5000020027161,0|2,0:0|0:0,0:0:0:0:
127,350,215688,2,0,L|134:290,1,52.5000020027161,0|2,0:0|0:0,0:0:0:0:
144,147,216123,6,0,P|201:146|231:148,1,70,4|0,1:0|0:0,0:0:0:0:
209,50,216557,2,0,P|259:65|284:76,1,70,0|0,1:0|0:0,0:0:0:0:
313,166,216992,2,0,P|342:140|369:125,1,70,0|0,1:0|0:0,0:0:0:0:
369,124,217318,1,0,0:0:0:0:
369,124,217427,1,8,0:0:0:0:
319,288,217644,5,0,0:0:0:0:
319,288,217753,1,2,0:0:0:0:
319,288,217862,1,0,1:0:0:0:
406,227,218079,2,0,P|408:264|407:308,1,70,0|0,0:0|1:0,0:0:0:0:
232,349,218514,2,0,P|230:312|231:268,1,70,0|0,0:0|1:0,0:0:0:0:
282,206,218949,1,0,0:0:0:0:
282,206,219057,1,0,0:0:0:0:
282,206,219166,1,8,0:0:0:0:
231,133,219384,1,0,0:0:0:0:
358,206,219601,6,0,P|402:204|432:206,1,70,0|0,1:0|0:0,0:0:0:0:
372,90,220036,2,0,P|328:92|298:90,1,70,8|0,0:0|0:0,0:0:0:0:
236,159,220470,1,0,1:0:0:0:
126,41,220688,1,0,0:0:0:0:
126,41,220797,1,0,0:0:0:0:
126,41,220905,2,0,P|170:39|200:41,1,70,8|0,0:0|0:0,0:0:0:0:
195,40,221231,1,2,0:0:0:0:
195,40,221340,1,0,1:0:0:0:
236,159,221557,1,0,1:0:0:0:
50,292,221775,5,0,1:0:0:0:
84,269,221884,1,0,1:0:0:0:
126,265,221992,1,2,1:2:0:0:
165,278,222101,1,0,1:0:0:0:
195,307,222210,1,2,1:2:0:0:
224,337,222318,1,0,1:0:0:0:
263,350,222427,1,2,1:2:0:0:
305,346,222536,1,0,1:0:0:0:
341,324,222644,2,0,L|345:300,7,17.5,2|0|0|0|2|0|0|0,1:2|1:0|1:0|1:0|1:2|1:0|1:0|1:0,0:0:0:0:
358,339,223079,6,0,P|402:337|456:341,1,87.5,4|0,1:0|0:0,0:0:0:0:
319,178,223514,1,8,0:0:0:0:
478,134,223731,2,0,P|480:178|476:232,1,87.5,2|0,1:2|0:0,0:0:0:0:
382,76,224166,1,0,1:0:0:0:
382,76,224275,1,2,0:0:0:0:
382,76,224384,1,8,0:0:0:0:
481,22,224601,1,0,0:0:0:0:
395,221,224818,5,2,1:2:0:0:
273,160,225036,1,0,0:0:0:0:
368,123,225253,1,8,0:0:0:0:
300,258,225470,1,2,1:2:0:0:
165,190,225688,1,0,0:0:0:0:
233,55,225905,2,0,P|238:108|235:144,1,87.5,0|8,1:0|0:0,0:0:0:0:
230,306,226340,1,0,0:0:0:0:
112,252,226557,6,0,P|70:254|24:261,1,87.5,2|0,1:2|0:0,0:0:0:0:
139,350,226992,1,8,0:0:0:0:
317,297,227210,2,0,P|273:303|230:305,1,87.5,2|0,1:2|0:0,0:0:0:0:
203,208,227644,1,0,1:0:0:0:
203,208,227753,1,2,0:0:0:0:
203,208,227862,1,8,0:0:0:0:
299,190,228079,1,0,0:0:0:0:
429,331,228297,6,0,P|434:277|425:226,1,105.000004005432,4|0,1:0|0:0,0:0:0:0:
139,365,228731,2,0,P|193:370|244:361,1,105.000004005432,4|0,1:0|0:0,0:0:0:0:
105,75,229166,2,0,P|100:129|109:180,1,105.000004005432,4|0,1:0|0:0,0:0:0:0:
395,41,229601,2,0,P|341:36|290:45,1,105.000004005432,4|0,1:0|0:0,0:0:0:0:
256,192,230036,5,4,1:0:0:0:
379,134,230253,1,0,0:0:0:0:
309,258,230470,1,8,0:0:0:0:
175,217,230688,2,0,P|170:264|176:309,1,87.5,2|0,1:2|0:0,0:0:0:0:
278,375,231123,1,0,1:0:0:0:
278,375,231231,1,2,0:0:0:0:
278,375,231340,1,8,0:0:0:0:
381,304,231557,1,0,0:0:0:0:
278,233,231775,5,2,1:2:0:0:
460,271,231992,1,0,0:0:0:0:
460,271,232101,1,2,0:0:0:0:
460,271,232210,1,8,0:0:0:0:
402,95,232427,2,0,P|309:100|221:95,1,175,2|0,1:2|1:0,0:0:0:0:
5,188,233079,2,0,P|2:137|8:88,1,87.5,8|0,0:0|0:0,0:0:0:0:
115,37,233514,6,0,P|118:88|112:137,1,87.5,2|0,1:2|0:0,0:0:0:0:
117,231,233949,1,8,0:0:0:0:
158,373,234166,1,2,1:2:0:0:
72,321,234384,1,0,0:0:0:0:
203,283,234601,1,0,1:0:0:0:
203,283,234710,1,2,0:0:0:0:
203,283,234818,1,8,0:0:0:0:
117,231,235036,1,0,0:0:0:0:
225,68,235253,6,0,L|233:172,1,87.5,6|2,1:2|0:0,0:0:0:0:
302,252,235688,1,10,0:0:0:0:
399,181,235905,1,2,1:2:0:0:
328,84,236123,1,2,0:0:0:0:
328,84,236231,1,0,1:0:0:0:
328,84,236340,1,0,1:2:0:0:
232,155,236557,1,0,1:2:0:0:
302,252,236775,1,0,1:0:0:0:
315,169,236992,5,0,0:0:0:0:
441,60,237427,1,8,0:0:0:0:
472,223,237862,1,0,0:0:0:0:
472,223,238079,2,0,P|472:272|474:295,1,52.5000020027161,8|0,0:0|0:0,0:0:0:0:
416,333,238514,1,0,0:0:0:0:
298,246,238731,6,0,P|336:245|352:246,1,52.5000020027161
366,247,239057,2,0,L|390:236,2,17.5,0|0|8,0:0|0:0|0:0,0:0:0:0:
284,331,239384,2,0,P|257:329|231:331,1,52.5000020027161
160,294,239818,1,8,0:0:0:0:
204,228,240036,1,0,0:0:0:0:
204,228,240253,1,0,0:0:0:0:
134,136,240470,6,0,L|122:151,7,13.125000500679,2|2|2|2|2|2|2|2,0:0|0:0|0:0|0:0|0:0|0:0|0:0|0:0,0:0:0:0:
157,140,240905,2,0,L|157:159,7,13.125000500679,2|2|2|2|2|2|2|2,0:0|0:0|0:0|0:0|0:0|0:0|0:0|0:0,0:0:0:0:
177,128,241340,2,0,L|189:142,7,13.125000500679,2|2|2|2|2|2|2|2,0:0|0:0|0:0|0:0|0:0|0:0|0:0|0:0,0:0:0:0:
184,105,241775,2,0,L|202:107,7,13.125000500679,2|2|2|2|2|2|2|2,0:0|0:0|0:0|0:0|0:0|0:0|0:0|0:0,0:0:0:0:
191,82,242210,6,0,L|187:12,1,70,4|0,1:2|0:0,0:0:0:0:
298,146,242644,1,2,0:0:0:0:
350,72,242862,2,0,P|401:66|440:68,1,70,0|0,1:0|0:0,0:0:0:0:
498,211,243297,2,0,P|497:176|492:141,1,70,0|8,1:0|0:0,0:0:0:0:
410,184,243731,1,2,0:0:0:0:
373,325,243949,6,0,P|425:322|514:325,1,140,0|2,1:0|0:0,0:0:0:0:
320,184,244601,2,0,P|323:243|322:272,1,70,0|0,1:0|0:0,0:0:0:0:
259,343,245036,1,0,1:0:0:0:
175,297,245253,1,8,0:0:0:0:
234,131,245470,5,0,1:0:0:0:
234,131,245579,1,0,1:0:0:0:
234,131,245688,2,0,P|283:140|382:127,1,140,2|0,1:2|0:0,0:0:0:0:
425,215,246340,1,0,1:0:0:0:
339,306,246557,2,0,L|327:231,1,70,2|0,0:0|1:0,0:0:0:0:
433,310,246992,2,0,L|445:385,1,70,8|0,0:0|0:0,0:0:0:0:
508,191,247427,6,0,P|509:144|513:116,1,70,4|0,1:2|0:0,0:0:0:0:
452,21,247862,1,8,0:0:0:0:
362,154,248079,1,0,1:0:0:0:
362,154,248188,1,0,1:0:0:0:
362,154,248297,2,0,P|314:154|286:157,1,70,4|0,1:2|0:0,0:0:0:0:
226,230,248731,1,8,0:0:0:0:
331,339,248949,5,0,1:0:0:0:
331,339,249057,1,0,1:0:0:0:
331,339,249166,2,0,L|255:342,1,70,4|0,1:2|0:0,0:0:0:0:
137,280,249601,1,2,0:0:0:0:
55,334,249818,2,0,P|51:277|58:186,1,140,0|0,1:0|1:0,0:0:0:0:
138,140,250470,1,8,0:0:0:0:
51,96,250688,1,2,0:0:0:0:
143,238,250905,6,0,P|220:235|291:238,1,140,0|0,1:0|0:0,0:0:0:0:
227,72,251557,2,0,P|223:120|226:148,1,70,0|0,1:0|0:0,0:0:0:0:
319,161,251992,1,0,1:0:0:0:
326,64,252210,1,8,0:0:0:0:
461,124,252427,5,0,0:0:0:0:
461,124,252536,1,0,0:0:0:0:
461,124,252644,2,0,P|464:189|455:267,1,140,2|0,1:2|0:0,0:0:0:0:
383,326,253297,1,0,1:0:0:0:
291,297,253514,1,0,0:0:0:0:
363,225,253731,1,0,1:0:0:0:
435,297,253949,1,8,0:0:0:0:
363,369,254166,1,0,0:0:0:0:
261,217,254384,5,0,1:0:0:0:
443,180,254601,1,0,1:0:0:0:
336,119,254818,1,8,0:0:0:0:
368,278,255036,5,0,1:0:0:0:
368,278,255144,1,0,1:0:0:0:
368,278,255253,1,8,0:0:0:0:
333,103,255470,1,8,0:0:0:0:
251,211,255688,1,0,1:0:0:0:
451,170,255905,1,8,0:0:0:0:
479,339,256123,6,0,P|451:338|428:340,1,35
370,368,256557,1,2,0:0:0:0:
293,343,256775,2,0,P|293:326|288:269,1,70
239,210,257427,2,0,P|213:218|190:224,1,35,2|0,0:0|0:0,0:0:0:0:
150,279,257862,6,0,P|123:275|100:273,1,35
47,232,258297,1,2,0:0:0:0:
93,167,258514,2,0,P|97:145|111:87,1,70
156,35,259166,2,0,P|177:38|203:43,1,35,2|0,0:0|0:0,0:0:0:0:
238,105,259601,6,0,P|261:98|286:89,1,35
325,34,260036,1,2,0:0:0:0:
369,101,260253,2,0,P|422:112|447:121,1,70
495,61,260905,1,2,0:0:0:0:
475,289,261340,6,0,P|457:288|437:288,1,35
387,349,261775,1,0,0:0:0:0:
345,280,261992,2,0,P|346:226|343:175,1,105,2|0,0:0|0:0,0:0:0:0:
