osu file format v14

[General]
AudioFilename: audio.mp3
AudioLeadIn: 0
PreviewTime: 63991
Countdown: 0
SampleSet: Normal
StackLeniency: 0.7
Mode: 1
LetterboxInBreaks: 0
WidescreenStoryboard: 1

[Editor]
Bookmarks: 111784
DistanceSpacing: 0.5
BeatDivisor: 4
GridSize: 32
TimelineZoom: 1.5

[Metadata]
Title:Winning Run! Kaze ni Naritai (Indonesian Version)
TitleUnicode:ウイニング・ラン!-風になりたい- (Indonesian Version)
Artist:Sanca Records
ArtistUnicode:Sanca Records
Creator:ibacot
Version:Futsuu
Source:爆走兄弟レッツ&ゴー!!
Tags:Bakusou Kyoudai Let`s & Go!! Oota Michihiko Yamagata Yukio ost opening indonesia cover mini4WD Tamiya
BeatmapID:2101622
BeatmapSetID:1003154

[Difficulty]
HPDrainRate:7
CircleSize:5
OverallDifficulty:3
ApproachRate:5
SliderMultiplier:1.4
SliderTickRate:1

[Events]
//Background and Video events
0,0,"tamiya.png",0,40
//Break Periods
//Storyboard Layer 0 (Background)
//Storyboard Layer 1 (Fail)
//Storyboard Layer 2 (Pass)
//Storyboard Layer 3 (Foreground)
//Storyboard Sound Samples

[TimingPoints]
1716,413.793103448276,4,1,0,60,1,0
1716,-95.2380952380952,4,1,0,60,0,0
14957,-100,4,1,0,60,0,0
48060,-105.263157894737,4,1,0,60,0,0
54681,-100,4,1,0,60,0,0
63991,-83.3333333333333,4,1,0,100,0,0
64612,-90.9090909090909,4,1,0,70,0,1
75991,-90.9090909090909,4,1,0,60,0,0
76405,-95.2380952380952,4,1,0,60,0,0
77853,-90.9090909090909,4,1,0,75,0,1
89647,-95.2380952380952,4,1,0,30,0,0
91095,-100,4,1,0,60,0,0
105164,-83.3333333333333,4,1,0,60,0,0
105578,-100,4,1,0,10,0,0
109302,-100,4,1,0,5,0,0

[HitObjects]
256,192,1716,5,0,0:0:0:0:
256,192,2129,1,8,0:0:0:0:
256,192,2543,1,0,0:0:0:0:
256,192,2750,1,0,0:0:0:0:
256,192,3164,1,0,0:0:0:0:
256,192,3784,1,8,0:0:0:0:
256,192,4198,1,0,0:0:0:0:
256,192,5026,1,0,0:0:0:0:
256,192,5440,1,0,0:0:0:0:
256,192,5647,1,8,0:0:0:0:
256,192,6060,1,0,0:0:0:0:
256,192,6474,1,0,0:0:0:0:
256,192,6888,1,8,0:0:0:0:
256,192,7095,1,0,0:0:0:0:
256,192,7509,1,8,0:0:0:0:
256,192,7922,1,8,0:0:0:0:
256,192,8336,1,0,0:0:0:0:
256,192,8750,1,0,0:0:0:0:
256,192,9164,1,8,0:0:0:0:
256,192,9784,1,12,0:0:0:0:
256,192,10198,1,0,0:0:0:0:
256,192,10405,1,8,0:0:0:0:
256,192,10819,1,8,0:0:0:0:
256,192,11026,1,0,0:0:0:0:
256,192,11233,1,0,0:0:0:0:
256,192,11647,1,8,0:0:0:0:
256,192,12267,1,0,0:0:0:0:
256,192,12681,1,8,0:0:0:0:
256,192,12888,1,8,0:0:0:0:
256,192,13095,1,0,0:0:0:0:
256,192,13509,1,8,0:0:0:0:
256,192,13716,1,0,0:0:0:0:
256,192,13922,1,0,0:0:0:0:
256,192,14129,1,8,0:0:0:0:
256,192,14543,1,8,0:0:0:0:
256,192,14957,1,0,0:0:0:0:
256,192,15578,1,0,0:0:0:0:
256,192,16612,1,0,0:0:0:0:
256,192,17233,1,0,0:0:0:0:
256,192,18267,1,0,0:0:0:0:
256,192,18888,1,0,0:0:0:0:
256,192,19509,1,8,0:0:0:0:
256,192,19922,1,0,0:0:0:0:
256,192,20543,1,0,0:0:0:0:
256,192,20957,1,8,0:0:0:0:
256,192,21164,1,8,0:0:0:0:
256,192,21578,1,4,0:0:0:0:
256,192,21991,1,8,0:0:0:0:
256,192,22405,1,0,0:0:0:0:
256,192,22612,1,0,0:0:0:0:
256,192,22819,1,8,0:0:0:0:
256,192,23233,1,0,0:0:0:0:
256,192,23647,1,8,0:0:0:0:
256,192,24060,1,0,0:0:0:0:
256,192,24267,1,0,0:0:0:0:
256,192,24474,1,8,0:0:0:0:
256,192,24888,1,0,0:0:0:0:
256,192,25302,1,8,0:0:0:0:
256,192,25716,1,0,0:0:0:0:
256,192,25922,1,0,0:0:0:0:
256,192,26129,1,8,0:0:0:0:
256,192,26543,1,0,0:0:0:0:
256,192,26957,1,8,0:0:0:0:
256,192,27371,1,0,0:0:0:0:
256,192,27578,1,0,0:0:0:0:
256,192,27784,1,8,0:0:0:0:
256,192,28198,1,0,0:0:0:0:
256,192,28612,1,8,0:0:0:0:
256,192,29026,1,0,0:0:0:0:
256,192,29233,1,8,0:0:0:0:
256,192,29440,1,0,0:0:0:0:
256,192,29853,1,8,0:0:0:0:
256,192,30267,1,8,0:0:0:0:
256,192,30681,1,8,0:0:0:0:
256,192,30888,1,0,0:0:0:0:
256,192,31095,1,8,0:0:0:0:
256,192,31509,1,0,0:0:0:0:
256,192,31922,1,8,0:0:0:0:
256,192,32336,1,0,0:0:0:0:
256,192,32543,1,0,0:0:0:0:
256,192,32750,1,8,0:0:0:0:
256,192,33164,1,0,0:0:0:0:
256,192,33578,1,8,0:0:0:0:
256,192,33991,1,0,0:0:0:0:
256,192,34198,1,8,0:0:0:0:
256,192,34405,1,8,0:0:0:0:
256,192,34819,1,4,0:0:0:0:
256,192,35233,1,8,0:0:0:0:
256,192,35440,1,0,0:0:0:0:
256,192,35647,1,8,0:0:0:0:
256,192,35853,1,8,0:0:0:0:
256,192,36267,1,12,0:0:0:0:
256,192,36888,1,8,0:0:0:0:
256,192,37302,1,8,0:0:0:0:
256,192,37509,1,0,0:0:0:0:
256,192,37716,1,8,0:0:0:0:
256,192,38129,1,0,0:0:0:0:
256,192,38543,1,12,0:0:0:0:
256,192,38957,1,0,0:0:0:0:
256,192,39164,1,8,0:0:0:0:
256,192,39371,1,0,0:0:0:0:
256,192,39578,1,0,0:0:0:0:
256,192,39991,1,8,0:0:0:0:
256,192,40198,1,0,0:0:0:0:
256,192,40612,1,8,0:0:0:0:
256,192,40819,1,0,0:0:0:0:
256,192,41026,1,8,0:0:0:0:
256,192,41440,2,0,L|320:192,4,35
256,192,42267,1,0,0:0:0:0:
256,192,42681,1,8,0:0:0:0:
256,192,42888,1,8,0:0:0:0:
256,192,43095,1,0,0:0:0:0:
256,192,43509,1,8,0:0:0:0:
256,192,43922,1,0,0:0:0:0:
256,192,44129,1,0,0:0:0:0:
256,192,44336,1,8,0:0:0:0:
256,192,44750,1,0,0:0:0:0:
256,192,45164,1,12,0:0:0:0:
256,192,45578,1,0,0:0:0:0:
256,192,45784,1,0,0:0:0:0:
256,192,45991,1,8,0:0:0:0:
256,192,46198,1,0,0:0:0:0:
256,192,46612,1,8,0:0:0:0:
256,192,47026,1,0,0:0:0:0:
256,192,47233,1,8,0:0:0:0:
256,192,47647,1,8,0:0:0:0:
256,192,48060,1,4,0:0:0:0:
256,192,48681,1,0,0:0:0:0:
256,192,48888,1,8,0:0:0:0:
256,192,49716,1,0,0:0:0:0:
256,192,50026,1,0,0:0:0:0:
256,192,50543,1,8,0:0:0:0:
256,192,50957,1,0,0:0:0:0:
256,192,51164,1,8,0:0:0:0:
256,192,51371,1,0,0:0:0:0:
256,192,51991,1,0,0:0:0:0:
256,192,52198,1,8,0:0:0:0:
256,192,53026,1,0,0:0:0:0:
256,192,53336,1,0,0:0:0:0:
256,192,53853,1,8,0:0:0:0:
256,192,54267,1,8,0:0:0:0:
256,192,54681,1,0,0:0:0:0:
256,192,55095,1,8,0:0:0:0:
256,192,55509,1,0,0:0:0:0:
256,192,55716,1,0,0:0:0:0:
256,192,55922,1,8,0:0:0:0:
256,192,56336,1,0,0:0:0:0:
256,192,56750,1,8,0:0:0:0:
256,192,57164,1,0,0:0:0:0:
256,192,57371,1,0,0:0:0:0:
256,192,57578,1,8,0:0:0:0:
256,192,57991,1,0,0:0:0:0:
256,192,58405,1,8,0:0:0:0:
256,192,58819,1,8,0:0:0:0:
256,192,59233,1,8,0:0:0:0:
256,192,59440,1,0,0:0:0:0:
256,192,59647,1,8,0:0:0:0:
256,192,60060,1,8,0:0:0:0:
256,192,60267,1,0,0:0:0:0:
256,192,60474,1,8,0:0:0:0:
256,192,60888,1,8,0:0:0:0:
256,192,61302,1,8,0:0:0:0:
256,192,61716,1,8,0:0:0:0:
256,192,62129,1,8,0:0:0:0:
256,192,62336,1,8,0:0:0:0:
256,192,62750,1,8,0:0:0:0:
256,192,63164,1,0,0:0:0:0:
256,192,63371,1,8,0:0:0:0:
256,192,63784,1,8,0:0:0:0:
256,192,64198,1,12,0:0:0:0:
256,192,64612,1,4,0:0:0:0:
256,192,65026,1,8,0:0:0:0:
256,192,65440,1,0,0:0:0:0:
256,192,65647,1,0,0:0:0:0:
256,192,65853,1,8,0:0:0:0:
256,192,66267,1,0,0:0:0:0:
256,192,66681,1,8,0:0:0:0:
256,192,67095,1,0,0:0:0:0:
256,192,67302,1,0,0:0:0:0:
256,192,67509,1,8,0:0:0:0:
256,192,67922,1,8,0:0:0:0:
256,192,68336,1,0,0:0:0:0:
256,192,68750,1,0,0:0:0:0:
256,192,68957,1,0,0:0:0:0:
256,192,69164,1,8,0:0:0:0:
256,192,69578,1,0,0:0:0:0:
256,192,69991,1,8,0:0:0:0:
256,192,70405,1,0,0:0:0:0:
256,192,70612,1,0,0:0:0:0:
256,192,70819,1,8,0:0:0:0:
192,192,71233,1,8,0:0:0:0:
192,192,71647,1,0,0:0:0:0:
192,192,72060,1,0,0:0:0:0:
192,192,72267,1,0,0:0:0:0:
192,192,72474,1,8,0:0:0:0:
192,192,72888,1,0,0:0:0:0:
192,192,73302,1,8,0:0:0:0:
192,192,73716,1,8,0:0:0:0:
192,192,73922,1,0,0:0:0:0:
192,192,74129,1,8,0:0:0:0:
192,192,74543,1,8,0:0:0:0:
256,192,74957,1,0,0:0:0:0:
256,192,75578,1,0,0:0:0:0:
256,192,75991,1,12,0:0:0:0:
256,192,76405,1,8,0:0:0:0:
256,192,76612,1,8,0:0:0:0:
256,192,77026,1,8,0:0:0:0:
256,192,77440,1,8,0:0:0:0:
256,192,77853,1,4,0:0:0:0:
256,192,78267,1,8,0:0:0:0:
256,192,78681,1,0,0:0:0:0:
256,192,78888,1,0,0:0:0:0:
256,192,79095,1,8,0:0:0:0:
256,192,79508,1,0,0:0:0:0:
256,192,79922,1,8,0:0:0:0:
256,192,80336,1,8,0:0:0:0:
256,192,80543,1,8,0:0:0:0:
256,192,80750,1,0,0:0:0:0:
256,192,81163,1,8,0:0:0:0:
256,192,81577,1,8,0:0:0:0:
256,192,81784,1,0,0:0:0:0:
256,192,81991,1,0,0:0:0:0:
256,192,82405,1,8,0:0:0:0:
256,192,82819,1,0,0:0:0:0:
256,192,83233,1,0,0:0:0:0:
256,160,83440,1,0,0:0:0:0:
256,192,83647,1,8,0:0:0:0:
256,192,83853,1,0,0:0:0:0:
256,192,84060,1,8,0:0:0:0:
256,192,84474,1,0,0:0:0:0:
256,192,84888,1,8,0:0:0:0:
256,192,85301,1,0,0:0:0:0:
256,192,85509,1,0,0:0:0:0:
256,192,85715,1,8,0:0:0:0:
256,192,85922,1,8,0:0:0:0:
256,192,86129,1,0,0:0:0:0:
256,192,86543,1,8,0:0:0:0:
256,192,86750,1,0,0:0:0:0:
256,192,87163,1,8,0:0:0:0:
256,192,87370,1,0,0:0:0:0:
256,192,87578,1,0,0:0:0:0:
256,192,87784,1,0,0:0:0:0:
256,192,88198,1,8,0:0:0:0:
256,192,88612,1,0,0:0:0:0:
256,192,88819,1,8,0:0:0:0:
256,192,89026,1,8,0:0:0:0:
256,192,89440,1,8,0:0:0:0:
256,192,89647,12,0,90888,0:0:0:0:
256,192,91095,5,0,0:0:0:0:
256,192,91508,1,8,0:0:0:0:
256,192,91922,1,0,0:0:0:0:
256,192,92129,1,0,0:0:0:0:
256,192,92543,1,0,0:0:0:0:
256,192,93163,1,8,0:0:0:0:
256,192,93577,1,0,0:0:0:0:
256,192,93784,1,0,0:0:0:0:
256,192,93991,1,8,0:0:0:0:
256,192,94405,1,8,0:0:0:0:
256,192,95026,1,8,0:0:0:0:
256,192,95439,1,0,0:0:0:0:
256,192,95646,1,8,0:0:0:0:
256,192,95853,1,0,0:0:0:0:
256,192,96267,1,8,0:0:0:0:
256,192,96474,1,0,0:0:0:0:
256,192,96888,1,0,0:0:0:0:
256,192,97301,1,8,0:0:0:0:
256,192,97715,1,0,0:0:0:0:
256,192,98129,1,0,0:0:0:0:
256,192,98543,1,8,0:0:0:0:
256,192,99163,1,12,0:0:0:0:
256,192,99577,1,0,0:0:0:0:
256,192,99784,1,8,0:0:0:0:
256,192,100198,1,8,0:0:0:0:
256,192,100405,1,0,0:0:0:0:
256,192,100612,1,0,0:0:0:0:
256,192,101026,1,8,0:0:0:0:
256,192,101646,1,0,0:0:0:0:
256,192,102060,1,8,0:0:0:0:
256,192,102267,1,8,0:0:0:0:
256,192,102474,1,0,0:0:0:0:
256,192,102888,1,8,0:0:0:0:
256,192,103095,1,8,0:0:0:0:
256,192,103509,1,0,0:0:0:0:
256,192,103922,1,8,0:0:0:0:
256,192,105164,1,12,0:0:0:0:
256,192,105578,8,0,111784,0:0:0:0:
