osu file format v14

[General]
AudioFilename: audio.mp3
AudioLeadIn: 0
PreviewTime: 66586
Countdown: 0
SampleSet: Soft
StackLeniency: 0.7
Mode: 0
LetterboxInBreaks: 0
WidescreenStoryboard: 1

[Editor]
DistanceSpacing: 1
BeatDivisor: 4
GridSize: 4
TimelineZoom: 1

[Metadata]
Title:Ano Basho e
TitleUnicode:あの場所へ
Artist:Sanada Kanra (CV: M.A.O)
ArtistUnicode:真田 甘楽 (CV: M·A·O)
Creator:Fushimi Rio
Version:Normal
Source:魔女こいにっき Dragon×Caravan
Tags:j-pop jpop japanese pop galgame opening visual novel 真田 甘楽 Gust PinkHeart Blockade tomatosiruco Qoobrand 古川龙也
BeatmapID:1895290
BeatmapSetID:908157

[Difficulty]
HPDrainRate:4
CircleSize:3
OverallDifficulty:4
ApproachRate:5.5
SliderMultiplier:1.2
SliderTickRate:1

[Events]
//Background and Video events
0,0,"bg03.jpg",0,0
//Break Periods
//Storyboard Layer 0 (Background)
//Storyboard Layer 1 (Fail)
//Storyboard Layer 2 (Pass)
//Storyboard Layer 3 (Foreground)
//Storyboard Layer 4 (Overlay)
//Storyboard Sound Samples

[TimingPoints]
450,454.545454545455,4,2,0,60,1,0
2950,-100,4,2,0,80,0,0
4086,-100,4,2,0,80,0,0
22268,-100,4,2,0,70,0,0
36586,-100,4,2,0,80,0,0
67268,-100,4,2,0,80,0,0
67722,-100,4,2,0,80,0,1
96813,-100,4,2,0,50,0,0
99540,-100,4,2,0,80,0,0
99995,-100,4,2,0,80,0,0
100336,-100,4,2,0,5,0,0
100450,-100,4,2,0,80,0,1
100563,-100,4,2,0,80,0,0
104086,-100,4,2,0,80,0,0

[Colours]
Combo1 : 179,128,255
Combo2 : 255,128,255
Combo3 : 255,128,128
Combo4 : 255,220,128

[HitObjects]
45,163,450,6,0,P|106:154|152:112,1,120,0|0,3:0|0:0,0:0:0:0:
235,18,1359,1,0,3:0:0:0:
275,61,1586,2,0,B|320:100|320:100|379:109,2,120,0|0|0,3:0|3:0|3:0,0:0:0:0:
154,61,2950,1,0,3:0:0:0:
123,112,3177,2,0,L|91:163,1,60,0|0,1:0|3:0,0:0:0:0:
31,163,3631,1,4,1:2:0:0:
31,283,4086,6,0,L|93:283,1,60,4|0,1:0|0:0,0:0:0:0:
144,309,4540,2,0,L|206:309,1,60,0|0,1:0|0:0,0:0:0:0:
264,309,4995,2,0,P|273:337|290:361,2,60,0|0|0,3:0|3:0|1:0,0:0:0:0:
264,248,5677,1,2,0:0:0:0:
383,248,6131,5,2,0:0:0:0:
383,187,6359,2,0,P|373:158|356:134,1,60,0|0,1:0|0:0,0:0:0:0:
301,110,6813,2,0,L|301:50,2,60,0|0|0,3:0|3:0|1:0,0:0:0:0:
247,133,7495,1,0,0:0:0:0:
266,189,7722,6,0,L|204:189,1,60,4|0,0:0|0:0,0:0:0:0:
153,215,8176,2,0,L|91:215,1,60,0|0,1:0|0:0,0:0:0:0:
33,215,8631,2,0,P|23:243|6:267,2,60,0|0|0,0:0|0:0|1:0,0:0:0:0:
33,154,9313,1,2,0:0:0:0:
136,93,9768,5,2,0:0:0:0:
135,154,9995,2,0,P|144:182|161:206,1,60,0|2,1:0|0:0,0:0:0:0:
218,231,10450,2,0,L|218:291,2,60,0|0|0,1:0|3:0|1:0,0:0:0:0:
272,208,11132,1,0,1:0:0:0:
250,152,11359,6,0,L|312:152,1,60,4|0,1:0|0:0,0:0:0:0:
363,178,11813,2,0,L|425:178,1,60,4|0,1:2|0:0,0:0:0:0:
474,209,12268,2,0,P|467:238|470:267,2,60,0|0|0,3:0|3:0|1:0,0:0:0:0:
505,157,12950,1,2,0:0:0:0:
442,54,13404,5,2,0:0:0:0:
389,82,13631,2,0,L|327:82,1,60,0|0,1:0|0:0,0:0:0:0:
276,108,14085,2,0,L|214:108,2,60,0|0|0,3:0|3:0|1:0,0:0:0:0:
304,161,14768,1,0,0:0:0:0:
276,214,14995,6,0,L|216:214,1,60,4|0,1:0|0:0,0:0:0:0:
163,188,15449,2,0,L|103:188,1,60,0|0,1:0|0:0,0:0:0:0:
62,232,15904,2,0,P|55:261|58:290,2,60,0|0|0,3:0|3:0|1:0,0:0:0:0:
12,197,16586,1,0,1:0:0:0:
0,138,16813,6,0,P|8:99|26:72,1,60,4|0,1:0|1:0,0:0:0:0:
78,82,17268,2,0,L|138:82,1,60,0|0,1:0|3:0,0:0:0:0:
193,58,17723,2,0,P|199:28|196:0,2,60,4|0|4,1:0|3:0|1:2,0:0:0:0:
256,192,18631,12,4,20450,0:1:0:0:
469,243,22040,5,0,0:0:0:0:
424,284,22268,2,0,B|383:318|383:318|316:318,1,120,4|0,0:2|3:0,0:0:0:0:
199,319,23177,2,0,B|132:318|132:318|91:284,1,120,0|0,3:0|3:0,0:0:0:0:
46,243,23859,1,0,0:0:0:0:
46,183,24086,2,0,L|0:146,2,60,2|0|0,0:0|0:0|3:0,0:0:0:0:
133,100,24995,1,0,0:0:0:0:
228,173,25450,2,0,L|274:210,1,60,0|0,3:0|0:0,0:0:0:0:
320,249,25904,6,0,B|386:248|386:248|427:214,1,120,0|0,3:0|3:0,0:0:0:0:
445,95,26813,2,0,B|378:95|378:95|337:129,1,120,0|0,3:0|3:0,0:0:0:0:
298,83,27495,2,0,P|244:51|183:55,1,120,0|0,0:0|0:0,0:0:0:0:
78,98,28404,2,0,P|47:97|19:88,2,60,0|0|0,0:0|3:0|0:0,0:0:0:0:
94,155,29086,1,0,3:0:0:0:
27,254,29540,5,0,0:0:0:0:
127,320,29995,1,0,3:0:0:0:
194,221,30450,2,0,B|260:221|260:221|301:255,1,120,0|0,3:0|3:0,0:0:0:0:
339,302,31131,2,0,L|412:302,1,60,2|0,0:0|0:0,0:0:0:0:
447,191,31813,2,0,L|387:191,1,60,0|0,3:0|0:0,0:0:0:0:
344,148,32268,2,0,B|310:107|310:107|309:40,1,120,0|0,3:0|3:0,0:0:0:0:
366,21,32950,1,0,0:0:0:0:
424,7,33177,6,0,B|458:48|458:48|458:114,1,120,2|0,0:0|3:0,0:0:0:0:
458,234,34086,1,0,3:0:0:0:
458,295,34314,2,0,P|467:323|484:347,2,60,0|0|0,0:0|3:0|0:0,0:0:0:0:
398,295,34995,2,0,B|357:329|357:329|290:329,1,120,0|0,0:0|3:0,0:0:0:0:
184,274,35904,1,0,3:0:0:0:
160,218,36131,1,0,1:0:0:0:
103,239,36359,2,0,L|35:240,1,60,0|0,1:0|3:0,0:0:0:0:
11,188,36813,6,0,P|-1:122|23:67,1,120,4|0,0:0|1:0,0:0:0:0:
120,136,37722,2,0,B|190:121|155:97|225:82,1,120,0|0,3:0|1:0,0:0:0:0:
284,89,38404,1,0,0:0:0:0:
310,142,38631,2,0,P|333:160|361:168,2,60,0|0|0,3:0|0:0|1:0,0:0:0:0:
415,84,39540,2,0,L|415:14,2,60,2|0|0,0:0|0:0|1:0,0:0:0:0:
493,175,40450,6,0,P|454:235|394:254,1,120,0|0,3:0|1:0,0:0:0:0:
375,300,41131,1,0,0:0:0:0:
329,260,41359,2,0,P|299:252|270:254,1,60,0|0,3:0|0:0,0:0:0:0:
244,309,41813,2,0,P|220:327|192:338,1,60,0|0,1:0|0:0,0:0:0:0:
132,334,42268,2,0,B|71:295|111:285|50:247,1,120,2|0,0:0|1:0,0:0:0:0:
0,219,42950,1,0,0:0:0:0:
24,164,43177,2,0,L|24:80,2,60,0|0|0,3:0|3:0|1:0,0:0:0:0:
140,192,44086,5,4,0:0:0:0:
163,74,44540,1,0,1:0:0:0:
223,74,44768,1,0,0:0:0:0:
272,108,44995,2,0,P|343:100|383:57,1,120,0|0,3:0|1:0,0:0:0:0:
397,11,45677,1,0,0:0:0:0:
454,29,45904,2,0,B|488:70|488:70|488:136,1,120,2|0,0:0|1:0,0:0:0:0:
455,187,46586,1,0,3:0:0:0:
424,238,46813,2,0,L|341:238,1,60,0|0,3:0|0:0,0:0:0:0:
313,205,47268,2,0,L|230:205,1,60,0|0,1:0|0:0,0:0:0:0:
222,256,47722,5,0,3:0:0:0:
166,149,48177,1,0,1:0:0:0:
59,205,48631,1,0,3:0:0:0:
86,258,48859,2,0,L|116:311,1,60,2|0,0:0|1:0,0:0:0:0:
175,311,49313,1,0,3:0:0:0:
234,311,49540,2,0,L|264:364,2,60,4|0|0,1:0|1:0|1:0,0:0:0:0:
257,192,50450,2,0,L|227:139,2,60,0|0|4,1:0|3:0|1:0,0:0:0:0:
288,242,51131,1,0,0:0:0:0:
348,242,51359,6,0,P|405:199|418:142,1,120,4|0,0:0|1:0,0:0:0:0:
415,95,52040,1,0,3:0:0:0:
302,139,52495,2,0,P|273:145|244:143,1,60,0|0,3:0|1:0,0:0:0:0:
192,111,52950,2,0,P|121:119|81:162,1,120,2|2,0:0|0:0,0:0:0:0:
61,205,53631,1,0,1:0:0:0:
116,298,54086,1,0,0:0:0:0:
168,268,54313,2,0,L|168:196,2,60,0|0|0,3:0|1:0|0:0,0:0:0:0:
214,307,54995,6,0,P|284:298|324:256,1,120,0|0,0:0|1:0,0:0:0:0:
344,213,55676,1,0,3:0:0:0:
456,255,56131,2,0,P|464:226|465:196,1,60,0|0,3:0|1:0,0:0:0:0:
438,145,56586,2,0,P|427:74|458:24,1,120,2|2,0:0|0:0,0:0:0:0:
504,11,57267,1,0,1:0:0:0:
366,0,57722,2,0,L|297:0,1,60,0|0,3:0|3:0,0:0:0:0:
270,48,58177,2,0,L|201:48,1,60,0|0,1:0|1:0,0:0:0:0:
150,47,58631,5,4,0:1:0:0:
117,97,58859,2,0,P|109:125|111:157,2,60,0|0|0,0:0|1:0|0:0,0:0:0:0:
64,68,59540,2,0,B|38:15|38:15|-18:39,1,120,0|0,3:0|1:0,0:0:0:0:
0,159,60450,2,0,P|14:184|38:205,1,60,0|0,0:0|0:0,0:0:0:0:
89,175,60904,2,0,P|117:165|147:165,1,60,0|0,1:0|0:0,0:0:0:0:
201,192,61359,2,0,P|257:237|324:240,1,120,2|0,0:0|1:0,0:0:0:0:
422,256,62268,6,0,P|422:226|412:197,1,60,0|0,0:0|0:0,0:0:0:0:
426,139,62722,2,0,P|405:117|378:104,1,60,0|0,1:0|0:0,0:0:0:0:
323,129,63177,2,0,P|254:102|218:46,1,120,0|0,3:0|1:0,0:0:0:0:
256,192,64086,12,0,65677,1:0:0:0:
139,246,66586,6,0,B|171:297|171:297|228:308,1,120,4|0,1:0|0:0,0:0:0:0:
282,282,67268,2,0,P|307:265|337:257,1,60,4|0,0:2|0:0,0:0:0:0:
395,268,67722,5,4,1:1:0:0:
478,181,68177,2,0,L|416:149,1,60,0|0,1:0|0:0,0:0:0:0:
408,95,68631,2,0,L|346:63,1,60,0|0,3:0|0:0,0:0:0:0:
298,87,69086,1,0,1:0:0:0:
241,107,69313,6,0,P|186:89|148:39,1,120,2|2,0:0|0:0,0:0:0:0:
89,36,69995,2,0,P|61:41|30:60,1,60,0|0,1:0|0:0,0:0:0:0:
8,111,70450,1,0,3:0:0:0:
87,200,70904,2,0,P|114:194|146:176,2,60,0|0|4,1:0|0:0|0:0,0:0:0:0:
124,314,71813,6,0,L|183:313,1,60,0|0,1:0|0:0,0:0:0:0:
225,269,72267,2,0,L|284:269,1,60,0|0,3:0|0:0,0:0:0:0:
317,319,72722,1,0,1:0:0:0:
370,345,72949,6,0,P|428:338|473:299,1,120,2|2,0:0|0:0,0:0:0:0:
485,240,73631,2,0,P|455:228|436:209,1,60,0|0,1:0|0:0,0:0:0:0:
418,150,74086,1,0,1:2:0:0:
452,35,74540,1,0,1:0:0:0:
393,19,74768,1,0,1:0:0:0:
335,3,74995,1,4,0:2:0:0:
280,109,75450,6,0,L|280:192,1,60,0|0,1:0|0:0,0:0:0:0:
252,222,75904,2,0,L|252:305,2,60,2|0|0,3:2|3:0|1:0,0:0:0:0:
199,192,76586,6,0,P|124:203|88:240,1,120,0|0,0:0|0:0,0:0:0:0:
79,290,77268,1,0,1:0:0:0:
103,344,77495,1,4,0:1:0:0:
220,368,77950,2,0,P|243:349|260:325,1,60,0|0,3:0|1:0,0:0:0:0:
271,266,78404,6,0,P|331:311|383:310,1,120,0|0,3:0|0:0,0:0:0:0:
425,281,79086,2,0,L|425:212,1,60,0|0,1:0|0:0,0:0:0:0:
469,181,79540,2,0,L|469:112,2,60,0|0|0,3:0|3:0|1:0,0:0:0:0:
506,227,80222,1,0,3:0:0:0:
460,264,80450,5,4,1:0:0:0:
368,338,80904,1,0,1:0:0:0:
290,246,81359,1,4,1:2:0:0:
253,200,81586,1,0,3:0:0:0:
216,154,81813,2,0,P|190:136|162:128,1,60,0|0,1:0|1:0,0:0:0:0:
103,138,82268,5,4,1:0:0:0:
57,249,82722,2,0,L|119:281,1,60,0|0,1:0|0:0,0:0:0:0:
127,335,83176,2,0,L|189:367,1,60,0|0,3:0|3:0,0:0:0:0:
237,343,83631,1,0,1:0:0:0:
275,297,83858,6,0,P|329:314|367:364,1,120,2|2,0:0|0:0,0:0:0:0:
427,368,84540,2,0,P|454:362|486:344,1,60,0|0,1:0|0:0,0:0:0:0:
508,293,84995,1,0,3:0:0:0:
430,220,85449,2,0,P|402:225|371:244,2,60,0|0|4,1:0|0:0|0:0,0:0:0:0:
397,335,86359,6,0,L|337:334,1,60,0|0,1:0|0:0,0:0:0:0:
296,290,86813,2,0,L|237:290,1,60,0|0,3:0|3:0,0:0:0:0:
204,340,87268,1,0,1:0:0:0:
151,366,87495,6,0,P|92:359|47:320,1,120,2|2,0:0|0:0,0:0:0:0:
44,260,88177,2,0,P|73:248|93:229,1,60,0|0,1:0|0:0,0:0:0:0:
111,170,88632,1,0,1:0:0:0:
77,55,89086,1,0,1:0:0:0:
136,39,89314,1,0,1:0:0:0:
194,23,89541,1,4,0:2:0:0:
249,129,89996,6,0,L|249:212,1,60,0|0,1:0|0:0,0:0:0:0:
297,223,90450,2,0,L|297:306,1,60,0|0,3:0|3:0,0:0:0:0:
356,292,90904,2,0,P|390:282|426:259,1,60,0|0,1:0|0:0,0:0:0:0:
439,219,91359,5,4,1:0:0:0:
492,191,91586,1,0,3:0:0:0:
464,138,91813,1,0,3:0:0:0:
411,166,92041,1,4,0:0:0:0:
382,50,92495,1,0,3:0:0:0:
329,78,92722,1,0,1:0:0:0:
274,103,92950,6,0,P|215:96|166:49,1,120,0|0,3:0|0:0,0:0:0:0:
110,54,93631,1,0,1:0:0:0:
67,165,94086,2,0,P|39:154|10:154,2,60,0|0|0,0:0|3:0|1:0,0:0:0:0:
104,212,94768,1,0,0:3:0:0:
142,258,94996,6,0,L|261:258,1,120,4|0,1:2|3:0,0:0:0:0:
315,231,95677,1,0,0:0:0:0:
353,278,95904,2,0,L|436:278,2,60,4|0|0,1:0|3:0|1:0,0:0:0:0:
314,323,96586,1,0,1:0:0:0:
254,332,96813,6,0,B|174:328|166:241|205:154|271:201|353:199|400:107|340:28|279:1|227:8|175:79|175:79|127:25|31:47|39:151|97:190,1,780,4|0,1:2|0:0,0:0:0:0:
97,250,99995,5,0,1:0:0:0:
108,369,100450,6,0,B|41:369|41:369|0:335,1,120,4|0,1:2|0:0,0:0:0:0:
0,275,101131,2,0,L|0:155,1,120,0|0,1:0|0:0,0:0:0:0:
60,155,101813,6,0,L|60:35,1,120,4|0,0:0|0:0,0:0:0:0:
119,35,102495,2,0,B|186:35|186:35|227:69,1,120,0|0,1:0|0:0,0:0:0:0:
222,128,103177,5,0,1:0:0:0:
310,209,103631,1,4,1:0:0:0:
370,103,104086,6,0,P|459:88|427:192,1,240,4|0,0:2|1:0,0:0:0:0:
371,213,105222,5,0,1:0:0:0:
324,177,105449,1,0,1:0:0:0:
274,210,105677,1,4,1:2:0:0:
