osu file format v14

[General]
AudioFilename: audio.mp3
AudioLeadIn: 0
PreviewTime: 66586
Countdown: 0
SampleSet: Soft
StackLeniency: 0.7
Mode: 0
LetterboxInBreaks: 0
WidescreenStoryboard: 1

[Editor]
Bookmarks: 103404
DistanceSpacing: 1.4
BeatDivisor: 4
GridSize: 4
TimelineZoom: 1

[Metadata]
Title:Ano Basho e
TitleUnicode:あの場所へ
Artist:Sanada Kanra (CV: M.A.O)
ArtistUnicode:真田 甘楽 (CV: M·A·O)
Creator:Fushimi Rio
Version:Hard
Source:魔女こいにっき Dragon×Caravan
Tags:j-pop jpop japanese pop galgame opening visual novel 真田 甘楽 Gust PinkHeart Blockade tomatosiruco Qoobrand 古川龙也
BeatmapID:1895170
BeatmapSetID:908157

[Difficulty]
HPDrainRate:4.5
CircleSize:4
OverallDifficulty:7
ApproachRate:7
SliderMultiplier:1.2
SliderTickRate:1

[Events]
//Background and Video events
0,0,"bg03.jpg",0,0
//Break Periods
//Storyboard Layer 0 (Background)
//Storyboard Layer 1 (Fail)
//Storyboard Layer 2 (Pass)
//Storyboard Layer 3 (Foreground)
//Storyboard Layer 4 (Overlay)
//Storyboard Sound Samples

[TimingPoints]
450,454.545454545455,4,2,0,60,1,0
2950,-100,4,2,0,80,0,0
4086,-100,4,2,0,80,0,0
18177,-66.6666666666667,4,2,0,80,0,0
18631,-100,4,2,0,80,0,0
20450,-133.333333333333,4,2,0,80,0,0
21586,-100,4,2,0,80,0,0
22268,-100,4,2,0,70,0,0
36586,-100,4,2,0,80,0,0
67268,-100,4,2,0,80,0,0
67722,-100,4,2,0,80,0,1
96813,-100,4,2,0,50,0,0
99540,-100,4,2,0,80,0,0
99995,-100,4,2,0,80,0,0
100336,-100,4,2,0,5,0,0
100450,-100,4,2,0,80,0,1
100563,-100,4,2,0,80,0,0
104086,-100,4,2,0,80,0,0

[Colours]
Combo1 : 179,128,255
Combo2 : 255,128,255
Combo3 : 255,128,128
Combo4 : 255,220,128

[HitObjects]
86,259,450,6,0,P|133:258|170:235,1,90,0|0,3:0|0:0,0:0:0:0:
191,255,904,2,0,P|226:236|255:232,1,60,0|0,0:0|0:0,0:0:0:0:
275,234,1245,1,0,0:0:0:0:
301,248,1359,1,0,3:0:0:0:
408,226,1586,1,0,3:0:0:0:
311,275,1813,1,0,0:0:0:0:
318,166,2040,6,0,P|351:129|399:116,1,90,0|0,3:0|0:0,0:0:0:0:
408,93,2495,2,0,P|389:58|385:29,1,60,0|0,3:0|0:0,0:0:0:0:
266,92,2950,1,0,3:0:0:0:
262,96,3063,1,0,0:0:0:0:
258,100,3177,5,0,1:0:0:0:
236,103,3290,1,0,3:0:0:0:
215,96,3404,1,0,3:0:0:0:
197,85,3518,1,0,3:0:0:0:
185,68,3631,1,4,1:2:0:0:
136,225,4086,6,0,P|96:214|71:216,1,60,4|0,1:0|0:0,0:0:0:0:
61,318,4540,2,0,P|101:329|126:327,1,60,0|0,1:0|0:0,0:0:0:0:
227,202,4995,2,0,P|186:212|166:226,1,60,0|0,3:0|3:0,0:0:0:0:
208,320,5449,2,0,P|248:309|268:295,1,60,0|2,1:0|0:0,0:0:0:0:
279,285,5790,1,0,0:0:0:0:
285,264,5904,1,0,0:0:0:0:
367,302,6131,5,2,0:0:0:0:
413,224,6359,2,0,P|439:209|468:203,1,60,0|0,1:0|0:0,0:0:0:0:
451,119,6813,2,0,P|480:119|509:129,1,60,0|0,3:0|3:0,0:0:0:0:
450,33,7268,2,0,P|420:38|394:53,1,60,0|0,1:0|0:0,0:0:0:0:
309,133,7722,6,0,P|269:144|244:142,1,60,4|0,0:0|0:0,0:0:0:0:
234,40,8176,2,0,P|274:29|299:31,1,60,0|0,1:0|0:0,0:0:0:0:
166,136,8631,2,0,P|125:125|105:111,1,60,0|0,0:0|0:0,0:0:0:0:
147,18,9085,2,0,P|187:28|207:42,1,60,0|2,1:0|0:0,0:0:0:0:
218,53,9426,1,0,0:0:0:0:
224,74,9540,1,0,0:0:0:0:
321,66,9768,5,2,0:0:0:0:
222,96,9995,1,0,1:0:0:0:
331,86,10222,1,2,0:0:0:0:
223,119,10450,1,0,1:0:0:0:
217,140,10564,1,0,3:0:0:0:
219,162,10677,1,0,3:0:0:0:
126,139,10904,1,0,1:0:0:0:
161,239,11131,1,0,1:0:0:0:
161,239,11245,1,0,3:0:0:0:
161,239,11359,6,0,P|150:279|152:304,1,60,4|0,1:0|0:0,0:0:0:0:
254,314,11813,2,0,P|265:274|263:249,1,60,4|0,1:2|0:0,0:0:0:0:
370,182,12268,2,0,P|369:211|359:240,1,60,0|0,3:0|3:0,0:0:0:0:
256,223,12722,2,0,P|256:193|266:164,1,60,0|2,1:0|0:0,0:0:0:0:
279,148,13063,1,0,0:0:0:0:
298,140,13177,1,0,0:0:0:0:
254,61,13404,5,2,0:0:0:0:
336,24,13631,2,0,P|365:24|394:34,1,60,0|0,1:0|0:0,0:0:0:0:
374,165,14086,2,0,P|359:138|353:109,1,60,0|0,3:0|3:0,0:0:0:0:
478,62,14540,2,0,P|462:87|440:107,1,60,0|0,1:0|0:0,0:0:0:0:
321,228,14995,5,4,1:0:0:0:
397,183,15222,1,0,0:0:0:0:
321,228,15450,2,0,P|311:199|310:169,1,60,0|0,1:0|0:0,0:0:0:0:
226,168,15904,2,0,P|231:138|246:112,1,60,0|0,3:0|3:0,0:0:0:0:
149,201,16359,1,0,1:0:0:0:
82,148,16586,5,0,1:0:0:0:
82,148,16700,1,0,1:0:0:0:
82,148,16813,1,4,1:0:0:0:
64,244,17040,1,0,1:0:0:0:
163,213,17268,6,0,L|207:200,2,30,0|0|0,1:0|3:0|3:0,3:0:0:0:
125,327,17722,1,4,1:0:0:0:
144,320,17836,1,0,3:0:0:0:
164,316,17950,1,0,3:0:0:0:
184,317,18063,1,0,3:0:0:0:
204,321,18177,2,0,P|251:317|296:265,1,90.0000034332277,4|0,1:2|0:0,0:0:0:0:
366,292,18631,6,0,P|307:257|292:210,1,120,4|0,0:0|1:0,0:0:0:0:
373,138,19313,2,0,P|432:173|447:220,1,120,4|0,0:1|0:0,0:0:0:0:
394,285,19995,1,0,1:0:0:0:
512,274,20222,1,0,0:0:0:0:
462,381,20450,6,0,B|435:360|435:360|334:374,1,135.000005149841,4|0,0:1|0:0,0:0:0:0:
315,380,21245,1,0,0:0:0:0:
295,384,21359,1,0,1:0:0:0:
231,319,21586,6,0,P|178:328|127:284,1,120,4|0,0:0|0:0,0:0:0:0:
69,209,22268,6,0,B|155:201|155:201|181:167,1,120,4|0,0:2|3:0,0:0:0:0:
238,238,22950,1,0,0:0:0:0:
238,238,23177,2,0,B|258:211|258:211|344:203,1,120,0|0,3:0|3:0,0:0:0:0:
424,264,23859,1,0,0:0:0:0:
424,264,23972,1,0,0:0:0:0:
424,264,24086,6,0,L|436:198,1,60,2|0,0:0|0:0,0:0:0:0:
352,170,24540,2,0,L|364:104,1,60,0|0,3:0|0:0,0:0:0:0:
441,65,24995,1,0,0:0:0:0:
441,65,25109,1,0,0:0:0:0:
441,65,25222,2,0,L|447:32,2,30,0|0|0,0:0|0:0|3:0,0:0:0:0:
444,152,25677,1,0,0:0:0:0:
369,196,25904,6,0,B|283:188|283:188|263:161,1,120,0|0,3:0|3:0,0:0:0:0:
203,226,26586,1,0,0:0:0:0:
156,158,26813,1,0,3:0:0:0:
76,134,27040,2,0,P|44:132|17:140,1,60,0|0,0:0|3:0,0:0:0:0:
21,253,27495,1,0,0:0:0:0:
21,253,27609,1,0,0:0:0:0:
21,253,27722,6,0,P|65:254|104:233,1,90,2|0,0:0|0:0,0:0:0:0:
126,248,28177,2,0,P|155:240|184:244,1,60,0|0,3:0|0:0,0:0:0:0:
261,306,28631,1,0,3:0:0:0:
261,306,28745,1,0,0:0:0:0:
261,306,28858,2,0,L|255:339,2,30,0|0|0,0:0|0:0|3:0,0:0:0:0:
334,368,29313,1,0,3:0:0:0:
383,289,29540,6,0,P|439:256|498:265,1,120,0|0,0:0|3:0,0:0:0:0:
497,118,30222,1,0,0:0:0:0:
497,118,30450,2,0,L|482:178,1,60,0|0,3:0|0:0,0:0:0:0:
421,82,30904,2,0,L|406:142,1,60,0|2,3:0|0:0,0:0:0:0:
406,140,31245,1,0,0:0:0:0:
406,140,31359,6,0,P|350:107|291:116,1,120,0|0,0:0|3:0,0:0:0:0:
212,155,32040,2,0,L|210:95,1,60,0|0,0:0|3:0,0:0:0:0:
136,196,32495,1,0,0:0:0:0:
136,196,32609,1,0,0:0:0:0:
136,196,32722,2,0,L|119:138,1,60,0|0,3:0|0:0,0:0:0:0:
4,260,33177,6,0,B|-12:233|-12:233|93:257,2,120,2|0|0,0:0|3:0|3:0,0:0:0:0:
55,335,34313,1,0,0:0:0:0:
136,313,34540,1,0,3:0:0:0:
211,369,34768,1,0,0:0:0:0:
211,369,34881,1,0,0:0:0:0:
211,369,34995,6,0,B|269:378|266:347|328:359,1,120,0|0,0:0|3:0,0:0:0:0:
250,181,35904,1,0,3:0:0:0:
268,217,36017,1,0,0:0:0:0:
279,246,36131,1,0,1:0:0:0:
404,205,36359,1,0,1:0:0:0:
307,117,36586,1,0,3:0:0:0:
404,205,36813,6,0,P|439:185|448:102,1,120,4|0,0:0|1:0,0:0:0:0:
364,71,37495,1,0,0:0:0:0:
273,101,37722,2,0,P|226:65|224:8,1,120,0|0,3:0|1:0,0:0:0:0:
148,102,38404,1,0,0:0:0:0:
148,102,38518,1,0,0:0:0:0:
148,102,38631,6,0,L|80:92,1,60,0|0,3:0|0:0,0:0:0:0:
107,181,39086,2,0,L|39:171,1,60,0|0,1:0|0:0,0:0:0:0:
164,244,39540,1,2,0:0:0:0:
68,274,39768,1,0,0:0:0:0:
68,274,39881,1,0,0:0:0:0:
68,274,39995,2,0,P|88:313|124:337,1,60,0|0,1:0|3:0,0:0:0:0:
176,384,40450,6,0,P|198:355|280:351,1,120,0|0,3:0|1:0,0:0:0:0:
276,348,41131,1,0,0:0:0:0:
328,262,41359,1,0,3:0:0:0:
328,262,41586,2,0,P|352:285|384:297,1,60,0|0,0:0|1:0,0:0:0:0:
464,257,42040,1,0,0:0:0:0:
464,257,42154,1,0,0:0:0:0:
464,257,42268,6,0,P|472:223|466:191,1,60,2|0,0:0|0:0,0:0:0:0:
389,145,42722,2,0,P|356:154|330:175,1,60,0|0,1:0|0:0,0:0:0:0:
318,262,43177,1,0,3:0:0:0:
309,264,43290,1,0,3:0:0:0:
300,266,43404,1,0,3:0:0:0:
291,268,43518,1,0,3:0:0:0:
282,270,43631,1,0,1:0:0:0:
203,225,43859,1,0,3:0:0:0:
182,323,44086,6,0,P|145:356|75:354,1,120,4|0,0:0|1:0,0:0:0:0:
39,265,44768,1,0,0:0:0:0:
39,265,44995,2,0,P|64:228|84:215,1,60,0|0,3:0|0:0,0:0:0:0:
107,130,45450,2,0,P|135:139|165:139,1,60,0|0,1:0|0:0,0:0:0:0:
182,135,45790,1,0,0:0:0:0:
198,126,45904,6,0,P|235:93|305:95,1,120,2|0,0:0|1:0,0:1:0:0:
425,39,46586,1,0,3:0:0:0:
425,39,46813,2,0,P|425:68|415:97,1,60,0|0,3:0|0:0,0:0:0:0:
406,112,47154,1,0,0:0:0:0:
395,126,47268,2,0,P|394:155|404:184,1,60,0|0,1:0|0:0,0:0:0:0:
512,260,47722,6,0,B|528:233|528:233|423:257,2,120,0|0|0,3:0|1:0|3:0,0:0:0:0:
460,334,48859,1,2,0:0:0:0:
379,312,49086,1,0,1:0:0:0:
309,364,49314,1,0,3:0:0:0:
309,364,49427,1,0,3:0:0:0:
309,364,49540,5,4,1:0:0:0:
274,280,49768,1,0,1:0:0:0:
219,353,49995,1,0,1:0:0:0:
176,241,50222,1,0,3:0:0:0:
176,241,50336,1,0,3:0:0:0:
176,241,50450,2,0,P|151:251|135:252,3,30,0|0|0|0,1:0|1:0|3:0|3:0,0:0:0:0:
151,279,50904,2,0,P|124:275|109:268,3,30,4|0|0|0,1:0|0:0|0:0|0:0,0:0:0:0:
135,301,51359,6,0,P|99:286|71:198,1,120,4|0,0:0|1:0,0:0:0:0:
77,116,52040,1,0,3:0:0:0:
77,116,52154,1,0,3:0:0:0:
77,116,52268,2,0,L|30:98,2,30,0|0|0,3:0|3:0|3:0,0:0:0:0:
170,145,52722,1,0,1:0:0:0:
234,75,52950,1,2,0:0:0:0:
234,75,53177,6,0,L|299:67,1,60,0|2,0:0|0:0,0:0:0:0:
359,129,53631,1,0,1:0:0:0:
456,129,53859,1,0,3:0:0:0:
456,129,53973,1,0,0:0:0:0:
456,129,54087,2,0,L|438:176,2,30,0|0|0,3:0|3:0|3:0,0:0:0:0:
485,36,54541,1,0,1:0:0:0:
391,7,54769,1,0,0:0:0:0:
362,100,54995,6,0,P|347:136|259:164,1,120,0|0,0:0|1:0,0:0:0:0:
177,158,55676,1,0,3:0:0:0:
177,158,55790,1,0,0:0:0:0:
177,158,55904,2,0,L|159:205,2,30,0|0|0,3:0|3:0|3:0,0:0:0:0:
206,65,56358,1,0,1:0:0:0:
136,1,56586,1,2,0:0:0:0:
81,85,56813,6,0,L|73:150,1,60,0|2,0:0|0:0,0:0:0:0:
135,210,57267,1,0,1:0:0:0:
135,307,57495,1,0,3:0:0:0:
135,307,57609,1,0,0:0:0:0:
135,307,57723,2,0,L|182:289,2,30,0|0|0,3:0|3:0|3:0,0:0:0:0:
243,263,58177,1,0,1:0:0:0:
273,357,58405,1,0,1:0:0:0:
273,357,58518,1,0,3:0:0:0:
273,357,58632,6,0,B|331:366|328:335|390:347,1,120,4|0,0:1|1:0,0:0:0:0:
456,203,59313,1,0,0:0:0:0:
480,287,59540,1,0,3:0:0:0:
476,301,59654,1,0,3:0:0:0:
467,313,59768,1,0,0:0:0:0:
367,230,59995,1,0,1:0:0:0:
292,279,60222,1,2,0:0:0:0:
292,279,60336,1,0,0:0:0:0:
292,279,60450,6,0,P|235:262|206:211,1,120,0|0,0:0|1:0,0:0:0:0:
137,135,61131,1,0,0:0:0:0:
137,135,61245,1,0,0:0:0:0:
137,135,61359,2,0,L|119:182,2,30,2|0|0,0:0|0:0|0:0,0:0:0:0:
111,44,61813,2,0,L|46:24,1,60,0|0,1:0|3:0,0:0:0:0:
219,95,62268,6,0,L|276:77,1,60,0|0,0:0|0:0,0:0:0:0:
400,175,62722,2,0,P|375:158|357:134,1,60,0|0,1:0|0:0,0:0:0:0:
364,44,63177,2,0,L|382:-3,2,30,0|0|0,3:0|3:0|0:0,0:0:0:0:
304,206,63631,1,0,1:0:0:0:
389,274,63859,1,0,0:0:0:0:
389,274,63972,1,0,0:0:0:0:
389,274,64086,6,0,L|446:256,1,60,4|0,0:1|0:0,0:0:0:0:
298,299,64540,2,0,L|284:357,1,60,0|0,1:0|0:0,0:0:0:0:
203,292,64995,1,4,0:1:0:0:
191,271,65108,1,0,3:0:0:0:
172,254,65222,1,0,3:0:0:0:
149,245,65336,1,0,0:0:0:0:
124,245,65449,1,0,1:0:0:0:
47,354,65677,6,0,B|31:327|31:327|136:351,2,120,0|0|4,1:0|1:0|1:0,0:0:0:0:
58,365,67040,5,0,0:0:0:0:
58,365,67154,1,0,0:0:0:0:
58,365,67268,2,0,L|58:272,1,60,4|0,0:2|0:0,0:0:0:0:
43,176,67722,6,0,P|84:193|114:195,1,60,4|0,1:1|0:0,0:0:0:0:
254,166,68177,1,0,1:0:0:0:
142,125,68404,1,0,0:0:0:0:
178,202,68631,1,0,3:0:0:0:
218,90,68859,1,0,0:0:0:0:
274,200,69086,1,0,1:0:0:0:
274,200,69313,6,0,B|332:209|329:178|391:190,1,120,2|2,0:0|0:0,0:0:0:0:
469,226,69995,1,0,1:0:0:0:
479,83,70222,1,0,0:0:0:0:
479,83,70336,1,0,0:0:0:0:
479,83,70450,2,0,P|473:112|459:139,1,60,0|0,3:0|3:0,0:0:0:0:
379,72,70904,2,0,P|384:42|398:15,1,60,0|0,1:0|0:0,0:0:0:0:
294,123,71359,6,0,L|209:108,1,60,4|0,0:0|0:0,0:0:0:0:
78,86,71813,1,0,1:0:0:0:
190,45,72040,1,0,0:0:0:0:
154,122,72267,1,0,3:0:0:0:
114,10,72495,1,0,0:0:0:0:
59,117,72722,1,0,1:0:0:0:
59,117,72950,6,0,P|76:179|119:211,1,120,2|2,0:0|0:0,0:0:0:0:
208,189,73631,1,0,1:0:0:0:
140,295,73859,1,0,0:0:0:0:
238,284,74086,1,0,1:2:0:0:
238,284,74200,1,0,3:0:0:0:
238,284,74313,1,0,3:2:0:0:
254,365,74540,1,0,1:0:0:0:
321,240,74768,1,0,1:0:0:0:
321,240,74881,1,0,1:0:0:0:
321,240,74995,6,0,P|372:224|391:224,1,60,4|0,0:2|0:0,0:0:0:0:
496,303,75450,2,0,P|443:291|427:281,1,60,0|0,1:0|0:0,0:0:0:0:
445,163,75904,1,2,3:2:0:0:
445,163,76018,1,0,3:0:0:0:
445,163,76131,1,0,3:0:0:0:
373,83,76359,2,0,P|345:72|315:68,1,60,0|0,1:0|0:0,0:0:0:0:
250,141,76813,5,0,3:0:0:0:
226,54,77040,1,0,0:0:0:0:
139,77,77268,1,0,1:0:0:0:
163,164,77495,1,4,0:1:0:0:
107,234,77722,1,0,0:0:0:0:
107,234,77836,1,0,3:0:0:0:
107,234,77950,1,0,3:0:0:0:
46,292,78177,2,0,P|73:311|122:317,1,60,0|0,1:0|3:0,0:0:0:0:
113,319,78518,1,0,3:0:0:0:
127,318,78631,6,0,P|155:326|179:343,1,60,4|0,0:0|0:0,0:0:0:0:
243,290,79086,2,0,P|257:316|262:345,1,60,0|0,1:0|0:0,0:0:0:0:
331,241,79540,1,0,3:0:0:0:
331,256,79654,1,0,3:0:0:0:
326,270,79768,1,0,3:0:0:0:
386,336,79995,1,0,1:0:0:0:
473,355,80222,1,0,3:0:0:0:
487,352,80336,1,0,3:0:0:0:
500,344,80450,6,0,L|508:301,3,30,4|0|0|0,1:0|1:0|0:0|3:0,0:0:0:0:
487,278,80904,2,0,L|495:235,3,30,0|0|0|0,1:0|3:0|3:0|3:0,0:0:0:0:
474,212,81359,5,4,1:2:0:0:
466,186,81472,1,0,3:0:0:0:
489,170,81586,1,0,3:0:0:0:
509,186,81699,1,0,3:0:0:0:
503,213,81813,1,0,1:0:0:0:
409,265,82040,1,0,1:0:0:0:
358,183,82268,6,0,P|317:166|287:164,1,60,4|0,1:0|0:0,0:0:0:0:
147,193,82723,1,0,1:0:0:0:
259,234,82950,1,0,0:0:0:0:
223,157,83177,1,0,3:0:0:0:
183,269,83404,1,0,3:0:0:0:
132,167,83632,1,0,1:0:0:0:
132,167,83859,6,0,B|74:158|77:189|15:177,1,120,2|2,0:0|0:0,0:0:0:0:
42,98,84541,1,0,1:0:0:0:
118,256,84768,1,0,0:0:0:0:
118,256,84882,1,0,0:0:0:0:
118,256,84996,2,0,P|112:285|98:312,1,60,0|0,3:0|3:0,0:0:0:0:
150,384,85450,2,0,P|178:374|208:373,1,60,0|0,1:0|0:0,0:0:0:0:
293,376,85905,6,0,L|308:291,1,60,4|0,0:0|0:0,0:0:0:0:
330,160,86359,1,0,1:0:0:0:
371,272,86586,1,0,0:0:0:0:
294,236,86813,1,0,3:0:0:0:
406,196,87041,1,0,3:0:0:0:
299,141,87268,1,0,1:0:0:0:
299,141,87496,6,0,P|237:158|205:201,1,120,2|2,0:0|0:0,0:0:0:0:
227,290,88177,1,0,1:0:0:0:
121,222,88405,1,0,0:0:0:0:
120,354,88632,1,0,1:0:0:0:
120,354,88746,1,0,3:0:0:0:
120,354,88859,1,0,3:0:0:0:
128,253,89086,1,0,1:0:0:0:
231,320,89314,1,0,1:0:0:0:
231,320,89427,1,0,1:0:0:0:
231,320,89541,6,0,P|282:336|301:336,1,60,4|0,0:2|0:0,0:0:0:0:
406,257,89996,2,0,P|353:268|337:278,1,60,0|0,1:0|0:0,0:0:0:0:
406,357,90450,1,0,3:0:0:0:
406,357,90564,1,0,3:0:0:0:
406,357,90677,1,0,3:0:0:0:
481,307,90905,2,0,P|491:279|495:249,1,60,0|0,1:0|0:0,0:0:0:0:
430,170,91359,5,4,1:0:0:0:
406,257,91586,1,0,3:0:0:0:
319,234,91814,1,0,3:0:0:0:
343,147,92041,1,4,0:0:0:0:
287,77,92268,1,0,0:0:0:0:
287,77,92382,1,0,3:0:0:0:
287,77,92496,1,0,3:0:0:0:
240,152,92723,2,0,P|212:171|163:177,1,60,0|0,1:0|3:0,0:0:0:0:
173,179,93064,1,0,3:0:0:0:
159,178,93177,6,0,P|130:186|106:203,1,60,4|0,0:0|0:0,0:0:0:0:
152,319,93632,2,0,P|166:292|171:263,1,60,0|0,1:0|0:0,0:0:0:0:
240,368,94086,1,0,0:0:0:0:
240,353,94200,1,0,0:0:0:0:
235,339,94314,1,0,3:0:0:0:
88,367,94541,1,0,1:0:0:0:
43,279,94768,1,0,0:3:0:0:
29,282,94882,1,0,0:3:0:0:
16,290,94996,6,0,L|8:333,3,30,4|0|0|0,1:2|3:0|3:0|3:0,0:0:0:0:
33,259,95450,2,0,L|-10:250,3,30,0|0|0|0,1:0|3:0|3:0|3:0,0:0:0:0:
48,292,95904,1,4,1:0:0:0:
69,296,96017,1,0,3:0:0:0:
92,294,96131,1,0,3:0:0:0:
112,285,96244,1,0,3:0:0:0:
129,269,96358,1,0,1:0:0:0:
152,177,96586,1,0,1:0:0:0:
267,224,96813,5,4,1:2:0:0:
256,192,97040,12,0,99995,1:0:0:0:
208,74,100450,6,0,L|140:54,2,60,4|0|0,1:2|0:0|0:0,0:0:0:0:
305,105,101131,2,0,L|373:85,2,60,0|0|0,1:0|0:0|0:0,0:0:0:0:
185,159,101814,6,0,L|104:182,2,60,4|0|0,0:0|0:0|0:0,0:0:0:0:
321,195,102495,2,0,L|401:218,2,60,0|0|0,1:0|0:0|0:0,0:0:0:0:
256,264,103177,6,0,L|256:328,1,60,4|0,1:0|0:0,0:0:0:0:
256,124,103631,2,0,L|256:64,1,60,4|0,1:0|0:0,0:0:0:0:
106,41,104086,2,0,B|64:80|64:80|110:133|77:193,1,180,4|0,0:2|0:0,0:0:0:0:
8,144,104995,1,0,0:0:0:0:
171,98,105222,5,0,1:0:0:0:
67,206,105450,1,0,1:0:0:0:
25,61,105677,1,4,1:2:0:0:
