osu file format v14

[General]
AudioFilename: audio.mp3
AudioLeadIn: 0
PreviewTime: 121738
Countdown: 1
SampleSet: Soft
StackLeniency: 0.7
Mode: 0
LetterboxInBreaks: 0
WidescreenStoryboard: 0

[Editor]
Bookmarks: 9546
DistanceSpacing: 1.5
BeatDivisor: 4
GridSize: 16
TimelineZoom: 3.299999

[Metadata]
Title:Apatite Sunlight
TitleUnicode:Apatite Sunlight
Artist:Sanaas&Asterisk
ArtistUnicode:Sanaas&Asterisk
Creator:-CoFFee_mame-
Version:EXTRA
Source:
Tags:
BeatmapID:1939748
BeatmapSetID:928701

[Difficulty]
HPDrainRate:7
CircleSize:4.1
OverallDifficulty:8.8
ApproachRate:9.4
SliderMultiplier:1.4
SliderTickRate:2

[Events]
//Background and Video events
0,0,"1Ll78k.jpg",0,0
//Break Periods
//Storyboard Layer 0 (Background)
//Storyboard Layer 1 (Fail)
//Storyboard Layer 2 (Pass)
//Storyboard Layer 3 (Foreground)
//Storyboard Layer 4 (Overlay)
//Storyboard Sound Samples

[TimingPoints]
40,342.857142857143,4,2,1,50,1,0
1052,-200,4,2,1,50,0,0
6547,-133.333333333333,4,2,1,60,0,0
12024,-100,4,2,1,60,0,0
22652,-40,4,2,1,90,0,0
22995,-83.3333333333333,4,2,1,70,0,0
45109,-181.818181818181,4,2,1,30,0,0
55909,-285.714285714284,4,2,1,35,0,0
66881,-222.222222222221,4,2,1,50,0,0
78024,-100,4,2,1,50,0,0
78881,-200,4,2,1,80,0,0
79224,-100,4,2,1,80,0,0
80252,-200,4,2,1,80,0,0
80595,-100,4,2,1,80,0,0
81624,-200,4,2,1,80,0,0
81966,-100,4,2,1,80,0,0
82995,-200,4,2,1,80,0,0
83252,-100,4,2,1,80,0,0
88824,-83.3333333333333,4,2,1,80,0,0
91395,-40,4,2,1,80,0,0
91566,-83.3333333333333,4,2,1,80,0,0
94138,-40,4,2,1,80,0,0
94309,-83.3333333333333,4,2,1,80,0,0
95509,-40,4,2,1,80,0,0
95681,-83.3333333333333,4,2,1,85,0,0
96881,-40,4,2,1,85,0,0
97052,-83.3333333333333,4,2,1,85,0,0
97566,-40,4,2,1,85,0,0
97824,-83.3333333333333,4,2,1,85,0,0
98252,-40,4,2,1,85,0,0
98424,-83.3333333333333,4,2,1,92,0,0
99632,-66.6666666666667,4,2,1,92,0,1
102195,-200,4,2,1,92,0,1
102538,-66.6666666666667,4,2,1,92,0,1
104938,-200,4,2,1,92,0,1
105452,-66.6666666666667,4,2,1,92,0,1
110424,-200,4,2,1,92,0,1
110766,-66.6666666666667,4,2,1,92,0,1
113166,-200,4,2,1,92,0,1
113509,-66.6666666666667,4,2,1,92,0,1
115909,-200,4,2,1,92,0,1
116252,-66.6666666666667,4,2,1,92,0,1
142481,-55.5555555555556,4,2,1,100,0,1
143252,-133.333333333333,4,2,1,100,0,1
143689,-100,4,2,1,100,0,0
164424,-200,4,2,1,100,0,0
165624,-333.333333333333,4,2,1,50,0,0
168366,-250,4,2,1,50,0,0
176595,-200,4,2,1,55,0,0
187566,-133.333333333333,4,2,1,40,0,0
198538,-40,4,2,1,100,0,0
198881,-76.9230769230769,4,2,1,100,0,0
201281,-40,4,2,1,100,0,0
201452,-76.9230769230769,4,2,1,100,0,0
209517,-66.6666666666667,4,2,1,100,0,1
211909,-200,4,2,1,100,0,1
212252,-66.6666666666667,4,2,1,100,0,1
214649,-200,4,2,1,100,0,1
214995,-66.6666666666667,4,2,1,100,0,1
220138,-200,4,2,1,100,0,1
220481,-66.6666666666667,4,2,1,100,0,1
222881,-200,4,2,1,100,0,1
223224,-66.6666666666667,4,2,1,100,0,1
225624,-200,4,2,1,100,0,1
225966,-66.6666666666667,4,2,1,100,0,1
231624,-58.8235294117647,4,2,1,100,0,1
252795,-133.333333333333,4,2,1,100,0,1
253403,-83.3333333333333,4,2,1,100,0,0
264024,-111.111111111111,4,2,1,100,0,0
264366,-83.3333333333333,4,2,1,100,0,0
275174,-133.333333333333,4,2,1,50,0,0

[HitObjects]
139,175,1068,5,0,0:0:0:0:
212,250,1240,1,0,0:0:0:0:
306,204,1411,2,0,L|328:169,1,35
306,204,1754,2,0,L|328:169,1,35
236,63,2097,5,0,0:0:0:0:
149,121,2268,2,0,L|122:158,1,35
149,121,2611,2,0,L|122:158,1,35
190,246,2954,1,0,0:0:0:0:
363,271,3125,6,0,L|362:223,1,35
363,271,3468,2,0,L|362:223,1,35
356,133,3811,1,0,0:0:0:0:
281,58,3982,1,0,0:0:0:0:
206,132,4154,1,0,0:0:0:0:
172,311,4325,6,0,L|202:284,1,35
172,311,4668,2,0,L|202:284,1,35
301,256,5011,1,0,0:0:0:0:
355,166,5182,1,0,0:0:0:0:
316,67,5354,1,0,0:0:0:0:
90,140,5525,6,0,L|66:167,1,35
90,140,5868,2,0,L|66:167,1,35
166,234,6211,2,0,L|194:261,1,35,0|0,0:0|0:0,0:0:0:0:
346,275,6554,5,2,0:0:0:0:
445,121,6725,1,2,0:0:0:0:
460,304,6897,1,2,0:0:0:0:
318,187,7068,1,2,0:0:0:0:
133,198,7240,6,0,L|100:149,1,52.5000020027161,0|0,0:0|0:0,0:0:0:0:
253,49,7582,1,2,0:0:0:0:
236,232,7754,1,2,0:0:0:0:
414,188,7925,1,2,0:0:0:0:
279,314,8097,1,2,0:0:0:0:
97,290,8268,6,0,L|52:236,1,52.5000020027161,0|0,0:0|0:0,0:0:0:0:
97,290,8611,2,0,L|93:286|56:240,1,52.5000020027161,0|0,0:0|0:0,0:0:0:0:
165,95,8954,1,0,0:0:0:0:
255,254,9125,1,0,0:0:0:0:
347,75,9297,5,2,0:0:0:0:
436,235,9468,1,2,0:0:0:0:
496,60,9640,1,2,0:0:0:0:
352,173,9811,2,2,P|314:177|348:185,1,105.000004005432,2|2,0:0|0:0,0:0:0:0:
259,268,10325,2,2,P|250:308|243:273,1,105.000004005432,2|2,0:0|0:0,0:0:0:0:
256,192,10840,12,0,11868,0:0:0:0:
331,62,12040,5,8,0:0:0:0:
430,205,12211,1,0,0:0:0:0:
258,236,12382,2,8,B|218:201|218:201|253:188,1,70
258,236,12725,2,8,B|218:201|218:201|253:188,1,70
107,286,13068,5,8,0:0:0:0:
66,115,13240,2,0,B|76:68|76:68|112:81,1,70
66,115,13582,2,0,B|76:68|76:68|112:81,1,70
233,219,13925,1,0,0:0:0:0:
401,170,14097,1,8,0:0:0:0:
267,57,14268,1,0,0:0:0:0:
80,224,14440,6,8,P|53:178|63:146,1,70
80,224,14782,2,8,P|53:178|63:146,1,70
203,41,15125,1,8,0:0:0:0:
223,215,15297,1,0,0:0:0:0:
356,327,15468,1,8,0:0:0:0:
427,161,15640,6,8,B|403:150|411:124|434:122|447:146|426:159,1,70
427,161,15982,6,8,B|403:150|411:124|434:122|447:146|426:159,1,70
269,88,16325,6,8,B|245:77|253:51|276:49|289:73|268:86,1,70
269,88,16668,6,8,B|245:77|253:51|276:49|289:73|268:86,1,70
122,161,17011,6,8,B|98:151|106:125|129:123|142:147|121:160,1,70,8|8,0:0|0:0,0:0:0:0:
7,288,17354,1,0,0:0:0:0:
264,294,17525,6,2,B|329:318|355:291|355:291|326:234|326:234|336:206|374:187,1,210,2|2,0:0|0:0,0:0:0:0:
248,77,18554,2,2,B|160:86|233:186|84:135|84:135|12:286|80:348|234:329|198:211,1,560,2|2,0:0|0:0,0:0:0:0:
251,161,20268,2,2,B|283:209|283:285|257:327|214:354|214:354|357:257|466:351|474:179,1,560,2|2,0:0|0:0,0:0:0:0:
392,55,21982,5,0,0:0:0:0:
341,68,22068,1,0,0:0:0:0:
303,104,22154,1,0,0:0:0:0:
293,155,22240,1,0,0:0:0:0:
260,195,22325,1,0,0:0:0:0:
209,209,22411,1,0,0:0:0:0:
165,179,22497,1,0,0:0:0:0:
138,133,22582,1,0,0:0:0:0:
126,81,22668,2,8,B|123:55|111:24|111:24|36:106|39:218|39:218|72:201|98:162,1,350,8|8,0:0|0:0,0:0:0:0:
182,314,23182,5,0,0:0:0:0:
386,263,23354,1,0,0:0:0:0:
292,75,23525,2,0,B|234:65|234:65|249:102,1,83.9999974365235
292,75,23868,2,0,B|234:65|234:65|249:102,1,83.9999974365235
40,215,24211,5,0,0:0:0:0:
235,288,24382,1,0,0:0:0:0:
164,89,24554,2,0,P|111:59|107:92,1,83.9999974365235
164,89,24897,2,0,P|111:59|107:92,1,83.9999974365235
275,234,25240,1,0,0:0:0:0:
481,201,25411,6,8,B|462:135|486:96|486:96|425:57,1,167.999994873047,8|8,0:0|0:0,0:0:0:0:
399,126,25925,2,8,B|386:194|411:255|443:269|443:269|468:280|498:275|498:275|437:368|371:335,1,335.999989746094,8|8,0:0|0:0,0:0:0:0:
360,59,26782,2,8,B|311:106|312:195|333:248|358:289|358:289|274:130|214:218|207:224,1,419.999987182618,8|8,0:0|0:0,0:0:0:0:
270,280,27811,2,4,B|301:336|336:365|234:327|234:327|236:247|194:278|173:264|128:230|157:166|197:140,1,335.999989746094,4|4,0:0|0:0,0:0:0:0:
133,339,28668,1,2,0:0:0:0:
253,126,28840,1,2,0:0:0:0:
133,339,29011,1,2,0:0:0:0:
38,220,29182,6,0,B|25:170|25:170|48:138,1,83.9999974365235,0|0,0:0|0:0,0:0:0:0:
233,51,29525,1,2,0:0:0:0:
415,156,29697,1,2,0:0:0:0:
205,166,29868,1,2,0:0:0:0:
387,60,30040,1,2,0:0:0:0:
324,259,30211,6,0,B|282:279|282:279|241:296,1,83.9999974365235
324,259,30554,2,0,B|282:279|282:279|241:296,1,83.9999974365235
52,255,30897,1,0,0:0:0:0:
252,193,31068,1,0,0:0:0:0:
409,226,31240,5,2,0:0:0:0:
288,54,31411,1,2,0:0:0:0:
478,140,31582,1,2,0:0:0:0:
332,292,31754,2,2,P|328:346|328:291,1,167.999994873047,2|2,0:0|0:0,0:0:0:0:
129,213,32268,2,2,P|112:177|126:219,1,167.999994873047,2|2,0:0|0:0,0:0:0:0:
256,192,32782,12,0,33811,0:0:0:0:
215,171,33982,5,0,0:0:0:0:
386,49,34154,1,0,0:0:0:0:
475,238,34325,1,0,0:0:0:0:
310,106,34497,2,0,B|268:78|268:78|312:60,1,83.9999974365235
310,106,34840,2,0,B|268:78|268:78|312:60,1,83.9999974365235
128,150,35182,5,0,0:0:0:0:
15,327,35354,1,0,0:0:0:0:
223,310,35525,2,0,B|244:291|244:291|273:300|273:300|297:291,1,83.9999974365235
223,310,35868,2,0,B|244:291|244:291|273:300|273:300|297:291,1,83.9999974365235
499,225,36211,1,0,0:0:0:0:
324,108,36382,1,0,0:0:0:0:
187,86,36725,6,8,B|167:133|167:133|130:134|130:134|159:162|159:162|146:203|146:203|184:180|184:180|223:214|223:214|214:171|214:171|254:143|254:143|215:135|215:135|210:107,1,419.999987182618,8|8,0:0|0:0,0:0:0:0:
464,272,37754,2,8,B|432:304|432:304|400:272|400:272|368:304|368:304|336:272|336:272|304:304|304:304|272:272|272:272|240:304|240:304|208:304,1,335.999989746094,8|8,0:0|0:0,0:0:0:0:
160,346,38611,2,8,B|141:309|146:278|157:256|181:241|185:238|185:238,1,83.9999974365235,8|8,0:0|0:0,0:0:0:0:
194,209,38954,2,4,B|186:170|186:170|91:206|87:243|67:297|91:352|91:352|89:359,1,251.999992309571,4|4,0:0|0:0,0:0:0:0:
173,169,39640,1,2,0:0:0:0:
9,133,39812,1,2,0:0:0:0:
171,169,39983,1,2,0:0:0:0:
362,84,40154,6,0,B|329:131|329:131|330:187,1,83.9999974365235
362,84,40497,2,0,B|329:131|329:131|330:187,1,83.9999974365235
427,256,40840,1,0,0:0:0:0:
230,329,41011,1,0,0:0:0:0:
72,190,41182,1,0,0:0:0:0:
275,245,41354,5,0,0:0:0:0:
413,87,41525,2,0,P|472:56|508:70,1,83.9999974365235
413,87,41868,2,0,P|472:56|508:70,1,83.9999974365235
385,248,42211,6,2,B|319:296|319:296|254:311|314:238|262:221,1,167.999994873047,2|2,0:0|0:0,0:0:0:0:
72,216,42725,2,2,B|106:147|106:147|86:122|115:56|177:109,1,167.999994873047,2|2,0:0|0:0,0:0:0:0:
233,284,43240,2,2,B|283:300|316:241|316:241|323:204|397:238|366:140|366:140|318:150|317:108|317:108|248:120|230:143|244:164|276:180|276:180,1,419.999987182618,2|2,0:0|0:0,0:0:0:0:
464,232,44268,2,2,B|457:171|435:102|435:102|408:65|408:65|374:73|374:73|368:34|368:34|354:30|315:33|279:44,1,335.999989746094,2|2,0:0|0:0,0:0:0:0:
141,147,45125,5,0,0:0:0:0:
198,224,45297,1,0,0:0:0:0:
294,223,45468,1,0,0:0:0:0:
370,281,45640,2,0,L|398:301,1,38.5000011749268,0|0,0:0|0:0,0:0:0:0:
370,281,45982,2,0,L|406:309,1,38.5000011749268,0|0,0:0|0:0,0:0:0:0:
395,159,46325,5,0,0:0:0:0:
320,97,46497,2,0,L|277:56,1,38.5000011749268,0|0,0:0|0:0,0:0:0:0:
320,97,46840,2,0,L|285:64,1,38.5000011749268,0|0,0:0|0:0,0:0:0:0:
209,118,47182,1,0,0:0:0:0:
193,213,47354,1,0,0:0:0:0:
132,138,47525,2,0,L|87:93,1,38.5000011749268,0|0,0:0|0:0,0:0:0:0:
132,138,47868,2,0,L|95:101,1,38.5000011749268,0|0,0:0|0:0,0:0:0:0:
239,322,48211,5,0,0:0:0:0:
330,293,48382,1,0,0:0:0:0:
399,225,48554,2,0,L|416:171,1,38.5000011749268
399,225,48897,2,0,L|416:171,1,38.5000011749268
360,91,49240,1,0,0:0:0:0:
266,69,49411,1,0,0:0:0:0:
173,93,49582,1,0,0:0:0:0:
90,142,49754,1,0,0:0:0:0:
38,223,49925,2,0,L|12:256,1,38.5000011749268
38,223,50268,2,0,L|12:256,1,38.5000011749268
254,290,50611,5,0,0:0:0:0:
317,217,50782,1,0,0:0:0:0:
221,200,50954,1,0,0:0:0:0:
254,290,51125,1,0,0:0:0:0:
317,217,51297,1,0,0:0:0:0:
221,200,51468,1,0,0:0:0:0:
149,135,51640,2,0,L|114:96,1,38.5000011749268,0|0,0:0|0:0,0:0:0:0:
149,135,51982,2,0,L|122:104,1,38.5000011749268,0|0,0:0|0:0,0:0:0:0:
274,42,52325,5,0,0:0:0:0:
350,101,52497,1,0,0:0:0:0:
403,180,52668,1,0,0:0:0:0:
409,276,52840,1,0,0:0:0:0:
336,338,53011,2,0,L|274:337,1,38.5000011749268
336,338,53354,2,0,L|274:337,1,38.5000011749268
224,280,53697,6,0,L|220:233,1,38.5000011749268,0|0,0:0|0:0,0:0:0:0:
125,223,54040,2,0,L|97:184,1,38.5000011749268,0|0,0:0|0:0,0:0:0:0:
103,95,54382,1,0,0:0:0:0:
103,95,54554,1,0,0:0:0:0:
291,57,54725,5,8,0:0:0:0:
291,57,54897,1,8,0:0:0:0:
291,57,55068,1,8,0:0:0:0:
370,227,55240,1,8,0:0:0:0:
370,227,55411,1,8,0:0:0:0:
370,227,55582,1,8,0:0:0:0:
134,315,55925,6,2,P|163:282|167:271,1,48.9999985046387
113,138,56440,2,8,L|161:115,1,48.9999985046387
298,159,56954,2,10,B|335:166|346:122|346:122|375:69|423:62|466:128,1,220.499993270874
246,320,58668,6,2,P|264:308|243:297,1,48.9999985046387
127,209,59182,2,8,L|90:177,1,48.9999985046387
245,39,59697,2,10,B|255:60|255:60|287:73|287:73|292:112|292:112|278:122|265:134,1,122.499996261597
359,245,60725,2,2,P|390:251|365:259,1,73.4999977569581
154,292,61411,6,2,B|142:276|142:276|155:248,1,48.9999985046387
224,120,61925,2,8,B|249:102|249:102,1,24.4999992523194
388,137,62268,1,8,0:0:0:0:
383,284,62440,2,6,P|346:304|377:273,1,122.499996261597
274,222,63468,6,2,L|201:255,1,73.4999977569581
110,102,64154,2,2,B|83:80|83:80|114:42,1,73.4999977569581,2|2,0:0|0:0,0:0:0:0:
281,86,64840,1,2,0:0:0:0:
436,183,65011,1,2,0:0:0:0:
337,302,65182,2,2,P|305:317|268:297,1,73.4999977569581,2|2,0:0|0:0,0:0:0:0:
135,263,65868,2,2,L|112:249,1,24.4999992523194,2|2,0:0|0:0,0:0:0:0:
160,81,66211,2,2,L|171:57,1,24.4999992523194,2|2,0:0|0:0,0:0:0:0:
339,151,66554,2,2,L|365:170,1,24.4999992523194,2|2,0:0|0:0,0:0:0:0:
168,286,66897,6,2,L|129:286,1,31.4999990386963
53,186,67240,1,8,0:0:0:0:
172,110,67411,2,10,B|186:97|186:97|190:70|190:70|210:57,1,62.9999980773926
345,53,67925,2,2,B|374:82|399:82|399:82|379:119|410:135|410:135|403:164|388:180|388:180|416:198|401:234|376:246,1,251.999992309571
96,243,69640,6,2,B|79:208|79:208|70:204|70:204|74:195|74:195|66:181,1,62.9999980773926
138,65,70154,1,8,0:0:0:0:
279,54,70325,2,2,L|313:48,1,31.4999990386963,8|8,0:0|0:0,0:0:0:0:
270,185,70668,2,8,L|262:222,1,31.4999990386963,10|10,0:0|0:0,0:0:0:0:
389,280,71011,2,8,B|414:247|451:255|451:255|473:230,1,94.499997116089
415,104,71697,2,2,B|390:86|390:86|375:100|375:100|377:123|361:148,1,94.499997116089
182,45,72382,6,2,B|176:79|175:78|175:78|150:100,1,62.9999980773926,2|2,0:0|0:0,0:0:0:0:
116,235,72897,2,2,B|128:266|128:266|159:262,1,62.9999980773926,2|2,0:0|0:0,0:0:0:0:
296,230,73411,1,2,0:0:0:0:
417,156,73582,2,8,L|429:127,2,31.4999990386963,8|8|8,0:0|0:0|0:0,0:0:0:0:
295,81,74097,2,8,L|270:62,2,31.4999990386963,8|8|8,0:0|0:0|0:0,0:0:0:0:
181,166,74611,2,8,L|146:180,2,31.4999990386963,8|8|8,0:0|0:0|0:0,0:0:0:0:
274,273,75125,6,2,P|313:276|291:249,1,94.499997116089,2|2,0:0|0:0,0:0:0:0:
380,138,75811,2,2,P|368:119|394:129,2,62.9999980773926,2|2|2,0:0|0:0|0:0,0:0:0:0:
256,192,76668,12,0,77868,0:0:0:0:
415,132,78040,5,8,0:0:0:0:
291,255,78211,1,8,0:0:0:0:
291,80,78382,1,8,0:0:0:0:
415,204,78554,1,8,0:0:0:0:
240,204,78725,1,8,0:0:0:0:
378,95,78897,2,2,L|411:73,1,35,2|2,0:0|0:0,0:0:0:0:
174,76,79240,5,8,0:0:0:0:
50,199,79411,1,8,0:0:0:0:
173,322,79582,1,8,0:0:0:0:
173,146,79754,1,8,0:0:0:0:
296,269,79925,1,8,0:0:0:0:
120,269,80097,1,8,0:0:0:0:
243,145,80268,2,2,L|279:130,1,35,2|2,0:0|0:0,0:0:0:0:
483,240,80611,5,8,0:0:0:0:
308,240,80782,1,8,0:0:0:0:
432,115,80954,1,8,0:0:0:0:
432,289,81125,1,8,0:0:0:0:
307,164,81297,1,8,0:0:0:0:
481,164,81468,1,8,0:0:0:0:
356,288,81640,2,2,L|321:303,1,35,2|2,0:0|0:0,0:0:0:0:
108,222,81982,5,8,0:0:0:0:
232,97,82154,1,8,0:0:0:0:
355,220,82325,1,8,0:0:0:0:
355,44,82497,1,8,0:0:0:0:
231,167,82668,1,8,0:0:0:0:
406,167,82840,1,8,0:0:0:0:
282,290,83011,2,2,L|313:323,1,35,2|2,0:0|0:0,0:0:0:0:
134,120,83354,6,0,L|217:87,1,70,0|0,0:0|0:0,0:0:0:0:
374,99,83697,1,2,0:0:0:0:
386,277,83868,1,2,0:0:0:0:
386,277,83954,1,2,0:0:0:0:
124,261,84125,1,2,0:0:0:0:
124,261,84211,1,2,0:0:0:0:
225,135,84382,2,2,B|232:102|232:102|213:60,1,70
391,45,84725,1,0,0:0:0:0:
398,220,84897,5,2,0:0:0:0:
398,220,84982,1,2,0:0:0:0:
261,330,85154,1,2,0:0:0:0:
261,330,85240,1,2,0:0:0:0:
137,207,85411,1,2,0:0:0:0:
193,41,85582,1,2,0:0:0:0:
308,173,85754,1,2,0:0:0:0:
141,121,85925,2,2,B|108:111|108:111|138:86,1,70
66,279,86268,5,2,0:0:0:0:
66,279,86353,1,2,0:0:0:0:
238,309,86525,1,2,0:0:0:0:
238,309,86611,1,2,0:0:0:0:
403,254,86782,2,2,B|443:251|443:251|463:227,1,70
349,65,87125,1,2,0:0:0:0:
174,139,87297,2,2,B|147:168|147:168|114:181,1,70
378,216,87639,1,2,0:0:0:0:
378,216,87725,1,2,0:0:0:0:
465,64,87896,1,2,0:0:0:0:
465,64,87982,1,2,0:0:0:0:
327,137,88154,5,0,0:0:0:0:
202,56,88325,6,2,L|139:93,1,70
115,265,88668,2,0,B|119:292|119:292|141:310,1,35,0|0,0:0|0:0,0:0:0:0:
213,300,88840,5,6,0:0:0:0:
394,195,89011,2,0,P|432:173|451:131,1,83.9999974365235,0|0,0:0|0:0,0:0:0:0:
264,37,89354,1,0,0:0:0:0:
81,139,89525,1,2,0:0:0:0:
291,133,89697,2,2,B|251:117|251:117|234:163,1,83.9999974365235
330,312,90040,1,2,0:0:0:0:
132,241,90211,1,0,0:0:0:0:
338,206,90382,1,2,0:0:0:0:
152,305,90554,2,2,B|95:324|57:280|48:223|88:166,1,167.999994873047
219,52,91068,1,2,0:0:0:0:
293,248,91240,1,2,0:0:0:0:
420,81,91411,2,6,P|448:132|412:84,1,175
224,193,91754,5,0,0:0:0:0:
88,32,91925,1,2,0:0:0:0:
279,119,92097,1,0,0:0:0:0:
120,255,92268,2,2,B|137:290|174:294|174:294|217:277,1,83.9999974365235
389,224,92611,5,2,0:0:0:0:
188,161,92782,1,2,0:0:0:0:
299,339,92954,1,2,0:0:0:0:
119,230,93125,2,2,B|93:197|93:197|115:127,1,83.9999974365235
269,37,93468,1,0,0:0:0:0:
340,235,93640,1,2,0:0:0:0:
173,107,93811,1,2,0:0:0:0:
379,74,93982,1,2,0:0:0:0:
216,207,94154,2,4,P|197:257|221:218,1,175,4|4,0:0|0:0,0:0:0:0:
413,191,94497,5,0,0:0:0:0:
220,107,94668,1,2,0:0:0:0:
413,22,94840,1,0,0:0:0:0:
279,183,95011,1,2,0:0:0:0:
476,113,95182,1,2,0:0:0:0:
276,46,95354,1,2,0:0:0:0:
111,175,95525,2,4,P|81:201|123:177,1,175,4|4,0:0|0:0,0:0:0:0:
287,294,95868,5,0,0:0:0:0:
472,194,96040,1,2,0:0:0:0:
263,173,96211,1,0,0:0:0:0:
446,274,96382,1,2,0:0:0:0:
237,243,96554,1,2,0:0:0:0:
402,114,96725,1,2,0:0:0:0:
194,148,96897,2,4,P|150:149|202:135,1,175,4|4,0:0|0:0,0:0:0:0:
103,310,97240,5,0,0:0:0:0:
300,241,97411,1,2,0:0:0:0:
402,114,97582,2,4,P|426:78|392:115,1,175,4|4,0:0|0:0,0:0:0:0:
168,65,97925,5,0,0:0:0:0:
21,216,98097,1,0,0:0:0:0:
230,229,98268,2,4,P|286:263|222:244,1,175,4|4,0:0|0:0,0:0:0:0:
383,155,98782,5,2,0:0:0:0:
335,137,98868,1,2,0:0:0:0:
307,94,98954,1,2,0:0:0:0:
297,44,99040,1,2,0:0:0:0:
259,77,99125,1,2,0:0:0:0:
234,121,99211,1,2,0:0:0:0:
241,171,99297,1,2,0:0:0:0:
261,216,99382,1,2,0:0:0:0:
236,260,99468,1,2,0:0:0:0:
444,174,99811,6,8,B|419:149|419:149|419:135|419:135|405:135|405:135|366:97,1,105.000004005432,10|8,0:0|0:0,0:0:0:0:
319,298,100154,1,10,0:0:0:0:
194,142,100325,1,0,0:0:0:0:
74,302,100497,2,8,P|56:251|32:200,1,105.000004005432
180,67,100840,2,8,B|230:31|230:31|286:24,1,105.000004005432
443,127,101182,1,10,0:0:0:0:
333,294,101354,1,0,0:0:0:0:
511,205,101525,1,10,0:0:0:0:
326,126,101697,1,0,0:0:0:0:
448,283,101868,1,10,0:0:0:0:
251,246,102040,1,2,0:0:0:0:
436,173,102211,2,12,B|460:150|460:150|455:112,1,70
256,89,102725,5,0,0:0:0:0:
125,240,102897,2,8,B|185:270|185:270|240:275,1,105.000004005432
417,226,103240,1,10,0:0:0:0:
256,343,103411,1,2,0:0:0:0:
308,151,103582,1,10,0:0:0:0:
110,184,103754,2,8,B|93:132|93:132|125:78,1,105.000004005432
229,255,104097,1,0,0:0:0:0:
417,191,104268,1,10,0:0:0:0:
283,340,104440,1,2,0:0:0:0:
327,145,104611,1,8,0:0:0:0:
476,276,104782,1,2,0:0:0:0:
466,76,104954,2,12,B|441:50|441:50|418:76,1,70
219,56,105468,5,2,0:0:0:0:
99,216,105640,1,8,0:0:0:0:
165,28,105811,1,2,0:0:0:0:
281,189,105982,1,8,0:0:0:0:
118,306,106154,2,8,B|165:332|165:332|215:306,1,105.000004005432
380,208,106497,2,10,B|441:229|441:229|476:307,1,105.000004005432
359,91,106840,1,0,0:0:0:0:
176,169,107011,1,8,0:0:0:0:
310,22,107182,1,0,0:0:0:0:
315,222,107354,1,10,0:0:0:0:
181,74,107525,1,2,0:0:0:0:
379,102,107697,1,10,0:0:0:0:
208,203,107868,6,10,B|164:235|164:235|72:238,1,105.000004005432
101,36,108211,1,0,0:0:0:0:
262,151,108382,1,10,0:0:0:0:
417,24,108554,2,8,P|446:102|439:144,1,105.000004005432
361,304,108897,2,8,B|303:295|303:295|244:241,1,105.000004005432
219,69,109240,5,0,0:0:0:0:
67,197,109411,1,10,0:0:0:0:
265,185,109582,1,0,0:0:0:0:
141,27,109754,1,8,0:0:0:0:
157,225,109925,1,2,0:0:0:0:
289,75,110097,1,10,0:0:0:0:
94,118,110268,1,2,0:0:0:0:
274,205,110440,2,12,P|297:200|270:198,1,70
79,245,110954,5,0,0:0:0:0:
166,66,111125,1,10,0:0:0:0:
202,262,111297,1,2,0:0:0:0:
30,161,111468,1,10,0:0:0:0:
224,115,111640,1,2,0:0:0:0:
110,278,111811,2,8,B|169:343|169:343|248:339|248:339|278:296,1,210.000008010865
463,243,112325,1,0,0:0:0:0:
331,91,112497,1,10,0:0:0:0:
359,287,112668,2,10,B|341:231|341:231|373:184,1,105.000004005432
468,20,113011,1,0,0:0:0:0:
284,44,113182,2,12,B|250:26|250:26|234:63,1,70
56,143,113697,5,0,0:0:0:0:
152,317,113868,1,10,0:0:0:0:
1,184,114040,1,0,0:0:0:0:
197,152,114211,1,10,0:0:0:0:
305,318,114382,2,8,B|349:285|349:285|357:287|357:287|358:278|358:278|398:248,1,105.000004005432
478,81,114725,2,10,P|399:63|368:92,1,105.000004005432
183,68,115068,2,10,P|252:120|263:154,1,105.000004005432
78,222,115411,1,0,0:0:0:0:
265,289,115582,1,10,0:0:0:0:
68,325,115754,1,0,0:0:0:0:
210,185,115925,2,12,P|228:171|206:181,1,70
374,292,116440,6,2,P|439:233|420:112,1,210.000008010865
240,45,116954,1,10,0:0:0:0:
70,149,117125,2,2,B|106:200|106:200|158:214,1,105.000004005432,2|2,0:0|0:0,0:0:0:0:
343,249,117468,1,2,0:0:0:0:
188,122,117640,1,10,0:0:0:0:
284,296,117811,2,10,B|205:246|205:246|306:235|237:159|237:159|335:145,1,315.000012016297,10|10,0:0|0:0,0:0:0:0:
493,249,118497,1,2,0:0:0:0:
409,68,118668,1,10,0:0:0:0:
313,244,118840,1,2,0:0:0:0:
115,218,119011,5,4,0:0:0:0:
69,191,119097,1,0,0:0:0:0:
48,143,119182,1,0,0:0:0:0:
58,91,119268,1,0,0:0:0:0:
99,57,119354,5,0,0:0:0:0:
151,57,119440,1,0,0:0:0:0:
192,88,119525,1,0,0:0:0:0:
199,140,119611,1,0,0:0:0:0:
196,192,119697,5,4,0:0:0:0:
209,242,119782,1,0,0:0:0:0:
234,288,119868,1,0,0:0:0:0:
277,318,119954,1,0,0:0:0:0:
329,324,120040,5,0,0:0:0:0:
379,309,120125,1,0,0:0:0:0:
415,270,120211,1,0,0:0:0:0:
449,230,120297,1,0,0:0:0:0:
496,208,120382,1,4,0:0:0:0:
467,84,120554,5,10,0:0:0:0:
349,38,120725,5,10,0:0:0:0:
222,42,120897,5,10,0:0:0:0:
112,103,121068,5,10,0:0:0:0:
60,218,121240,5,10,0:0:0:0:
35,341,121411,5,10,0:0:0:0:
160,332,121582,6,0,P|175:294|168:335,1,105.000004005432,0|0,0:0|0:0,0:0:0:0:
383,316,121925,1,2,0:0:0:0:
394,292,122011,1,2,0:0:0:0:
405,268,122097,2,2,B|429:210|429:210|427:155,1,105.000004005432,2|2,0:0|0:0,0:0:0:0:
272,41,122440,1,2,0:0:0:0:
272,41,122525,1,2,0:0:0:0:
272,41,122611,1,2,0:0:0:0:
96,134,122782,5,2,0:0:0:0:
78,153,122868,1,2,0:0:0:0:
64,175,122954,2,2,P|62:217|71:284,1,105.000004005432,2|2,0:0|0:0,0:0:0:0:
269,295,123297,1,2,0:0:0:0:
439,191,123468,2,2,B|417:133|417:133|345:102,1,105.000004005432,2|2,0:0|0:0,0:0:0:0:
178,95,123811,5,2,0:0:0:0:
150,119,123897,1,2,0:0:0:0:
117,135,123982,1,2,0:0:0:0:
81,143,124068,1,2,0:0:0:0:
44,136,124154,1,2,0:0:0:0:
35,171,124240,1,2,0:0:0:0:
39,207,124325,1,2,0:0:0:0:
54,240,124411,1,2,0:0:0:0:
75,270,124497,5,2,0:0:0:0:
267,318,124668,1,0,0:0:0:0:
448,233,124840,1,2,0:0:0:0:
455,206,124925,1,2,0:0:0:0:
434,190,125011,1,2,0:0:0:0:
253,190,125182,2,0,B|232:170|219:136|219:136|163:173|194:274,1,210.000008010865,0|0,0:0|0:0,0:0:0:0:
384,329,125697,5,2,0:0:0:0:
419,320,125782,1,2,0:0:0:0:
450,300,125868,1,2,0:0:0:0:
339,134,126039,1,2,0:0:0:0:
363,106,126125,1,2,0:0:0:0:
382,74,126211,2,2,P|369:20|310:2,1,105.000004005432,2|2,0:0|0:0,0:0:0:0:
160,110,126554,1,2,0:0:0:0:
89,295,126725,1,2,0:0:0:0:
281,238,126897,1,2,0:0:0:0:
88,187,127068,1,2,0:0:0:0:
88,187,127154,1,2,0:0:0:0:
88,187,127240,1,2,0:0:0:0:
232,323,127411,6,0,B|283:347|283:347|331:345,1,105.000004005432,0|0,0:0|0:0,0:0:0:0:
362,338,127668,1,2,0:0:0:0:
392,329,127754,1,0,0:0:0:0:
490,156,127925,1,0,0:0:0:0:
329,36,128097,1,0,0:0:0:0:
214,198,128268,2,0,B|170:246|170:246|116:250,1,105.000004005432,0|0,0:0|0:0,0:0:0:0:
23,79,128611,1,2,0:0:0:0:
23,79,128697,1,2,0:0:0:0:
23,79,128782,1,2,0:0:0:0:
221,54,128954,1,2,0:0:0:0:
221,54,129040,1,2,0:0:0:0:
221,54,129125,1,2,0:0:0:0:
208,253,129297,5,0,0:0:0:0:
396,190,129468,1,0,0:0:0:0:
361,338,129640,1,0,0:0:0:0:
233,185,129811,1,0,0:0:0:0:
410,94,129982,2,0,P|438:49|383:20,1,105.000004005432,0|0,0:0|0:0,0:0:0:0:
208,43,130325,1,2,0:0:0:0:
234,68,130411,1,2,0:0:0:0:
209,95,130497,1,2,0:0:0:0:
174,84,130582,1,2,0:0:0:0:
176,47,130668,1,2,0:0:0:0:
82,199,130840,6,0,B|140:215|140:215|200:179,1,105.000004005432,0|0,0:0|0:0,0:0:0:0:
335,70,131182,1,0,0:0:0:0:
460,226,131354,1,0,0:0:0:0:
263,191,131525,1,0,0:0:0:0:
458,147,131697,1,2,0:0:0:0:
458,147,131782,1,2,0:0:0:0:
458,147,131868,1,2,0:0:0:0:
260,115,132040,2,0,B|237:49|237:49|191:3,1,105.000004005432,0|0,0:0|0:0,0:0:0:0:
85,177,132382,5,2,0:0:0:0:
97,211,132468,1,2,0:0:0:0:
91,247,132554,1,2,0:0:0:0:
110,278,132640,1,2,0:0:0:0:
97,312,132725,1,2,0:0:0:0:
295,340,132897,6,0,P|350:342|406:304,1,105.000004005432,0|0,0:0|0:0,0:0:0:0:
482,139,133240,1,0,0:0:0:0:
300,57,133411,1,2,0:0:0:0:
264,47,133497,1,2,0:0:0:0:
227,47,133582,1,2,0:0:0:0:
54,149,133754,1,2,0:0:0:0:
73,180,133840,1,2,0:0:0:0:
99,204,133925,1,2,0:0:0:0:
132,219,134011,1,2,0:0:0:0:
167,227,134097,1,2,0:0:0:0:
357,283,134268,6,2,B|381:229|381:229|394:225|394:225|387:216|387:216|412:156,1,105.000004005432,2|2,0:0|0:0,0:0:0:0:
409,162,134525,1,2,0:0:0:0:
424,128,134611,1,2,0:0:0:0:
258,18,134782,1,2,0:0:0:0:
238,217,134954,1,2,0:0:0:0:
100,72,135125,1,2,0:0:0:0:
294,120,135297,1,2,0:0:0:0:
294,120,135382,1,2,0:0:0:0:
294,120,135468,1,2,0:0:0:0:
137,245,135640,6,0,B|99:198|99:198|21:170,1,105.000004005432,0|0,0:0|0:0,0:0:0:0:
241,257,135982,1,0,0:0:0:0:
223,57,136154,1,0,0:0:0:0:
27,93,136325,1,2,0:0:0:0:
27,93,136411,1,2,0:0:0:0:
27,93,136497,1,2,0:0:0:0:
218,148,136668,2,0,B|182:199|182:199|116:209,1,105.000004005432,0|0,0:0|0:0,0:0:0:0:
290,336,137011,2,0,B|248:287|248:287|239:196,1,105.000004005432,0|0,0:0|0:0,0:0:0:0:
59,325,137354,5,0,0:0:0:0:
143,144,137525,1,0,0:0:0:0:
11,295,137697,1,0,0:0:0:0:
205,255,137868,1,0,0:0:0:0:
38,143,138040,1,2,0:0:0:0:
38,143,138125,1,2,0:0:0:0:
38,143,138211,1,2,0:0:0:0:
222,67,138382,5,8,0:0:0:0:
377,193,138554,1,8,0:0:0:0:
178,192,138725,1,8,0:0:0:0:
347,86,138897,1,8,0:0:0:0:
289,330,139068,5,8,0:0:0:0:
268,77,139240,1,8,0:0:0:0:
477,216,139411,1,8,0:0:0:0:
232,275,139582,1,2,0:0:0:0:
232,275,139668,1,2,0:0:0:0:
232,275,139754,1,2,0:0:0:0:
414,72,139925,5,8,0:0:0:0:
436,344,140097,1,8,0:0:0:0:
219,179,140268,1,8,0:0:0:0:
488,130,140440,1,2,0:0:0:0:
488,130,140525,1,2,0:0:0:0:
488,130,140611,1,2,0:0:0:0:
323,347,140782,1,8,0:0:0:0:
103,183,140954,5,6,0:0:0:0:
67,144,141040,1,2,0:0:0:0:
64,92,141125,1,2,0:0:0:0:
93,48,141211,1,2,0:0:0:0:
144,36,141297,5,6,0:0:0:0:
183,69,141382,1,2,0:0:0:0:
202,117,141468,1,2,0:0:0:0:
200,169,141554,1,2,0:0:0:0:
228,213,141640,5,6,0:0:0:0:
275,233,141725,1,2,0:0:0:0:
325,216,141811,1,2,0:0:0:0:
362,178,141897,1,2,0:0:0:0:
375,127,141982,5,6,0:0:0:0:
414,162,142068,1,2,0:0:0:0:
436,209,142154,1,2,0:0:0:0:
431,261,142240,1,2,0:0:0:0:
416,310,142325,1,6,0:0:0:0:
176,304,142497,6,2,P|208:240|272:208,1,125.999996154785,2|2,0:0|0:0,0:0:0:0:
256,208,142754,2,2,P|192:176|160:112,1,125.999996154785,2|2,0:0|0:0,0:0:0:0:
160,128,143011,2,2,P|128:192|64:224,1,125.999996154785,2|2,0:0|0:0,0:0:0:0:
80,224,143268,2,2,P|144:256|176:320,1,131.25000500679,2|2,0:0|0:0,0:0:0:0:
278,305,143868,5,0,0:0:0:0:
352,230,144040,1,0,0:0:0:0:
349,125,144211,1,2,0:0:0:0:
274,199,144382,1,2,0:0:0:0:
379,199,144554,1,2,0:0:0:0:
451,122,144725,2,0,P|464:83|446:53,1,70,0|0,0:0|0:0,0:0:0:0:
347,54,145068,2,2,P|304:33|269:37,1,70
196,93,145411,5,0,0:0:0:0:
111,204,145582,1,0,0:0:0:0:
250,184,145754,1,2,0:0:0:0:
129,114,145925,1,2,0:0:0:0:
33,216,146097,2,0,B|49:255|49:255|97:276,1,70,0|0,0:0|0:0,0:0:0:0:
198,332,146440,2,0,B|237:316|237:316|260:264,1,70,0|0,0:0|0:0,0:0:0:0:
372,226,146782,5,0,0:0:0:0:
320,95,146954,1,0,0:0:0:0:
453,134,147125,2,2,B|494:111|494:111|505:68,1,70,2|2,0:0|0:0,0:0:0:0:
369,36,147468,1,2,0:0:0:0:
231,64,147640,2,2,L|167:95,1,70,2|2,0:0|0:0,0:0:0:0:
189,232,147982,2,2,L|245:280,1,70
362,204,148325,2,0,B|381:172|381:172|359:144,1,70,0|0,0:0|0:0,0:0:0:0:
220,137,148668,5,0,0:0:0:0:
88,187,148840,1,0,0:0:0:0:
202,266,149011,1,0,0:0:0:0:
157,133,149182,1,0,0:0:0:0:
288,82,149354,2,0,P|320:56|352:53,1,70
288,82,149697,2,2,P|320:56|352:53,1,70
444,161,150040,1,2,0:0:0:0:
364,276,150211,1,2,0:0:0:0:
259,183,150382,1,0,0:0:0:0:
125,226,150554,6,2,B|92:254|92:254|118:280,1,70,2|2,0:0|0:0,0:0:0:0:
163,142,150897,1,2,0:0:0:0:
283,71,151068,2,2,B|319:51|319:51|346:78,1,70
283,71,151411,2,0,B|319:51|319:51|346:78,1,70
378,209,151754,1,0,0:0:0:0:
304,327,151925,1,0,0:0:0:0:
287,187,152097,1,0,0:0:0:0:
386,285,152268,1,2,0:0:0:0:
449,156,152440,6,2,B|472:121|472:121|448:65,1,70,2|2,0:0|0:0,0:0:0:0:
327,54,152782,1,2,0:0:0:0:
193,97,152954,1,2,0:0:0:0:
104,204,153125,1,0,0:0:0:0:
212,295,153297,2,0,B|249:304|249:304|262:264,1,70
212,295,153640,2,0,B|249:304|249:304|262:264,1,70
302,149,153982,5,0,0:0:0:0:
396,45,154154,1,0,0:0:0:0:
361,180,154325,1,0,0:0:0:0:
254,88,154497,1,0,0:0:0:0:
157,189,154668,2,0,B|112:196|112:196|94:170,1,70,0|0,1:1|1:1,1:1:0:0:
17,290,155011,2,0,B|57:319|62:319|108:306,1,70,0|0,1:1|1:1,1:1:0:0:
217,284,155354,2,0,B|247:241|247:241|283:218,1,70,0|0,1:1|1:1,1:1:0:0:
386,166,155697,5,0,0:0:0:0:
248,141,155868,1,0,0:0:0:0:
143,47,156040,1,0,0:0:0:0:
115,184,156211,1,0,0:0:0:0:
35,299,156382,2,0,B|22:334|22:334|53:360,1,70,0|0,1:1|1:1,1:1:0:0:
171,290,156725,2,0,B|203:265|203:265|259:275,1,70,0|0,1:1|1:1,1:1:0:0:
346,188,157068,2,0,B|365:158|365:158|354:112,1,70,0|0,1:1|1:1,1:1:0:0:
224,77,157411,5,0,0:0:0:0:
106,152,157582,1,0,0:0:0:0:
246,150,157754,2,0,P|285:122|300:75,1,70,0|0,1:0|1:0,1:0:0:0:
415,176,158097,2,0,P|404:118|383:102,1,70,0|0,1:0|1:0,1:0:0:0:
316,226,158440,1,0,0:0:0:0:
192,291,158611,1,0,0:0:0:0:
270,175,158782,1,0,0:0:0:0:
289,314,158954,2,0,B|323:325|326:325|357:308,1,70,0|0,1:0|1:0,1:0:0:0:
437,194,159297,5,0,0:0:0:0:
370,71,159468,1,0,0:0:0:0:
233,39,159640,1,0,0:0:0:0:
136,139,159811,2,0,B|170:162|170:162|197:141,1,70,0|0,1:0|1:0,1:0:0:0:
317,313,160154,5,8,0:0:0:0:
449,150,160325,1,8,0:0:0:0:
254,69,160497,1,8,0:0:0:0:
402,217,160668,5,8,0:0:0:0:
197,267,160840,1,8,0:0:0:0:
321,98,161011,1,8,0:0:0:0:
121,161,161182,5,8,0:0:0:0:
324,214,161354,1,8,0:0:0:0:
248,18,161525,1,8,0:0:0:0:
170,288,161697,5,8,0:0:0:0:
414,153,161868,1,8,0:0:0:0:
141,85,162040,1,8,0:0:0:0:
337,283,162211,5,8,0:0:0:0:
232,24,162382,1,8,0:0:0:0:
35,224,162554,1,8,0:0:0:0:
314,226,162725,1,8,0:0:0:0:
455,121,162897,5,4,0:0:0:0:
463,76,162982,1,0,0:0:0:0:
445,33,163068,1,0,0:0:0:0:
400,24,163154,1,0,0:0:0:0:
360,47,163240,5,4,0:0:0:0:
330,81,163325,1,0,0:0:0:0:
290,103,163411,1,0,0:0:0:0:
244,105,163497,1,0,0:0:0:0:
199,97,163582,5,4,0:0:0:0:
163,68,163668,1,0,0:0:0:0:
136,105,163754,1,0,0:0:0:0:
115,146,163840,1,0,0:0:0:0:
119,190,163925,5,4,0:0:0:0:
143,228,164011,1,0,0:0:0:0:
182,251,164097,1,0,0:0:0:0:
222,271,164182,1,0,0:0:0:0:
265,283,164268,1,4,0:0:0:0:
313,205,164440,6,0,P|319:180|310:202,2,70,0|0|0,0:0|0:0|0:0,0:0:0:0:
402,129,165297,2,0,L|439:162,1,35,0|0,0:0|0:0,0:0:0:0:
377,267,165640,5,8,0:0:0:0:
251,267,165811,1,8,0:0:0:0:
339,178,165982,1,8,0:0:0:0:
249,88,166154,2,8,B|231:77|231:77|225:60|210:100|226:134,1,83.9999974365235,8|8,0:1|0:1,0:1:0:0:
133,216,167011,2,2,P|115:204|102:180,1,41.9999987182618,2|2,0:0|0:0,0:0:0:0:
198,271,167525,2,2,P|214:273|198:279,1,41.9999987182618,2|2,0:0|0:0,0:0:0:0:
326,268,168040,2,2,L|339:249,1,20.9999993591309,2|2,0:0|0:0,0:0:0:0:
387,135,168382,5,2,0:0:0:0:
284,60,168554,1,8,0:0:0:0:
159,41,168725,1,8,0:0:0:0:
32,152,168897,2,12,B|55:175|55:175|61:148|61:148|101:163|101:163|110:177|110:177|133:175,1,140
295,202,170097,1,12,0:0:0:0:
174,312,170440,2,12,B|196:333|225:330|215:300|215:300|239:284,1,84
391,247,171125,6,8,B|379:214|379:214|352:199,1,56,8|8,0:0|0:0,0:0:0:0:
192,180,171640,2,8,P|203:137|220:129,1,56
378,118,172154,2,10,B|379:73|379:73|420:88,1,84
254,35,172840,1,2,0:0:0:0:
144,161,173182,1,2,0:0:0:0:
293,238,173525,1,2,0:0:0:0:
408,115,173868,6,2,B|392:107|392:107|388:66,1,56
262,30,174382,1,2,0:0:0:0:
185,137,174554,2,2,P|191:157|187:175,1,28
289,251,174897,2,2,L|321:263,1,28,2|2,0:0|0:0,0:0:0:0:
193,313,175240,2,2,B|168:318|168:318|184:300|174:279,1,56,2|2,0:0|0:0,0:0:0:0:
63,224,175754,2,2,B|73:215|89:215|89:215|74:201|81:189,1,56,2|2,0:0|0:0,0:0:0:0:
191,119,176268,2,2,L|226:104,1,28,2|2,0:0|0:0,0:0:0:0:
381,109,176611,5,8,0:0:0:0:
275,234,176782,1,8,0:0:0:0:
431,182,176954,1,8,0:0:0:0:
288,100,177125,2,8,B|263:88|253:55|253:55|244:74|185:95,1,140,8|8,0:0|0:0,0:0:0:0:
66,211,177982,2,2,P|52:247|77:242,1,70,2|2,0:0|0:0,0:0:0:0:
221,242,178497,2,2,B|248:256|252:262|252:262|274:232,1,70,2|2,0:0|0:0,0:0:0:0:
436,224,179011,2,2,P|443:198|429:187,1,35,2|2,0:0|0:0,0:0:0:0:
316,83,179354,5,2,0:0:0:0:
158,128,179525,1,2,0:0:0:0:
113,287,179697,1,2,0:0:0:0:
266,227,179868,2,2,P|287:196|265:228,1,140,2|2,0:0|0:0,0:0:0:0:
416,272,180725,1,12,0:0:0:0:
291,59,181068,1,12,0:0:0:0:
26,254,181411,2,14,B|62:240|62:240|72:268|120:265,1,105
262,184,182097,6,6,L|224:121,1,70
377,58,182611,2,8,L|447:85,1,70
456,242,183125,1,0,0:0:0:0:
309,308,183297,2,8,P|290:276|314:296,1,105
374,153,184154,1,10,0:0:0:0:
211,80,184497,1,10,0:0:0:0:
145,230,184840,2,10,P|174:243|145:229,2,105
256,192,186040,12,0,187240,0:0:0:0:
143,235,187582,6,12,B|190:222|222:190|222:137|201:80|201:80|278:38|338:63|378:108|363:177|363:177|409:204|438:178|438:178|482:208|471:297|428:302|428:302|392:340|343:319|343:319|358:270|392:253,1,840.000032043458
284,145,190497,1,2,0:0:0:0:
236,283,190668,1,2,0:0:0:0:
88,273,190840,1,2,0:0:0:0:
88,273,190925,1,2,0:0:0:0:
105,126,191182,2,0,B|117:90|117:90|146:75,2,52.5000020027161,2|0|0,0:0|0:0|0:0,0:0:0:0:
248,86,191697,2,2,P|311:106|345:83,1,105.000004005432
448,188,192211,1,2,0:0:0:0:
448,188,192297,1,2,0:0:0:0:
261,305,192554,1,2,0:0:0:0:
140,221,192725,2,2,B|130:186|130:186|154:160,1,52.5000020027161
277,118,193068,6,12,B|250:97|187:116|187:116|242:41|296:44|368:48|417:125|417:125|420:200|365:271|365:271|354:253|307:270|339:182|339:182|277:170|252:231,1,735.000028038026
113,252,195725,1,2,0:0:0:0:
113,252,195811,1,10,0:0:0:0:
134,106,195982,1,2,0:0:0:0:
134,106,196068,1,2,0:0:0:0:
257,185,196240,1,2,0:0:0:0:
257,185,196325,1,2,0:0:0:0:
404,186,196497,1,0,0:0:0:0:
404,186,196582,2,2,B|418:199|418:199|403:217|403:217|418:229,1,52.5000020027161
291,302,196839,5,2,0:0:0:0:
147,268,197011,2,2,L|108:229,1,52.5000020027161
164,93,197354,1,2,0:0:0:0:
164,93,197440,1,2,0:0:0:0:
303,46,197697,2,2,B|357:64|357:64|336:111,1,105.000004005432
234,213,198211,5,0,0:0:0:0:
240,267,198297,1,0,0:0:0:0:
218,317,198382,1,0,0:0:0:0:
167,340,198468,1,0,0:0:0:0:
112,333,198554,2,2,B|85:278|85:221|108:118|108:118|151:180|143:242,1,350
337,120,199068,5,2,0:0:0:0:
449,318,199240,1,2,0:0:0:0:
253,202,199411,2,2,B|201:172|201:172|271:160,1,90.9999958343508,2|2,0:0|0:0,0:0:0:0:
50,28,199754,2,2,B|30:80|30:80|41:153,1,90.9999958343508,2|2,0:0|0:0,0:0:0:0:
167,300,200097,5,0,0:0:0:0:
279,102,200268,1,0,0:0:0:0:
83,219,200440,1,0,0:0:0:0:
308,247,200611,5,0,0:0:0:0:
165,70,200782,1,0,0:0:0:0:
382,140,200954,1,0,0:0:0:0:
180,244,201125,5,0,0:0:0:0:
221,225,201211,1,0,0:0:0:0:
263,202,201297,2,6,B|363:177|363:177|313:235,1,175
149,74,201640,5,0,0:0:0:0:
42,274,201811,1,2,0:0:0:0:
264,317,201982,2,2,B|315:331|315:331|348:306,1,90.9999958343508,2|2,0:0|0:0,0:0:0:0:
464,113,202325,1,2,0:0:0:0:
239,153,202497,1,0,0:0:0:0:
434,268,202668,2,0,P|428:304|424:268,1,90.9999958343508,0|0,0:0|0:0,0:0:0:0:
212,233,203011,1,0,0:0:0:0:
212,233,203182,1,0,0:0:0:0:
106,30,203354,2,0,P|91:42|105:33,1,90.9999958343508,0|0,0:0|0:0,0:0:0:0:
20,254,203697,1,0,0:0:0:0:
20,254,203868,1,0,0:0:0:0:
245,286,204040,5,8,0:0:0:0:
322,53,204211,1,8,0:0:0:0:
496,225,204382,1,8,0:0:0:0:
257,161,204554,5,8,0:0:0:0:
481,61,204725,1,8,0:0:0:0:
234,73,204897,1,8,0:0:0:0:
391,260,205068,5,8,0:0:0:0:
144,260,205240,1,8,0:0:0:0:
48,34,205411,1,8,0:0:0:0:
250,172,205582,5,8,0:0:0:0:
66,336,205754,1,8,0:0:0:0:
305,281,205925,1,8,0:0:0:0:
86,167,206097,5,8,0:0:0:0:
330,176,206268,1,8,0:0:0:0:
135,24,206440,1,8,0:0:0:0:
204,259,206611,1,0,0:0:0:0:
348,60,206782,5,0,0:0:0:0:
385,43,206868,1,0,0:0:0:0:
425,45,206954,1,0,0:0:0:0:
459,66,207040,1,0,0:0:0:0:
473,103,207125,5,0,0:0:0:0:
457,150,207211,1,0,0:0:0:0:
407,155,207297,1,0,0:0:0:0:
359,171,207382,1,0,0:0:0:0:
336,216,207468,5,0,0:0:0:0:
359,260,207554,1,0,0:0:0:0:
364,304,207640,1,0,0:0:0:0:
328,339,207725,1,0,0:0:0:0:
279,325,207811,5,0,0:0:0:0:
239,294,207897,1,0,0:0:0:0:
215,250,207982,1,0,0:0:0:0:
176,217,208068,1,0,0:0:0:0:
126,222,208154,1,0,0:0:0:0:
218,44,208497,5,2,0:0:0:0:
257,74,208582,1,2,0:0:0:0:
247,123,208668,1,2,0:0:0:0:
201,144,208754,1,2,0:0:0:0:
152,155,208840,1,2,0:0:0:0:
105,171,208925,1,2,0:0:0:0:
77,212,209011,1,2,0:0:0:0:
74,262,209097,1,2,0:0:0:0:
106,299,209182,1,2,0:0:0:0:
337,300,209525,6,10,B|378:293|378:293|383:283|383:283|392:290|392:290|457:278,1,105.000004005432
462,74,209868,1,10,0:0:0:0:
254,112,210040,1,0,0:0:0:0:
461,140,210211,1,8,0:0:0:0:
289,19,210382,1,2,0:0:0:0:
141,169,210554,2,8,B|134:223|134:223|188:227,1,105.000004005432
395,226,210897,5,8,0:0:0:0:
209,322,211068,1,2,0:0:0:0:
272,121,211240,1,10,0:0:0:0:
112,256,211411,2,10,B|56:249|55:249|55:249|25:205,1,105.000004005432
177,60,211754,1,2,0:0:0:0:
375,126,211925,2,12,B|405:106|405:106|377:86,1,70
246,253,212440,5,0,0:0:0:0:
452,217,212611,1,10,0:0:0:0:
254,148,212782,2,8,P|200:124|194:77,1,105.000004005432
25,211,213125,2,10,B|74:169|74:169|152:162,1,105.000004005432
256,321,213468,5,2,0:0:0:0:
395,163,213640,2,10,B|322:154|322:154|286:193,1,105.000004005432
110,265,213982,1,8,0:0:0:0:
156,59,214154,1,0,0:0:0:0:
217,259,214325,1,8,0:0:0:0:
14,201,214497,1,2,0:0:0:0:
210,139,214668,2,12,B|250:143|250:143|250:177,1,70
432,277,215182,5,2,0:0:0:0:
346,84,215354,1,8,0:0:0:0:
254,272,215525,1,0,0:0:0:0:
428,154,215697,1,8,0:0:0:0:
230,82,215868,1,2,0:0:0:0:
80,229,216040,2,10,B|104:294|34:222|10:250,1,105.000004005432
207,320,216382,6,8,P|272:323|303:293,1,105.000004005432
373,101,216725,2,8,P|297:62|264:69,1,105.000004005432
124,205,217068,1,10,0:0:0:0:
331,166,217240,1,2,0:0:0:0:
148,63,217411,1,10,0:0:0:0:
261,239,217582,1,2,0:0:0:0:
413,94,217754,6,8,B|456:48|456:48|419:11,1,105.000004005432
403,227,218097,2,8,B|437:274|437:274|394:316,1,105.000004005432
192,316,218440,2,8,P|132:249|138:236,1,105.000004005432
236,70,218782,1,8,0:0:0:0:
442,110,218954,1,2,0:0:0:0:
253,200,219125,6,8,B|167:202|166:202|121:159,1,105.000004005432
344,102,219468,1,8,0:0:0:0:
434,292,219640,1,0,0:0:0:0:
226,267,219811,1,8,0:0:0:0:
412,170,219982,1,2,0:0:0:0:
239,49,220154,2,12,B|212:78|212:78|244:99,1,70
162,291,220668,5,0,0:0:0:0:
362,225,220840,1,10,0:0:0:0:
179,122,221011,2,8,B|125:146|125:146|168:177,1,105.000004005432
308,324,221354,1,0,0:0:0:0:
373,125,221525,2,10,B|414:90|414:90|428:90|428:90|428:78|428:78|450:59,1,105.000004005432
238,88,221868,1,8,0:0:0:0:
124,265,222040,2,10,B|111:320|111:320|128:337|128:337|161:340,1,105.000004005432
309,201,222382,5,8,0:0:0:0:
495,102,222554,1,8,0:0:0:0:
287,70,222725,1,2,0:0:0:0:
433,221,222897,2,12,P|459:227|432:231,1,70
233,173,223411,5,2,0:0:0:0:
53,281,223582,1,8,0:0:0:0:
53,70,223754,1,0,0:0:0:0:
262,64,223925,6,10,P|337:38|394:51,1,105.000004005432
361,250,224268,2,8,B|395:193|395:193|385:148,1,105.000004005432
209,269,224611,1,8,0:0:0:0:
6,213,224782,1,2,0:0:0:0:
213,174,224954,1,10,0:0:0:0:
94,346,225125,5,0,0:0:0:0:
80,135,225297,1,8,0:0:0:0:
288,149,225468,1,2,0:0:0:0:
105,254,225640,2,12,B|129:244|129:244|145:258|163:255|175:232,1,70
373,287,226154,6,2,B|347:220|414:171|414:171|371:138|371:138|396:56|360:31|285:-2|245:49|228:74|224:153|270:177|314:161,1,525.000020027161
173,32,227182,1,0,0:0:0:0:
163,106,227354,2,2,B|155:150|170:173|169:200|218:224|254:269|314:249,1,210.000008010865
283,335,227868,2,2,B|201:335|170:276|117:298|117:298|108:249|108:249|85:209|71:164,1,315.000012016297,2|2,0:0|0:0,0:0:0:0:
338,44,228725,5,4,0:0:0:0:
381,73,228811,1,0,0:0:0:0:
400,122,228897,1,0,0:0:0:0:
394,173,228982,1,0,0:0:0:0:
356,210,229068,5,0,0:0:0:0:
318,247,229154,1,0,0:0:0:0:
280,284,229240,1,0,0:0:0:0:
243,320,229325,1,0,0:0:0:0:
220,272,229411,5,4,0:0:0:0:
190,228,229497,1,0,0:0:0:0:
140,212,229582,1,0,0:0:0:0:
89,225,229668,1,0,0:0:0:0:
59,181,229754,5,0,0:0:0:0:
44,130,229840,1,0,0:0:0:0:
65,82,229925,1,0,0:0:0:0:
306,100,230096,5,8,0:0:0:0:
454,248,230268,5,8,0:0:0:0:
244,248,230439,5,8,0:0:0:0:
392,99,230611,5,8,0:0:0:0:
392,308,230782,5,8,0:0:0:0:
243,159,230954,5,8,0:0:0:0:
452,159,231125,6,0,P|470:232|434:175,1,210.000008010865,0|0,0:0|0:0,0:0:0:0:
226,299,231640,5,2,0:0:0:0:
187,271,231725,1,2,0:0:0:0:
161,232,231811,1,2,0:0:0:0:
146,189,231897,1,2,0:0:0:0:
140,142,231982,2,2,P|150:85|210:23,1,119.000002269745,2|2,0:0|0:0,0:0:0:0:
411,233,232325,6,0,B|342:224|342:224|284:182,1,119.000002269745,0|0,0:0|0:0,0:0:0:0:
268,155,232582,1,0,0:0:0:0:
238,117,232668,1,0,0:0:0:0:
5,304,232840,1,0,0:0:0:0:
296,248,233011,1,0,0:0:0:0:
33,110,233182,1,2,0:0:0:0:
64,66,233268,1,2,0:0:0:0:
109,34,233354,1,2,0:0:0:0:
160,19,233440,1,2,0:0:0:0:
213,20,233525,1,2,0:0:0:0:
273,73,233611,1,2,0:0:0:0:
298,120,233697,1,2,0:0:0:0:
341,150,233782,1,2,0:0:0:0:
394,155,233868,1,2,0:0:0:0:
444,217,233954,1,2,0:0:0:0:
425,254,234040,1,2,0:0:0:0:
394,282,234125,1,2,0:0:0:0:
353,292,234211,2,2,B|274:305|274:305|215:285|201:251|202:247,1,119.000002269745,2|2,0:0|0:0,0:0:0:0:
42,295,234554,5,2,0:0:0:0:
42,295,234640,1,2,0:0:0:0:
42,295,234725,1,2,0:0:0:0:
197,83,234897,1,2,0:0:0:0:
197,83,234982,1,2,0:0:0:0:
197,83,235068,1,2,0:0:0:0:
445,168,235240,2,0,B|370:199|370:199|304:204,1,119.000002269745,0|0,0:0|0:0,0:0:0:0:
253,203,235497,1,0,0:0:0:0:
184,167,235582,1,0,0:0:0:0:
402,317,235754,5,0,0:0:0:0:
299,89,235925,1,0,0:0:0:0:
174,306,236097,1,2,0:0:0:0:
127,280,236182,1,2,0:0:0:0:
100,233,236268,1,2,0:0:0:0:
90,180,236354,1,2,0:0:0:0:
115,105,236440,1,2,0:0:0:0:
164,84,236525,1,2,0:0:0:0:
214,102,236611,1,2,0:0:0:0:
243,146,236697,1,2,0:0:0:0:
232,194,236782,1,2,0:0:0:0:
88,332,236954,6,0,B|161:342|161:342|213:334,1,119.000002269745,0|0,0:0|0:0,0:0:0:0:
397,155,237297,1,0,0:0:0:0:
418,298,237468,1,2,0:0:0:0:
409,338,237554,1,2,0:0:0:0:
374,314,237640,1,2,0:0:0:0:
343,286,237725,1,2,0:0:0:0:
311,258,237811,1,2,0:0:0:0:
172,192,237982,6,0,B|161:131|161:131|199:82,1,119.000002269745,0|0,0:0|0:0,0:0:0:0:
457,62,238325,1,0,0:0:0:0:
284,260,238497,1,0,0:0:0:0:
337,4,238668,1,2,0:0:0:0:
337,4,238754,1,2,0:0:0:0:
337,4,238840,1,2,0:0:0:0:
467,229,239011,1,2,0:0:0:0:
431,269,239097,1,2,0:0:0:0:
387,299,239182,1,2,0:0:0:0:
333,305,239268,1,2,0:0:0:0:
257,283,239354,1,2,0:0:0:0:
222,252,239440,1,2,0:0:0:0:
218,199,239525,1,2,0:0:0:0:
284,124,239697,6,0,P|370:98|409:38,1,119.000002269745,0|0,0:0|0:0,0:0:0:0:
115,31,240040,1,2,0:0:0:0:
89,77,240125,1,2,0:0:0:0:
80,129,240211,1,2,0:0:0:0:
230,321,240382,2,0,B|293:298|293:298|319:240,1,119.000002269745,0|0,0:0|0:0,0:0:0:0:
459,43,240725,1,0,0:0:0:0:
211,131,240897,1,0,0:0:0:0:
466,185,241068,5,2,0:0:0:0:
466,185,241154,1,2,0:0:0:0:
466,185,241240,1,2,0:0:0:0:
249,41,241410,1,0,0:0:0:0:
375,271,241582,2,0,B|376:333|376:333|230:225,1,238.00000453949,0|0,0:0|0:0,0:0:0:0:
126,108,242097,1,2,0:0:0:0:
159,67,242182,1,2,0:0:0:0:
203,37,242268,1,2,0:0:0:0:
204,117,242355,1,2,0:0:0:0:
181,164,242440,1,2,0:0:0:0:
184,216,242525,2,2,P|232:255|319:192,1,178.500003404617,2|2,0:0|0:0,0:0:0:0:
195,306,242954,5,2,0:0:0:0:
151,274,243040,1,2,0:0:0:0:
119,231,243125,1,2,0:0:0:0:
108,178,243211,1,2,0:0:0:0:
117,125,243297,2,2,B|156:44|266:44|266:44|231:100,1,238.00000453949,2|2,0:0|0:0,0:0:0:0:
396,300,243811,1,2,0:0:0:0:
396,300,243897,1,2,0:0:0:0:
396,300,243982,1,2,0:0:0:0:
272,68,244154,1,2,0:0:0:0:
272,68,244240,1,2,0:0:0:0:
272,68,244325,1,2,0:0:0:0:
310,352,244497,5,2,0:0:0:0:
245,305,244582,1,2,0:0:0:0:
165,294,244668,1,2,0:0:0:0:
89,266,244754,1,2,0:0:0:0:
43,203,244840,1,2,0:0:0:0:
54,126,244925,1,2,0:0:0:0:
109,71,245011,1,2,0:0:0:0:
247,181,245182,1,0,0:0:0:0:
413,88,245354,5,2,0:0:0:0:
413,88,245440,1,2,0:0:0:0:
413,88,245525,1,2,0:0:0:0:
413,88,245611,1,2,0:0:0:0:
413,88,245697,1,2,0:0:0:0:
230,274,245868,5,0,0:0:0:0:
105,129,246040,1,2,0:0:0:0:
152,66,246125,1,2,0:0:0:0:
230,52,246211,1,2,0:0:0:0:
294,98,246297,1,2,0:0:0:0:
300,177,246382,1,2,0:0:0:0:
337,248,246468,1,2,0:0:0:0:
416,257,246554,1,2,0:0:0:0:
231,203,246725,1,2,0:0:0:0:
220,212,246811,1,2,0:0:0:0:
220,198,246897,1,2,0:0:0:0:
121,321,247068,5,2,0:0:0:0:
132,315,247154,1,2,0:0:0:0:
119,309,247240,1,2,0:0:0:0:
28,162,247411,2,0,B|27:120|27:120|74:57|76:149|143:96,1,119.000002269745
340,135,247754,2,2,P|394:108|394:52,1,119.000002269745
217,152,248097,5,8,0:0:0:0:
47,261,248268,1,10,0:0:0:0:
249,271,248440,1,10,0:0:0:0:
145,98,248611,1,8,0:0:0:0:
126,334,248782,5,8,0:0:0:0:
331,211,248954,1,10,0:0:0:0:
98,162,249125,1,10,0:0:0:0:
300,288,249297,1,8,0:0:0:0:
9,225,249468,5,8,0:0:0:0:
263,68,249640,1,10,0:0:0:0:
122,329,249811,1,10,0:0:0:0:
17,51,249982,1,8,0:0:0:0:
373,83,250154,5,8,0:0:0:0:
46,224,250325,1,10,0:0:0:0:
384,341,250497,1,10,0:0:0:0:
250,11,250668,5,6,0:0:0:0:
287,49,250754,1,2,0:0:0:0:
305,99,250840,1,2,0:0:0:0:
279,145,250925,1,2,0:0:0:0:
228,164,251011,1,6,0:0:0:0:
177,146,251097,1,2,0:0:0:0:
143,104,251182,1,2,0:0:0:0:
101,138,251268,5,2,0:0:0:0:
86,189,251354,1,6,0:0:0:0:
98,241,251440,1,2,0:0:0:0:
123,287,251525,1,2,0:0:0:0:
166,318,251611,5,2,0:0:0:0:
228,337,251697,1,6,0:0:0:0:
298,332,251782,1,2,0:0:0:0:
364,291,251868,1,2,0:0:0:0:
397,216,251954,1,2,0:0:0:0:
410,136,252040,1,6,0:0:0:0:
230,174,252211,6,2,P|198:110|230:46,1,119.000002269745,2|2,0:0|0:0,0:0:0:0:
214,62,252468,2,2,P|150:94|86:62,1,119.000002269745,2|2,0:0|0:0,0:0:0:0:
107,81,252725,2,2,P|134:142|102:206,1,119.000002269745,2|2,0:0|0:0,0:0:0:0:
118,189,252982,2,2,P|182:158|246:190,1,131.25000500679,2|2,0:0|0:0,0:0:0:0:
375,328,253582,5,2,0:0:0:0:
212,284,253754,1,0,0:0:0:0:
145,130,253925,2,8,B|120:97|120:97|101:146,1,83.9999974365235
145,130,254268,2,10,B|120:97|120:97|101:146,1,83.9999974365235
33,297,254611,5,2,0:0:0:0:
195,254,254782,2,8,B|205:205|205:205|243:199,1,83.9999974365235
195,254,255125,2,10,B|205:205|205:205|243:199,1,83.9999974365235
342,65,255468,1,0,0:0:0:0:
439,202,255640,1,2,0:0:0:0:
272,219,255811,1,0,0:0:0:0:
342,65,255982,1,2,0:0:0:0:
439,202,256154,1,0,0:0:0:0:
272,219,256325,1,2,0:0:0:0:
157,95,256497,6,8,L|70:71,1,83.9999974365235
157,95,256840,2,10,L|70:71,1,83.9999974365235
27,236,257182,1,0,0:0:0:0:
188,284,257354,1,0,0:0:0:0:
22,310,257525,1,2,0:0:0:0:
129,180,257697,5,0,0:0:0:0:
265,277,257868,1,2,0:0:0:0:
186,127,258040,1,2,0:0:0:0:
117,280,258211,1,2,0:0:0:0:
261,194,258382,2,8,B|293:169|293:169|291:213,1,83.9999974365235
261,194,258725,2,10,B|293:169|293:169|291:213,1,83.9999974365235
427,319,259068,5,0,0:0:0:0:
439,150,259240,1,2,0:0:0:0:
300,55,259411,1,2,0:0:0:0:
132,67,259582,2,8,P|112:78|122:74,1,83.9999974365235
132,67,259925,2,10,P|112:78|122:74,1,83.9999974365235
65,242,260268,5,0,0:0:0:0:
199,140,260440,1,2,0:0:0:0:
221,306,260611,1,2,0:0:0:0:
65,242,260782,1,2,0:0:0:0:
199,140,260954,1,2,0:0:0:0:
221,306,261125,1,0,0:0:0:0:
365,218,261297,6,8,B|361:169|361:169|316:154,1,83.9999974365235
365,218,261640,2,10,B|361:169|361:169|316:154,1,83.9999974365235
193,61,261982,1,0,0:0:0:0:
193,61,262154,1,2,0:0:0:0:
123,213,262325,2,8,P|62:196|46:216,1,83.9999974365235
123,213,262668,2,10,P|62:196|46:216,1,83.9999974365235
194,304,263011,5,8,0:0:0:0:
194,304,263182,1,8,0:0:0:0:
194,304,263354,1,8,0:0:0:0:
337,216,263525,1,8,0:0:0:0:
337,216,263697,1,8,0:0:0:0:
337,216,263868,1,8,0:0:0:0:
422,79,264040,6,8,P|386:60|421:91,1,125.999996154785
382,272,264554,5,0,0:0:0:0:
218,307,264725,1,2,0:0:0:0:
97,189,264897,2,8,B|66:147|66:147|104:122,1,83.9999974365235
97,189,265240,2,10,B|66:147|66:147|104:122,1,83.9999974365235
263,87,265582,5,0,0:0:0:0:
420,28,265754,1,2,0:0:0:0:
400,194,265925,1,2,0:0:0:0:
263,87,266097,1,2,0:0:0:0:
420,28,266268,1,2,0:0:0:0:
400,194,266440,1,0,0:0:0:0:
267,297,266611,2,8,B|226:318|226:318|196:289,1,83.9999974365235
267,297,266954,2,10,B|226:318|226:318|196:289,1,83.9999974365235
92,166,267297,5,0,0:0:0:0:
222,61,267468,1,2,0:0:0:0:
389,44,267640,1,2,0:0:0:0:
496,172,267811,2,8,P|487:204|484:166,1,83.9999974365235
496,172,268154,2,10,P|487:204|484:166,1,83.9999974365235
344,300,268497,5,0,0:0:0:0:
224,182,268668,1,2,0:0:0:0:
116,311,268840,1,2,0:0:0:0:
67,150,269011,2,10,B|70:100|70:100|127:119,1,83.9999974365235
67,150,269354,2,8,B|70:100|70:100|127:119,1,83.9999974365235
278,114,269697,1,0,0:0:0:0:
278,114,269868,5,8,0:0:0:0:
431,184,270040,1,8,0:0:0:0:
331,318,270211,1,8,0:0:0:0:
147,216,270382,5,8,0:0:0:0:
356,190,270554,1,8,0:0:0:0:
214,35,270725,1,8,0:0:0:0:
235,286,270897,5,8,0:0:0:0:
346,60,271068,1,8,0:0:0:0:
127,187,271240,1,8,0:0:0:0:
420,187,271411,5,8,0:0:0:0:
161,48,271582,1,8,0:0:0:0:
179,342,271754,1,8,0:0:0:0:
29,42,271925,5,8,0:0:0:0:
361,98,272097,1,8,0:0:0:0:
109,319,272268,1,8,0:0:0:0:
278,27,272440,1,8,0:0:0:0:
148,137,272611,5,2,0:0:0:0:
124,172,272697,1,0,0:0:0:0:
114,212,272782,1,0,0:0:0:0:
126,252,272868,1,0,0:0:0:0:
160,275,272954,5,2,0:0:0:0:
202,273,273040,1,0,0:0:0:0:
240,257,273125,1,0,0:0:0:0:
282,254,273211,1,0,0:0:0:0:
316,278,273297,5,2,0:0:0:0:
340,311,273382,1,0,0:0:0:0:
361,347,273468,1,0,0:0:0:0:
402,338,273554,1,0,0:0:0:0:
436,314,273640,5,2,0:0:0:0:
459,279,273725,1,0,0:0:0:0:
471,238,273811,1,0,0:0:0:0:
477,196,273897,1,0,0:0:0:0:
481,154,273982,1,2,0:0:0:0:
256,192,274154,12,0,275011,0:0:0:0:
286,87,275354,5,0,0:0:0:0:
218,168,275526,1,0,0:0:0:0:
121,127,275697,2,0,P|97:93|108:71,1,52.5000020027161
121,127,276040,2,0,P|97:93|108:71,1,52.5000020027161
41,167,276382,5,0,0:0:0:0:
115,241,276554,1,0,0:0:0:0:
189,315,276725,1,0,0:0:0:0:
292,294,276897,2,0,L|344:258,1,52.5000020027161
292,294,277240,2,0,L|344:258,1,52.5000020027161
387,175,277582,5,0,0:0:0:0:
321,92,277754,2,0,B|309:62|309:62|299:94,1,52.5000020027161
321,92,278097,2,0,B|309:62|309:62|299:94,1,52.5000020027161
234,168,278440,2,0,B|205:183|205:183|240:194,1,52.5000020027161
234,168,278782,2,0,B|205:183|205:183|240:194,1,52.5000020027161
323,239,279125,5,0,0:0:0:0:
367,334,279297,1,0,0:0:0:0:
263,315,279468,1,0,0:0:0:0:
323,239,279640,1,0,0:0:0:0:
367,334,279811,1,0,0:0:0:0:
263,315,279982,1,0,0:0:0:0:
157,314,280154,2,0,L|93:305,1,52.5000020027161,0|0,0:0|0:0,0:0:0:0:
79,204,280497,2,0,L|127:158,1,52.5000020027161,0|0,0:0|0:0,0:0:0:0:
193,95,280840,5,0,0:0:0:0:
291,58,281011,1,0,0:0:0:0:
394,73,281182,1,0,0:0:0:0:
478,135,281354,2,0,P|499:156|493:186,1,52.5000020027161
478,135,281697,2,0,P|499:156|493:186,1,52.5000020027161
440,260,282040,5,0,0:0:0:0:
348,209,282211,1,0,0:0:0:0:
366,105,282382,1,0,0:0:0:0:
289,33,282554,2,0,B|250:37|250:37|225:60,1,52.5000020027161
289,33,282897,2,0,B|250:37|250:37|225:60,1,52.5000020027161
219,155,283240,5,0,0:0:0:0:
226,259,283411,1,0,0:0:0:0:
158,338,283582,1,0,0:0:0:0:
120,239,283754,1,0,0:0:0:0:
226,259,283925,1,0,0:0:0:0:
158,338,284097,1,0,0:0:0:0:
120,239,284268,1,0,0:0:0:0:
82,140,284440,2,0,B|66:113|66:113|91:120,1,52.5000020027161
82,140,284782,2,0,B|66:113|66:113|91:120,1,52.5000020027161
181,62,285125,5,8,0:0:0:0:
181,62,285297,1,8,0:0:0:0:
181,62,285468,1,8,0:0:0:0:
302,178,285640,1,8,0:0:0:0:
302,178,285811,1,8,0:0:0:0:
302,178,285982,1,8,0:0:0:0:
251,316,286154,6,8,P|221:332|194:308,1,52.5000020027161,8|8,0:0|0:0,0:0:0:0:
89,150,286497,2,8,B|127:132|127:132|158:141,1,52.5000020027161,8|8,0:0|0:0,0:0:0:0:
344,97,286840,2,8,B|363:58|363:57|394:50,1,52.5000020027161,8|8,0:0|0:0,0:0:0:0:
459,246,287182,2,8,B|421:256|421:256|388:249,1,52.5000020027161,8|8,0:0|0:0,0:0:0:0:
244,120,287525,6,8,P|217:133|226:155,1,52.5000020027161,8|8,0:0|0:0,0:0:0:0:
79,306,287868,2,8,B|59:278|59:278|87:253,1,52.5000020027161,8|8,0:0|0:0,0:0:0:0:
279,303,288211,2,8,B|305:308|305:308|326:286,1,52.5000020027161,8|8,0:0|0:0,0:0:0:0:
391,89,288554,2,8,P|359:71|340:88,1,52.5000020027161,8|8,0:0|0:0,0:0:0:0:
154,158,288897,6,8,B|124:162|123:162|154:182,1,52.5000020027161,8|8,0:0|0:0,0:0:0:0:
363,191,289240,2,8,B|397:174|397:174|419:146,1,52.5000020027161,8|8,0:0|0:0,0:0:0:0:
241,32,289582,2,8,L|237:88,1,52.5000020027161,8|8,0:0|0:0,0:0:0:0:
188,289,289925,2,8,P|157:304|134:292,1,52.5000020027161,8|8,0:0|0:0,0:0:0:0:
106,90,290268,6,8,L|146:133,1,52.5000020027161,8|8,0:0|0:0,0:0:0:0:
348,170,290611,2,8,B|330:138|330:138|350:111,1,52.5000020027161,8|8,0:0|0:0,0:0:0:0:
481,280,290954,2,8,P|463:298|435:299,1,52.5000020027161,8|8,0:0|0:0,0:0:0:0:
234,241,291297,2,8,B|212:224|212:224|226:253,1,52.5000020027161,8|8,0:0|0:0,0:0:0:0:
63,81,291640,2,8,P|95:53|115:55,1,52.5000020027161,8|8,0:0|0:0,0:0:0:0:
310,79,291982,5,2,0:0:0:0:
405,169,292154,1,2,0:0:0:0:
294,239,292325,1,0,0:0:0:0:
448,271,292497,5,2,0:0:0:0:
321,178,292668,1,2,0:0:0:0:
422,56,292840,1,0,0:0:0:0:
255,132,293011,5,2,0:0:0:0:
292,311,293182,1,2,0:0:0:0:
431,190,293354,1,0,0:0:0:0:
222,214,293525,5,2,0:0:0:0:
335,36,293697,1,2,0:0:0:0:
155,143,293868,1,0,0:0:0:0:
391,123,294040,5,2,0:0:0:0:
216,281,294211,1,2,0:0:0:0:
190,46,294382,1,0,0:0:0:0:
32,222,294554,5,4,0:0:0:0:
55,266,294640,1,0,0:0:0:0:
90,300,294725,1,0,0:0:0:0:
133,323,294811,1,0,0:0:0:0:
181,334,294897,5,0,0:0:0:0:
230,333,294982,1,0,0:0:0:0:
279,328,295068,1,0,0:0:0:0:
321,301,295154,1,0,0:0:0:0:
353,262,295240,5,4,0:0:0:0:
341,213,295325,1,0,0:0:0:0:
315,169,295411,1,0,0:0:0:0:
293,124,295497,1,0,0:0:0:0:
289,74,295582,5,4,0:0:0:0:
320,35,295668,1,0,0:0:0:0:
369,27,295754,1,0,0:0:0:0:
417,37,295840,1,0,0:0:0:0:
459,62,295925,5,6,0:0:0:0:
446,160,296096,5,2,0:0:0:0:
397,247,296268,5,2,0:0:0:0:
310,296,296439,5,2,0:0:0:0:
210,306,296611,5,2,0:0:0:0:
114,277,296782,5,2,0:0:0:0:
48,201,296954,6,2,P|21:189|55:195,1,105.000004005432
