osu file format v14

[General]
AudioFilename: audio.mp3
AudioLeadIn: 0
PreviewTime: -1
Countdown: 1
SampleSet: None
StackLeniency: 0.7
Mode: 0
LetterboxInBreaks: 0
WidescreenStoryboard: 0

[Editor]
DistanceSpacing: 0.9
BeatDivisor: 4
GridSize: 8
TimelineZoom: 1

[Metadata]
Title:Happy Halloween
TitleUnicode:Happy Halloween 歌ってみた
Artist:Sana x Yuka Hiiragi
ArtistUnicode:柊 優花/鎖那
Creator:Timpai
Version:Trick or Treat
Source:
Tags:
BeatmapID:1487627
BeatmapSetID:703093

[Difficulty]
HPDrainRate:8
CircleSize:3.7
OverallDifficulty:8
ApproachRate:9.4
SliderMultiplier:1.4
SliderTickRate:1

[Events]
//Background and Video events
0,0,"maxresdefault (1).jpg",0,0
//Break Periods
2,22823,82083
2,85323,172208
//Storyboard Layer 0 (Background)
//Storyboard Layer 1 (Fail)
//Storyboard Layer 2 (Pass)
//Storyboard Layer 3 (Foreground)
//Storyboard Sound Samples

[TimingPoints]
4248,500,4,1,0,100,1,0
10123,-66.6666666666667,4,1,0,100,0,0
11623,-200,4,1,0,100,0,0
12248,-100,4,1,0,100,0,0
15623,-100,4,1,0,100,0,0
83748,-50,4,1,0,100,0,0
84498,-100,4,1,0,100,0,1
116748,-100,4,1,0,100,0,0

[HitObjects]
8,112,4623,5,0,0:0:0:0:
96,32,4873,2,0,B|137:56|137:56|159:105,1,70
152,160,5373,1,0,0:0:0:0:
40,208,5623,1,0,0:0:0:0:
40,208,5748,1,0,0:0:0:0:
40,208,5873,1,0,0:0:0:0:
216,56,6123,1,0,0:0:0:0:
320,152,6373,5,0,0:0:0:0:
320,152,6498,1,0,0:0:0:0:
320,152,6623,1,0,0:0:0:0:
184,176,6873,1,0,0:0:0:0:
56,96,7123,1,0,0:0:0:0:
56,96,7248,1,0,0:0:0:0:
56,96,7373,1,0,0:0:0:0:
168,64,7623,2,0,B|216:64|216:64|232:104,1,70
264,136,8123,2,0,B|216:136|216:136|200:96,1,70
272,96,8623,5,0,0:0:0:0:
304,88,8748,1,0,0:0:0:0:
336,88,8873,1,0,0:0:0:0:
360,104,8998,1,0,0:0:0:0:
376,128,9123,1,0,0:0:0:0:
208,336,9373,6,2,L|144:328,1,35,0|8,0:0|0:0,0:0:0:0:
312,200,9623,2,0,L|304:160,1,35,0|8,0:0|0:0,0:0:0:0:
136,240,9873,2,0,L|104:216,1,35,0|4,0:0|0:0,0:0:0:0:
48,88,10123,2,0,L|24:64,8,18.75
168,32,10623,6,0,B|188:154|188:154|306:94|306:94|320:216,1,367.500014019013
376,312,11623,6,0,L|392:288,1,18.75
72,192,11873,2,0,L|48:168,1,18.75
296,88,12123,2,0,L|312:64,1,17.5
512,64,12623,5,0,0:0:0:0:
448,144,12873,1,0,0:0:0:0:
360,104,13123,2,0,L|376:16,1,70
240,32,13623,1,0,0:0:0:0:
240,32,13748,1,0,0:0:0:0:
240,32,13873,1,0,0:0:0:0:
104,64,14123,1,0,0:0:0:0:
32,208,14373,5,0,0:0:0:0:
32,208,14498,1,0,0:0:0:0:
32,208,14623,1,0,0:0:0:0:
168,264,14873,2,0,L|104:200,1,70
208,184,15373,1,0,0:0:0:0:
186,72,15623,2,0,P|218:18|249:32,1,105
285,62,16123,2,0,P|262:45|189:79,1,105,0|0,0:3|0:3,0:3:0:0:
188,122,16623,1,0,0:0:0:0:
64,248,16873,5,0,0:0:0:0:
24,336,17123,2,0,B|56:360|56:360|112:344,1,70
224,288,17623,1,0,0:0:0:0:
224,288,17748,1,0,0:0:0:0:
224,288,17873,1,0,0:0:0:0:
144,192,18123,1,0,0:0:0:0:
264,104,18373,1,0,0:0:0:0:
264,104,18498,1,0,0:0:0:0:
264,104,18623,1,0,0:0:0:0:
80,72,18873,5,0,0:0:0:0:
24,152,19123,1,0,0:0:0:0:
240,224,19373,1,0,0:0:0:0:
144,160,19623,2,0,L|208:112,1,70
176,24,20123,1,0,0:0:0:0:
432,120,20623,5,0,0:0:0:0:
280,143,20873,1,0,0:0:0:0:
377,199,21123,1,0,0:0:0:0:
328,60,21373,1,0,0:0:0:0:
440,40,21623,1,0,0:0:0:0:
440,40,21748,1,0,0:0:0:0:
440,40,21873,1,0,0:0:0:0:
504,136,22123,1,0,0:0:0:0:
408,240,22373,5,0,0:0:0:0:
408,240,22498,1,0,0:0:0:0:
408,240,22623,1,0,0:0:0:0:
256,192,82623,12,0,83623,0:0:0:0:
208,272,83748,6,0,L|192:200,1,70
216,136,83998,6,0,L|152:173,1,70
96,168,84248,6,0,L|72:88,1,70
368,72,84498,5,0,0:0:0:0:
400,152,84623,2,0,L|352:224,1,70
272,280,84998,1,0,0:0:0:0:
152,264,85123,1,0,0:0:0:0:
152,136,172748,5,0,0:0:0:0:
184,120,172998,1,0,0:0:0:0:
216,104,173123,1,0,0:0:0:0:
144,136,173498,1,0,0:0:0:0:
176,120,173623,1,0,0:0:0:0:
272,120,173873,1,0,0:0:0:0:
368,120,174123,1,0,0:0:0:0:
152,80,174498,5,0,0:0:0:0:
96,64,174623,1,0,0:0:0:0:
240,96,174873,1,0,0:0:0:0:
168,192,175123,1,0,0:0:0:0:
152,272,175373,1,0,0:0:0:0:
240,264,175623,1,0,0:0:0:0:
320,240,175873,1,0,0:0:0:0:
384,240,176123,1,0,0:0:0:0:
