osu file format v14

[General]
AudioFilename: audio.mp3
AudioLeadIn: 2500
PreviewTime: 86295
Countdown: 0
SampleSet: Soft
StackLeniency: 0.7
Mode: 3
LetterboxInBreaks: 0
EpilepsyWarning: 1
SpecialStyle: 0
WidescreenStoryboard: 1

[Editor]
Bookmarks: 19476,41295,63113,82090,131295
DistanceSpacing: 0.6
BeatDivisor: 6
GridSize: 4
TimelineZoom: 1.2

[Metadata]
Title:Indigo Bird
TitleUnicode:Indigo Bird
Artist:Sana feat.Nekomata Master
ArtistUnicode:Sana feat.猫叉Master
Creator:Calcyon
Version:Unspoken Words
Source:
Tags:Naoyuki Sato Sanae Shintani Raindrops KONAMI♪MUSICフル KONAMI 新谷早苗 佐藤直之
BeatmapID:1377348
BeatmapSetID:649929

[Difficulty]
HPDrainRate:8
CircleSize:4
OverallDifficulty:8
ApproachRate:5
SliderMultiplier:1.4
SliderTickRate:1

[Events]
//Background and Video events
0,0,"bg.jpg",0,0
//Break Periods
//Storyboard Layer 0 (Background)
//Storyboard Layer 1 (Fail)
//Storyboard Layer 2 (Pass)
//Storyboard Layer 3 (Foreground)
//Storyboard Sound Samples
Sample,63113,0,"LR_Hit Med Click.wav",70

[TimingPoints]
386,681.8182,4,2,2,80,1,0
41295,-100,4,2,2,90,0,0
86295,681.8182,4,2,2,90,1,1
132658,-100,4,2,2,90,0,0

[HitObjects]
448,192,386,5,0,0:0:0:0:
320,192,386,1,0,0:0:0:0:
192,192,613,1,0,0:0:0:0:
64,192,726,5,0,0:0:0:10:jingle.wav
192,192,954,1,0,0:0:0:0:
320,192,1067,1,0,0:0:0:35:LR_J Hit.wav
448,192,1067,128,0,1749:0:0:0:0:
64,192,1295,1,0,0:0:0:0:
192,192,1408,1,0,0:0:0:10:jingle.wav
320,192,1636,1,0,0:0:0:0:
192,192,1749,1,0,0:0:0:0:
64,192,1749,1,0,0:0:0:0:
320,192,1976,1,0,0:0:0:0:
448,192,2090,1,0,0:0:0:10:jingle.wav
192,192,2317,1,0,0:0:0:0:
64,192,2431,1,0,0:0:0:35:LR_J Hit.wav
320,192,2658,1,0,0:0:0:0:
192,192,2772,1,0,0:0:0:10:jingle.wav
320,192,2999,1,0,0:0:0:0:
448,192,3113,1,0,0:0:0:0:
64,192,3113,1,0,0:0:0:0:
192,192,3340,1,0,0:0:0:0:
320,192,3454,1,0,0:0:0:10:jingle.wav
64,192,3681,1,0,0:0:0:0:
448,192,3795,1,0,0:0:0:35:LR_J Hit.wav
192,192,4022,1,0,0:0:0:0:
64,192,4136,1,0,0:0:0:10:jingle.wav
320,192,4363,1,0,0:0:0:0:
448,192,4476,1,0,0:0:0:0:
192,192,4476,1,0,0:0:0:0:
320,192,4704,1,0,0:0:0:0:
64,192,4817,1,0,0:0:0:10:jingle.wav
448,192,5045,1,0,0:0:0:0:
192,192,5158,1,0,0:0:0:35:LR_J Hit.wav
64,192,5158,128,0,5840:0:0:0:0:
448,192,5386,1,0,0:0:0:0:
320,192,5499,1,0,0:0:0:10:jingle.wav
192,192,5726,1,0,0:0:0:0:
448,192,5840,1,0,0:0:0:0:
320,192,5840,1,0,0:0:0:0:
192,192,6067,1,0,0:0:0:0:
64,192,6181,1,0,0:0:0:10:jingle.wav
320,192,6408,1,0,0:0:0:0:
448,192,6522,128,0,7204:0:0:0:35:LR_J Hit.wav
192,192,6522,1,0,0:0:0:0:
64,192,6749,1,0,0:0:0:0:
192,192,6863,1,0,0:0:0:10:jingle.wav
320,192,7090,1,0,0:0:0:0:
192,192,7204,1,0,0:0:0:0:
64,192,7204,1,0,0:0:0:0:
320,192,7431,1,0,0:0:0:0:
192,192,7545,1,0,0:0:0:10:jingle.wav
64,192,7772,1,0,0:0:0:0:
448,192,7886,1,0,0:0:0:35:LR_J Hit.wav
192,192,7886,1,0,0:0:0:0:
320,192,8113,1,0,0:0:0:0:
64,192,8226,1,0,0:0:0:10:jingle.wav
192,192,8454,1,0,0:0:0:0:
448,192,8567,128,0,9249:0:0:0:0:
320,192,8567,1,0,0:0:0:0:
192,192,8795,1,0,0:0:0:0:
64,192,8908,1,0,0:0:0:10:jingle.wav
192,192,9136,1,0,0:0:0:0:
64,192,9249,128,0,9931:0:0:0:35:LR_J Hit.wav
320,192,9249,1,0,0:0:0:0:
192,192,9476,1,0,0:0:0:0:
448,192,9590,1,0,0:0:0:10:jingle.wav
320,192,9817,1,0,0:0:0:0:
192,192,9931,1,0,0:0:0:0:
448,192,9931,1,0,0:0:0:0:
64,192,10158,1,0,0:0:0:0:
448,192,10272,1,0,0:0:0:10:jingle.wav
192,192,10499,1,0,0:0:0:0:
64,192,10613,1,0,0:0:0:35:LR_J Hit.wav
320,192,10840,1,0,0:0:0:0:
448,192,10954,1,0,0:0:0:10:jingle.wav
320,192,11181,1,0,0:0:0:0:
192,192,11295,1,0,0:0:0:0:
64,192,11295,1,0,0:0:0:0:
448,192,11522,1,0,0:0:0:0:
320,192,11636,1,0,0:0:0:10:jingle.wav
192,192,11863,1,0,0:0:0:0:
64,192,11976,128,0,12658:0:0:0:35:LR_J Hit.wav
448,192,11976,1,0,0:0:0:0:
320,192,12204,1,0,0:0:0:0:
448,192,12317,1,0,0:0:0:10:jingle.wav
320,192,12545,1,0,0:0:0:0:
448,192,12658,1,0,0:0:0:0:
192,192,12658,1,0,0:0:0:0:
320,192,12886,1,0,0:0:0:0:
64,192,12999,1,0,0:0:0:10:jingle.wav
192,192,13226,1,0,0:0:0:0:
320,192,13340,1,0,0:0:0:35:LR_J Hit.wav
64,192,13567,1,0,0:0:0:0:
448,192,13681,1,0,0:0:0:10:jingle.wav
192,192,13908,1,0,0:0:0:0:
448,192,14022,1,0,0:0:0:0:
320,192,14022,1,0,0:0:0:0:
64,192,14249,1,0,0:0:0:0:
448,192,14363,1,0,0:0:0:10:jingle.wav
320,192,14590,1,0,0:0:0:0:
192,192,14704,128,0,15386:0:0:0:35:LR_J Hit.wav
64,192,14704,1,0,0:0:0:0:
448,192,14931,1,0,0:0:0:0:
320,192,15045,1,0,0:0:0:10:jingle.wav
64,192,15272,1,0,0:0:0:0:
320,192,15386,1,0,0:0:0:0:
448,192,15386,1,0,0:0:0:0:
64,192,15613,1,0,0:0:0:0:
192,192,15726,1,0,0:0:0:10:jingle.wav
448,192,15954,1,0,0:0:0:0:
320,192,16067,1,0,0:0:0:35:LR_J Hit.wav
64,192,16295,1,0,0:0:0:0:
448,192,16408,1,0,0:0:0:10:jingle.wav
320,192,16636,1,0,0:0:0:0:
192,192,16749,1,0,0:0:0:0:
64,192,16749,1,0,0:0:0:0:
320,192,17090,1,0,0:0:0:0:
192,192,17317,128,0,17772:0:0:0:0:
448,192,17431,128,0,19476:0:0:0:0:
64,192,17772,128,0,18795:0:0:0:0:
192,192,19476,1,0,0:0:0:50:LR_Kick Bass strong fast.wav
320,192,19476,1,0,0:0:0:0:
64,192,19704,1,0,0:0:0:0:
192,192,19817,1,0,0:0:0:10:jingle.wav
448,192,20045,1,0,0:0:0:0:
320,192,20158,1,0,0:0:0:35:LR_Kick Bass strong fast.wav
192,192,20158,1,0,0:0:0:0:
64,192,20386,1,0,0:0:0:0:
320,192,20499,1,0,0:0:0:10:jingle.wav
448,192,20726,1,0,0:0:0:0:
192,192,20840,1,0,0:0:0:50:LR_Kick Bass strong fast.wav
64,192,20840,1,0,0:0:0:0:
448,192,21067,1,0,0:0:0:0:
320,192,21181,1,0,0:0:0:10:jingle.wav
192,192,21408,1,0,0:0:0:0:
64,192,21522,1,0,0:0:0:35:LR_Kick Bass strong fast.wav
448,192,21522,128,0,21863:0:0:0:0:
320,192,21749,1,0,0:0:0:0:
64,192,21863,128,0,22204:0:0:0:10:jingle.wav
192,192,22090,1,0,0:0:0:0:
320,192,22204,128,0,22545:0:0:0:50:LR_Kick Bass strong fast.wav
448,192,22204,1,0,0:0:0:0:
64,192,22431,1,0,0:0:0:0:
192,192,22545,128,0,22886:0:0:0:10:jingle.wav
320,192,22772,1,0,0:0:0:0:
448,192,22886,128,0,23567:0:0:0:35:LR_Kick Bass strong fast.wav
64,192,22886,1,0,0:0:0:0:
192,192,23113,1,0,0:0:0:0:
320,192,23226,1,0,0:0:0:10:jingle.wav
64,192,23454,1,0,0:0:0:0:
192,192,23567,1,0,0:0:0:50:LR_Kick Bass strong fast.wav
320,192,23567,1,0,0:0:0:0:
64,192,23795,1,0,0:0:0:0:
448,192,23908,1,0,0:0:0:10:jingle.wav
192,192,24136,1,0,0:0:0:0:
448,192,24249,1,0,0:0:0:35:LR_Kick Bass strong fast.wav
320,192,24249,1,0,0:0:0:0:
64,192,24476,1,0,0:0:0:0:
192,192,24590,1,0,0:0:0:10:jingle.wav
448,192,24817,1,0,0:0:0:0:
192,192,24931,1,0,0:0:0:50:LR_Kick Bass strong fast.wav
64,192,24931,1,0,0:0:0:0:
320,192,25158,1,0,0:0:0:0:
448,192,25272,1,0,0:0:0:10:jingle.wav
192,192,25499,1,0,0:0:0:0:
64,192,25613,1,0,0:0:0:35:LR_Kick Bass strong fast.wav
448,192,25613,1,0,0:0:0:0:
320,192,25840,1,0,0:0:0:0:
192,192,25954,1,0,0:0:0:10:jingle.wav
64,192,26181,1,0,0:0:0:0:
320,192,26295,1,0,0:0:0:50:LR_Kick Bass strong fast.wav
448,192,26295,1,0,0:0:0:0:
64,192,26522,1,0,0:0:0:0:
192,192,26636,1,0,0:0:0:10:jingle.wav
320,192,26863,1,0,0:0:0:0:
448,192,26976,128,0,27317:0:0:0:35:LR_Kick Bass strong fast.wav
64,192,26976,1,0,0:0:0:0:
320,192,27204,1,0,0:0:0:0:
64,192,27317,128,0,27658:0:0:0:10:jingle.wav
192,192,27545,1,0,0:0:0:0:
320,192,27658,128,0,27999:0:0:0:50:LR_Kick Bass strong fast.wav
448,192,27658,1,0,0:0:0:0:
64,192,27886,1,0,0:0:0:0:
192,192,27999,128,0,28340:0:0:0:10:jingle.wav
320,192,28226,1,0,0:0:0:0:
448,192,28340,128,0,29022:0:0:0:35:LR_Kick Bass strong fast.wav
64,192,28340,1,0,0:0:0:0:
192,192,28567,1,0,0:0:0:0:
320,192,28681,1,0,0:0:0:10:jingle.wav
192,192,28908,1,0,0:0:0:0:
320,192,29022,1,0,0:0:0:50:LR_Kick Bass strong fast.wav
64,192,29022,1,0,0:0:0:0:
192,192,29249,1,0,0:0:0:0:
320,192,29363,1,0,0:0:0:10:jingle.wav
448,192,29590,1,0,0:0:0:0:
192,192,29704,1,0,0:0:0:35:LR_Kick Bass strong fast.wav
64,192,29704,1,0,0:0:0:0:
320,192,29931,1,0,0:0:0:0:
448,192,30045,1,0,0:0:0:10:jingle.wav
64,192,30272,1,0,0:0:0:0:
320,192,30386,1,0,0:0:0:50:LR_Kick Bass strong fast.wav
448,192,30386,1,0,0:0:0:0:
192,192,30613,1,0,0:0:0:0:
320,192,30726,1,0,0:0:0:10:jingle.wav
64,192,30954,1,0,0:0:0:0:
448,192,31067,1,0,0:0:0:35:LR_Kick Bass strong fast.wav
320,192,31067,1,0,0:0:0:0:
192,192,31295,1,0,0:0:0:0:
64,192,31408,1,0,0:0:0:10:jingle.wav
448,192,31636,1,0,0:0:0:0:
192,192,31749,1,0,0:0:0:50:LR_Kick Bass strong fast.wav
64,192,31749,1,0,0:0:0:0:
320,192,31976,1,0,0:0:0:0:
64,192,32090,1,0,0:0:0:10:jingle.wav
192,192,32317,1,0,0:0:0:0:
320,192,32431,1,0,0:0:0:35:LR_Kick Bass strong fast.wav
448,192,32431,128,0,32772:0:0:0:0:
192,192,32658,1,0,0:0:0:0:
320,192,32772,128,0,33113:0:0:0:10:jingle.wav
64,192,32999,1,0,0:0:0:0:
192,192,33113,128,0,33454:0:0:0:50:LR_Kick Bass strong fast.wav
448,192,33113,1,0,0:0:0:0:
320,192,33340,1,0,0:0:0:0:
64,192,33454,128,0,33795:0:0:0:10:jingle.wav
192,192,33681,1,0,0:0:0:0:
448,192,33795,128,0,34136:0:0:0:35:LR_Kick Bass strong fast.wav
320,192,33795,1,0,0:0:0:0:
192,192,34022,1,0,0:0:0:0:
320,192,34136,128,0,34476:0:0:0:10:jingle.wav
448,192,34363,1,0,0:0:0:0:
192,192,34476,1,0,0:0:0:50:LR_Kick Bass strong fast.wav
64,192,34476,128,0,35158:0:0:0:0:
320,192,34704,1,0,0:0:0:0:
192,192,34817,1,0,0:0:0:10:jingle.wav
320,192,35045,1,0,0:0:0:0:
192,192,35158,128,0,35840:0:0:0:35:LR_Kick Bass strong fast.wav
448,192,35158,1,0,0:0:0:0:
320,192,35386,1,0,0:0:0:0:
64,192,35499,1,0,0:0:0:10:jingle.wav
448,192,35726,1,0,0:0:0:0:
320,192,35840,1,0,0:0:0:50:LR_Kick Bass strong fast.wav
64,192,35840,1,0,0:0:0:0:
320,192,36067,1,0,0:0:0:0:
192,192,36181,1,0,0:0:0:10:jingle.wav
320,192,36408,1,0,0:0:0:0:
448,192,36522,1,0,0:0:0:35:LR_Kick Bass strong fast.wav
64,192,36522,1,0,0:0:0:0:
320,192,36749,1,0,0:0:0:0:
192,192,36863,1,0,0:0:0:10:jingle.wav
448,192,37090,1,0,0:0:0:0:
192,192,37204,1,0,0:0:0:50:LR_Kick Bass strong fast.wav
320,192,37204,1,0,0:0:0:0:
64,192,37431,1,0,0:0:0:0:
192,192,37545,1,0,0:0:0:10:jingle.wav
448,192,37772,1,0,0:0:0:0:
320,192,37886,1,0,0:0:0:35:LR_Kick Bass strong fast.wav
64,192,37886,1,0,0:0:0:0:
192,192,38113,1,0,0:0:0:0:
448,192,38226,1,0,0:0:0:10:jingle.wav
320,192,38454,1,0,0:0:0:0:
64,192,38567,1,0,0:0:0:35:LR_Kick Bass strong fast.wav
448,192,38567,128,0,39761:0:0:0:70:LR_Drum Crush FInish.wav
320,192,39761,1,0,0:0:0:15:snare.wav
192,192,39846,1,0,0:0:0:20:snare.wav
64,192,39931,1,0,0:0:0:25:snare.wav
64,192,40272,1,0,0:0:0:40:hihat.wav
448,192,40442,1,0,0:0:0:15:snare.wav
320,192,40528,1,0,0:0:0:20:snare.wav
192,192,40613,1,0,0:0:0:25:snare.wav
64,192,40613,1,0,0:0:0:50:LR_Kick Bass strong fast.wav
320,192,40840,1,0,0:0:0:15:snare.wav
448,192,40954,1,0,0:0:0:50:LR_Kick Bass strong fast.wav
192,192,40954,1,0,0:0:0:30:snare.wav
64,192,41181,1,0,0:0:0:15:snare.wav
320,192,41295,1,0,0:0:0:70:LR_Drum Crush FInish.wav
192,192,41295,1,0,0:0:0:50:LR_Kick Bass strong fast.wav
448,192,41522,1,0,0:0:0:0:
64,192,41636,1,0,0:0:0:70:LR_Hit Med Click.wav
192,192,41863,1,0,0:0:0:0:
320,192,41976,1,0,0:0:0:35:snare.wav
448,192,41976,1,0,0:0:0:0:
64,192,42204,1,0,0:0:0:0:
448,192,42317,1,0,0:0:0:70:LR_Hit Med Click.wav
320,192,42545,1,0,0:0:0:0:
192,192,42658,1,0,0:0:0:50:LR_Kick Bass strong fast.wav
64,192,42658,1,0,0:0:0:0:
192,192,42886,1,0,0:0:0:0:
448,192,42999,1,0,0:0:0:70:LR_Hit Med Click.wav
320,192,43226,1,0,0:0:0:0:
448,192,43340,1,0,0:0:0:35:snare.wav
64,192,43340,128,0,43681:0:0:0:0:
192,192,43567,1,0,0:0:0:0:
320,192,43681,128,0,44022:0:0:0:70:LR_Hit Med Click.wav
192,192,43908,1,0,0:0:0:0:
448,192,44022,128,0,44363:0:0:0:50:LR_Kick Bass strong fast.wav
64,192,44022,1,0,0:0:0:0:
320,192,44249,1,0,0:0:0:0:
192,192,44363,128,0,44704:0:0:0:70:LR_Hit Med Click.wav
320,192,44590,1,0,0:0:0:0:
448,192,44704,1,0,0:0:0:35:snare.wav
64,192,44704,128,0,45386:0:0:0:0:
192,192,44931,1,0,0:0:0:0:
448,192,45045,1,0,0:0:0:70:LR_Hit Med Click.wav
320,192,45272,1,0,0:0:0:0:
192,192,45386,1,0,0:0:0:50:LR_Kick Bass strong fast.wav
448,192,45386,1,0,0:0:0:0:
320,192,45613,1,0,0:0:0:0:
64,192,45726,1,0,0:0:0:70:LR_Hit Med Click.wav
192,192,45954,1,0,0:0:0:0:
320,192,46067,1,0,0:0:0:35:snare.wav
64,192,46067,1,0,0:0:0:0:
448,192,46295,1,0,0:0:0:0:
320,192,46408,1,0,0:0:0:70:LR_Hit Med Click.wav
64,192,46636,1,0,0:0:0:0:
192,192,46749,1,0,0:0:0:50:LR_Kick Bass strong fast.wav
448,192,46749,1,0,0:0:0:0:
320,192,46976,1,0,0:0:0:0:
64,192,47090,1,0,0:0:0:70:LR_Hit Med Click.wav
448,192,47317,1,0,0:0:0:0:
192,192,47431,1,0,0:0:0:35:snare.wav
64,192,47431,1,0,0:0:0:0:
320,192,47658,1,0,0:0:0:0:
448,192,47772,1,0,0:0:0:70:LR_Hit Med Click.wav
64,192,47999,1,0,0:0:0:0:
320,192,48113,1,0,0:0:0:50:LR_Kick Bass strong fast.wav
192,192,48113,1,0,0:0:0:0:
448,192,48340,1,0,0:0:0:0:
192,192,48454,1,0,0:0:0:70:LR_Hit Med Click.wav
64,192,48681,1,0,0:0:0:0:
448,192,48795,1,0,0:0:0:35:snare.wav
192,192,48795,128,0,49136:0:0:0:0:
320,192,49022,1,0,0:0:0:0:
448,192,49136,128,0,49476:0:0:0:70:LR_Hit Med Click.wav
64,192,49363,1,0,0:0:0:0:
320,192,49476,128,0,49817:0:0:0:50:LR_Kick Bass strong fast.wav
192,192,49476,1,0,0:0:0:0:
448,192,49704,1,0,0:0:0:0:
192,192,49817,128,0,50158:0:0:0:70:LR_Hit Med Click.wav
64,192,50045,1,0,0:0:0:0:
320,192,50158,1,0,0:0:0:35:snare.wav
448,192,50158,128,0,50840:0:0:0:0:
320,192,50386,1,0,0:0:0:0:
64,192,50499,1,0,0:0:0:70:LR_Hit Med Click.wav
192,192,50726,1,0,0:0:0:0:
320,192,50840,1,0,0:0:0:50:LR_Kick Bass strong fast.wav
64,192,50840,1,0,0:0:0:0:
192,192,51067,1,0,0:0:0:0:
448,192,51181,1,0,0:0:0:70:LR_Hit Med Click.wav
320,192,51408,1,0,0:0:0:0:
448,192,51522,1,0,0:0:0:35:snare.wav
64,192,51522,1,0,0:0:0:0:
192,192,51749,1,0,0:0:0:0:
320,192,51863,1,0,0:0:0:70:LR_Hit Med Click.wav
448,192,52090,1,0,0:0:0:0:
192,192,52204,1,0,0:0:0:50:LR_Kick Bass strong fast.wav
64,192,52204,1,0,0:0:0:0:
320,192,52431,1,0,0:0:0:0:
448,192,52545,1,0,0:0:0:70:LR_Hit Med Click.wav
192,192,52772,1,0,0:0:0:0:
320,192,52886,1,0,0:0:0:35:snare.wav
64,192,52886,1,0,0:0:0:70:LR_Drum Crush FInish.wav
192,192,53113,1,0,0:0:0:0:
320,192,53226,1,0,0:0:0:70:LR_Hit Med Click.wav
192,192,53454,1,0,0:0:0:0:
448,192,53567,1,0,0:0:0:50:LR_Kick Bass strong fast.wav
64,192,53567,1,0,0:0:0:0:
448,192,53795,1,0,0:0:0:0:
64,192,53908,1,0,0:0:0:70:LR_Hit Med Click.wav
320,192,54136,1,0,0:0:0:0:
192,192,54249,1,0,0:0:0:35:snare.wav
448,192,54249,128,0,54590:0:0:0:0:
64,192,54476,1,0,0:0:0:0:
192,192,54590,128,0,54931:0:0:0:70:LR_Hit Med Click.wav
320,192,54817,1,0,0:0:0:0:
64,192,54931,1,0,0:0:0:50:LR_Kick Bass strong fast.wav
448,192,54931,128,0,55272:0:0:0:0:
320,192,55158,1,0,0:0:0:0:
192,192,55272,128,0,55613:0:0:0:70:LR_Hit Med Click.wav
448,192,55499,1,0,0:0:0:0:
320,192,55613,1,0,0:0:0:35:snare.wav
64,192,55613,128,0,55954:0:0:0:0:
192,192,55840,1,0,0:0:0:0:
448,192,55954,128,0,56295:0:0:0:70:LR_Hit Med Click.wav
320,192,56181,1,0,0:0:0:0:
192,192,56295,128,0,56976:0:0:0:50:LR_Kick Bass strong fast.wav
64,192,56295,1,0,0:0:0:0:
320,192,56522,1,0,0:0:0:0:
448,192,56636,1,0,0:0:0:70:LR_Hit Med Click.wav
64,192,56863,1,0,0:0:0:0:
320,192,56976,1,0,0:0:0:35:snare.wav
448,192,56976,128,0,57658:0:0:0:0:
64,192,57204,1,0,0:0:0:0:
192,192,57317,1,0,0:0:0:70:LR_Hit Med Click.wav
320,192,57545,1,0,0:0:0:0:
192,192,57658,1,0,0:0:0:50:LR_Kick Bass strong fast.wav
64,192,57658,128,0,59363:0:0:0:0:
320,192,57886,1,0,0:0:0:0:
192,192,57999,1,0,0:0:0:70:LR_Hit Med Click.wav
448,192,58226,1,0,0:0:0:0:
320,192,58340,1,0,0:0:0:35:snare.wav
192,192,58340,1,0,0:0:0:0:
448,192,58567,1,0,0:0:0:0:
320,192,58681,1,0,0:0:0:70:LR_Hit Med Click.wav
192,192,58908,1,0,0:0:0:0:
320,192,59022,1,0,0:0:0:50:LR_Kick Bass strong fast.wav
448,192,59022,1,0,0:0:0:0:
192,192,59249,1,0,0:0:0:0:
448,192,59363,1,0,0:0:0:70:LR_Hit Med Click.wav
192,192,59590,1,0,0:0:0:0:
448,192,59704,1,0,0:0:0:35:snare.wav
64,192,59704,1,0,0:0:0:0:
320,192,59931,1,0,0:0:0:0:
192,192,60045,1,0,0:0:0:70:LR_Hit Med Click.wav
64,192,60272,1,0,0:0:0:0:
192,192,60386,1,0,0:0:0:50:LR_Kick Bass strong fast.wav
448,192,60386,1,0,0:0:0:0:
320,192,60499,1,0,0:0:0:0:
192,192,60613,1,0,0:0:0:0:
64,192,60726,1,0,0:0:0:70:LR_Hit Med Click.wav
192,192,60840,1,0,0:0:0:0:
320,192,60954,1,0,0:0:0:0:
448,192,61067,1,0,0:0:0:35:snare.wav
64,192,61067,1,0,0:0:0:0:
448,192,61295,1,0,0:0:0:0:
320,192,61408,1,0,0:0:0:70:LR_Hit Med Click.wav
64,192,61636,1,0,0:0:0:0:
192,192,61749,1,0,0:0:0:50:LR_Kick Bass strong fast.wav
448,192,61749,1,0,0:0:0:0:
320,192,61976,1,0,0:0:0:0:
192,192,62090,1,0,0:0:0:70:LR_Hit Med Click.wav
320,192,62317,1,0,0:0:0:0:
64,192,62431,1,0,0:0:0:35:snare.wav
448,192,62431,1,0,0:0:0:0:
320,192,62658,1,0,0:0:0:0:
192,192,62772,1,0,0:0:0:70:LR_Hit Med Click.wav
448,192,62772,1,0,0:0:0:50:LR_Kick Bass strong fast.wav
64,192,63113,128,0,63795:0:0:0:70:LR_Drum Crush FInish.wav
192,192,63340,1,0,0:0:0:0:
320,192,63454,1,0,0:0:0:20:hihat.wav
448,192,63681,1,0,0:0:0:0:
192,192,63795,1,0,0:0:0:50:LR_Kick Bass strong fast.wav
320,192,63795,1,0,0:0:0:0:
448,192,64022,1,0,0:0:0:0:
320,192,64136,1,0,0:0:0:20:hihat.wav
64,192,64363,1,0,0:0:0:0:
192,192,64476,1,0,0:0:0:70:LR_Hit Med Click.wav
320,192,64704,1,0,0:0:0:0:
192,192,64817,1,0,0:0:0:20:hihat.wav
64,192,65045,1,0,0:0:0:0:
320,192,65158,1,0,0:0:0:50:LR_Kick Bass strong fast.wav
448,192,65158,1,0,0:0:0:0:
192,192,65386,1,0,0:0:0:0:
64,192,65499,1,0,0:0:0:20:hihat.wav
320,192,65726,1,0,0:0:0:0:
448,192,65840,1,0,0:0:0:0:
64,192,66067,1,0,0:0:0:0:
192,192,66181,1,0,0:0:0:20:hihat.wav
448,192,66408,1,0,0:0:0:0:
64,192,66522,1,0,0:0:0:50:LR_Kick Bass strong fast.wav
320,192,66522,1,0,0:0:0:0:
192,192,66749,1,0,0:0:0:0:
64,192,66863,1,0,0:0:0:20:hihat.wav
320,192,67090,1,0,0:0:0:0:
448,192,67204,1,0,0:0:0:70:LR_Hit Med Click.wav
64,192,67431,1,0,0:0:0:0:
192,192,67545,1,0,0:0:0:20:hihat.wav
320,192,67772,1,0,0:0:0:0:
64,192,67886,1,0,0:0:0:50:LR_Kick Bass strong fast.wav
192,192,67886,1,0,0:0:0:0:
320,192,68113,1,0,0:0:0:0:
448,192,68226,1,0,0:0:0:20:hihat.wav
64,192,68454,1,0,0:0:0:0:
192,192,68567,1,0,0:0:0:0:
448,192,68795,1,0,0:0:0:0:
192,192,68908,1,0,0:0:0:20:hihat.wav
64,192,69136,1,0,0:0:0:0:
320,192,69249,1,0,0:0:0:50:LR_Kick Bass strong fast.wav
448,192,69249,1,0,0:0:0:0:
192,192,69476,1,0,0:0:0:0:
64,192,69590,1,0,0:0:0:20:hihat.wav
192,192,69817,1,0,0:0:0:0:
320,192,69931,1,0,0:0:0:70:LR_Hit Med Click.wav
448,192,70158,1,0,0:0:0:0:
320,192,70272,1,0,0:0:0:20:hihat.wav
192,192,70499,1,0,0:0:0:0:
448,192,70613,1,0,0:0:0:50:LR_Kick Bass strong fast.wav
320,192,70613,1,0,0:0:0:0:
192,192,70840,1,0,0:0:0:0:
64,192,70954,1,0,0:0:0:20:hihat.wav
320,192,71181,1,0,0:0:0:0:
192,192,71295,1,0,0:0:0:0:
64,192,71408,1,0,0:0:0:0:
448,192,71522,1,0,0:0:0:0:
320,192,71636,1,0,0:0:0:20:hihat.wav
448,192,71749,1,0,0:0:0:0:
192,192,71863,1,0,0:0:0:0:
64,192,71976,1,0,0:0:0:50:LR_Kick Bass strong fast.wav
320,192,71976,1,0,0:0:0:0:
192,192,72204,1,0,0:0:0:0:
448,192,72317,1,0,0:0:0:20:hihat.wav
320,192,72545,1,0,0:0:0:0:
192,192,72658,1,0,0:0:0:0:
64,192,72829,1,0,0:0:0:15:snare.wav
192,192,72914,1,0,0:0:0:20:snare.wav
320,192,72999,1,0,0:0:0:25:snare.wav
448,192,73226,1,0,0:0:0:15:snare.wav
64,192,73340,1,0,0:0:0:30:snare.wav
192,192,73340,1,0,0:0:0:40:claps.wav
320,192,73567,1,0,0:0:0:0:
64,192,73681,1,0,0:0:0:70:LR_Drum Crush FInish.wav
448,192,73681,128,0,74022:0:0:0:0:
192,192,73908,1,0,0:0:0:0:
64,192,74022,1,0,0:0:0:0:
192,192,74249,1,0,0:0:0:0:
320,192,74363,1,0,0:0:0:20:hihat.wav
448,192,74590,1,0,0:0:0:0:
320,192,74704,1,0,0:0:0:50:LR_Kick Bass strong fast.wav
64,192,74704,1,0,0:0:0:0:
192,192,74931,1,0,0:0:0:0:
448,192,75045,1,0,0:0:0:20:hihat.wav
320,192,75272,1,0,0:0:0:0:
64,192,75386,1,0,0:0:0:70:LR_Hit Med Click.wav
192,192,75613,1,0,0:0:0:0:
448,192,75726,1,0,0:0:0:20:hihat.wav
320,192,75954,1,0,0:0:0:0:
64,192,76067,1,0,0:0:0:50:LR_Kick Bass strong fast.wav
192,192,76067,1,0,0:0:0:0:
448,192,76295,1,0,0:0:0:0:
320,192,76408,1,0,0:0:0:20:hihat.wav
64,192,76636,1,0,0:0:0:0:
192,192,76749,1,0,0:0:0:0:
320,192,76976,1,0,0:0:0:0:
448,192,77090,1,0,0:0:0:20:hihat.wav
192,192,77317,1,0,0:0:0:0:
320,192,77431,1,0,0:0:0:50:LR_Kick Bass strong fast.wav
64,192,77431,1,0,0:0:0:0:
192,192,77658,1,0,0:0:0:0:
448,192,77772,1,0,0:0:0:20:hihat.wav
64,192,77999,1,0,0:0:0:0:
192,192,78113,1,0,0:0:0:70:LR_Hit Med Click.wav
320,192,78340,1,0,0:0:0:0:
448,192,78454,1,0,0:0:0:20:hihat.wav
320,192,78681,1,0,0:0:0:0:
192,192,78795,1,0,0:0:0:50:LR_Kick Bass strong fast.wav
64,192,78795,1,0,0:0:0:0:
448,192,79022,1,0,0:0:0:0:
320,192,79136,1,0,0:0:0:20:hihat.wav
192,192,79363,1,0,0:0:0:0:
448,192,79476,1,0,0:0:0:0:
320,192,79590,1,0,0:0:0:0:
192,192,79647,1,0,0:0:0:0:
64,192,79704,1,0,0:0:0:0:
448,192,79817,1,0,0:0:0:20:hihat.wav
64,192,80045,1,0,0:0:0:0:
448,192,80158,1,0,0:0:0:50:LR_Kick Bass strong fast.wav
320,192,80158,1,0,0:0:0:0:
192,192,80386,1,0,0:0:0:0:
64,192,80499,1,0,0:0:0:20:hihat.wav
320,192,80726,1,0,0:0:0:0:
448,192,80840,1,0,0:0:0:70:LR_Hit Med Click.wav
320,192,81067,1,0,0:0:0:0:
192,192,81181,1,0,0:0:0:20:hihat.wav
448,192,81408,1,0,0:0:0:0:
192,192,81522,1,0,0:0:0:50:LR_Kick Bass strong fast.wav
64,192,81522,1,0,0:0:0:0:
320,192,81749,1,0,0:0:0:0:
448,192,81863,1,0,0:0:0:20:hihat.wav
64,192,82033,1,0,0:0:0:30:snare.wav
192,192,82118,1,0,0:0:0:35:snare.wav
320,192,82204,1,0,0:0:0:40:snare.wav
448,192,82204,1,0,0:0:0:0:
64,192,82431,1,0,0:0:0:0:
192,192,82545,1,0,0:0:0:20:hihat.wav
448,192,82715,1,0,0:0:0:30:snare.wav
320,192,82800,1,0,0:0:0:35:snare.wav
192,192,82886,1,0,0:0:0:40:snare.wav
64,192,82886,1,0,0:0:0:0:
64,192,83113,1,0,0:0:0:0:
448,192,83226,1,0,0:0:0:20:hihat.wav
320,192,83397,1,0,0:0:0:30:snare.wav
192,192,83482,1,0,0:0:0:35:snare.wav
448,192,83567,1,0,0:0:0:40:snare.wav
64,192,83567,1,0,0:0:0:0:
320,192,83795,1,0,0:0:0:0:
448,192,83908,1,0,0:0:0:20:hihat.wav
64,192,84136,1,0,0:0:0:20:snare.wav
192,192,84136,1,0,0:0:0:0:
448,192,84249,1,0,0:0:0:30:snare.wav
320,192,84249,1,0,0:0:0:0:
192,192,84476,1,0,0:0:0:20:snare.wav
64,192,84590,1,0,0:0:0:30:snare.wav
320,192,84590,1,0,0:0:0:20:hihat.wav
448,192,84817,1,0,0:0:0:30:snare.wav
192,192,84817,1,0,0:0:0:0:
320,192,84931,1,0,0:0:0:10:hihat.wav
64,192,85158,1,0,0:0:0:20:snare.wav
448,192,85272,1,0,0:0:0:20:snare.wav
192,192,85442,1,0,0:0:0:30:snare.wav
320,192,85528,1,0,0:0:0:35:snare.wav
448,192,85613,1,0,0:0:0:40:snare.wav
192,192,85840,1,0,0:0:0:35:snare.wav
64,192,85954,1,0,0:0:0:40:snare.wav
192,192,86295,1,0,0:0:0:50:LR_Kick Bass strong fast.wav
320,192,86295,1,0,0:0:0:0:
64,192,86522,1,0,0:0:0:0:
448,192,86635,1,0,0:0:0:70:LR_Hit Med Click.wav
320,192,86863,1,0,0:0:0:0:
192,192,86976,1,0,0:0:0:35:snare.wav
64,192,86976,1,0,0:0:0:0:
448,192,87204,1,0,0:0:0:0:
192,192,87317,1,0,0:0:0:70:LR_Hit Med Click.wav
64,192,87545,1,0,0:0:0:0:
320,192,87658,1,0,0:0:0:50:LR_Kick Bass strong fast.wav
448,192,87658,1,0,0:0:0:0:
192,192,87885,1,0,0:0:0:0:
64,192,87999,1,0,0:0:0:70:LR_Hit Med Click.wav
320,192,88226,1,0,0:0:0:0:
64,192,88340,1,0,0:0:0:35:snare.wav
448,192,88340,1,0,0:0:0:0:
192,192,88567,1,0,0:0:0:0:
320,192,88681,1,0,0:0:0:70:LR_Hit Med Click.wav
448,192,88908,1,0,0:0:0:0:
192,192,89022,1,0,0:0:0:50:LR_Kick Bass strong fast.wav
64,192,89022,1,0,0:0:0:0:
448,192,89249,1,0,0:0:0:0:
320,192,89363,1,0,0:0:0:70:LR_Hit Med Click.wav
192,192,89590,1,0,0:0:0:0:
320,192,89704,1,0,0:0:0:35:snare.wav
448,192,89704,128,0,90385:0:0:0:0:
64,192,89931,1,0,0:0:0:0:
192,192,90045,1,0,0:0:0:70:LR_Hit Med Click.wav
320,192,90272,1,0,0:0:0:0:
192,192,90385,1,0,0:0:0:50:LR_Kick Bass strong fast.wav
64,192,90385,1,0,0:0:0:0:
320,192,90613,1,0,0:0:0:0:
192,192,90726,1,0,0:0:0:70:LR_Hit Med Click.wav
448,192,90954,1,0,0:0:0:0:
192,192,91067,1,0,0:0:0:35:snare.wav
64,192,91067,1,0,0:0:0:0:
320,192,91295,1,0,0:0:0:0:
448,192,91408,1,0,0:0:0:70:LR_Hit Med Click.wav
192,192,91635,1,0,0:0:0:0:
448,192,91749,1,0,0:0:0:50:LR_Kick Bass strong fast.wav
64,192,91749,1,0,0:0:0:0:
320,192,91976,1,0,0:0:0:0:
192,192,92090,1,0,0:0:0:70:LR_Hit Med Click.wav
64,192,92317,1,0,0:0:0:0:
320,192,92431,1,0,0:0:0:35:snare.wav
448,192,92431,1,0,0:0:0:0:
192,192,92658,1,0,0:0:0:0:
320,192,92772,1,0,0:0:0:70:LR_Hit Med Click.wav
64,192,92999,1,0,0:0:0:0:
320,192,93113,1,0,0:0:0:50:LR_Kick Bass strong fast.wav
192,192,93113,1,0,0:0:0:0:
64,192,93340,1,0,0:0:0:0:
448,192,93454,1,0,0:0:0:70:LR_Hit Med Click.wav
192,192,93681,1,0,0:0:0:0:
320,192,93795,1,0,0:0:0:35:snare.wav
64,192,93795,1,0,0:0:0:0:
448,192,94022,1,0,0:0:0:0:
64,192,94135,1,0,0:0:0:70:LR_Hit Med Click.wav
192,192,94363,1,0,0:0:0:0:
320,192,94476,1,0,0:0:0:50:LR_Kick Bass strong fast.wav
448,192,94476,1,0,0:0:0:0:
192,192,94704,1,0,0:0:0:0:
64,192,94817,1,0,0:0:0:70:LR_Hit Med Click.wav
448,192,95045,1,0,0:0:0:0:
64,192,95158,1,0,0:0:0:35:snare.wav
320,192,95158,128,0,95840:0:0:0:0:
448,192,95385,1,0,0:0:0:0:
192,192,95499,1,0,0:0:0:70:LR_Hit Med Click.wav
64,192,95726,1,0,0:0:0:0:
448,192,95840,1,0,0:0:0:50:LR_Kick Bass strong fast.wav
192,192,95840,1,0,0:0:0:0:
320,192,96067,1,0,0:0:0:0:
64,192,96181,1,0,0:0:0:70:LR_Hit Med Click.wav
448,192,96408,1,0,0:0:0:0:
64,192,96522,1,0,0:0:0:35:snare.wav
192,192,96522,1,0,0:0:0:0:
320,192,96749,1,0,0:0:0:0:
448,192,96863,1,0,0:0:0:70:LR_Hit Med Click.wav
192,192,97090,1,0,0:0:0:0:
448,192,97204,1,0,0:0:0:100:LR_Drum Crush FInish.wav
320,192,97204,1,0,0:0:0:50:LR_Kick Bass strong fast.wav
192,192,97431,1,0,0:0:0:0:
64,192,97545,1,0,0:0:0:70:LR_Hit Med Click.wav
448,192,97772,1,0,0:0:0:0:
64,192,97885,1,0,0:0:0:35:snare.wav
320,192,97885,1,0,0:0:0:0:
192,192,98113,1,0,0:0:0:0:
320,192,98226,1,0,0:0:0:70:LR_Hit Med Click.wav
64,192,98454,1,0,0:0:0:0:
192,192,98567,1,0,0:0:0:50:LR_Kick Bass strong fast.wav
448,192,98567,1,0,0:0:0:0:
320,192,98795,1,0,0:0:0:0:
192,192,98908,1,0,0:0:0:70:LR_Hit Med Click.wav
448,192,99135,1,0,0:0:0:0:
64,192,99249,1,0,0:0:0:35:snare.wav
320,192,99249,1,0,0:0:0:0:
448,192,99476,1,0,0:0:0:0:
192,192,99590,1,0,0:0:0:70:LR_Hit Med Click.wav
64,192,99817,1,0,0:0:0:0:
320,192,99931,1,0,0:0:0:50:LR_Kick Bass strong fast.wav
192,192,99931,1,0,0:0:0:0:
64,192,100158,1,0,0:0:0:0:
448,192,100272,1,0,0:0:0:70:LR_Hit Med Click.wav
320,192,100499,1,0,0:0:0:0:
64,192,100613,1,0,0:0:0:35:snare.wav
192,192,100613,128,0,101295:0:0:0:0:
448,192,100840,1,0,0:0:0:0:
320,192,100954,1,0,0:0:0:70:LR_Hit Med Click.wav
64,192,101181,1,0,0:0:0:0:
320,192,101295,1,0,0:0:0:50:LR_Kick Bass strong fast.wav
448,192,101295,1,0,0:0:0:0:
192,192,101522,1,0,0:0:0:0:
64,192,101635,1,0,0:0:0:70:LR_Hit Med Click.wav
320,192,101863,1,0,0:0:0:0:
448,192,101976,1,0,0:0:0:35:snare.wav
192,192,101976,1,0,0:0:0:0:
320,192,102204,1,0,0:0:0:0:
64,192,102317,1,0,0:0:0:70:LR_Hit Med Click.wav
192,192,102545,1,0,0:0:0:0:
448,192,102658,1,0,0:0:0:50:LR_Kick Bass strong fast.wav
320,192,102658,1,0,0:0:0:0:
64,192,102885,1,0,0:0:0:0:
192,192,102999,1,0,0:0:0:70:LR_Hit Med Click.wav
320,192,103226,1,0,0:0:0:0:
448,192,103340,1,0,0:0:0:35:snare.wav
64,192,103340,1,0,0:0:0:0:
192,192,103567,1,0,0:0:0:0:
320,192,103681,1,0,0:0:0:70:LR_Hit Med Click.wav
448,192,103908,1,0,0:0:0:0:
192,192,104022,1,0,0:0:0:50:LR_Kick Bass strong fast.wav
64,192,104022,1,0,0:0:0:0:
448,192,104249,1,0,0:0:0:0:
320,192,104363,1,0,0:0:0:70:LR_Hit Med Click.wav
64,192,104590,1,0,0:0:0:0:
320,192,104704,1,0,0:0:0:35:snare.wav
448,192,104704,1,0,0:0:0:0:
192,192,104931,1,0,0:0:0:0:
64,192,105045,1,0,0:0:0:70:LR_Hit Med Click.wav
320,192,105272,1,0,0:0:0:0:
192,192,105385,1,0,0:0:0:50:LR_Kick Bass strong fast.wav
448,192,105385,1,0,0:0:0:0:
320,192,105613,1,0,0:0:0:0:
64,192,105726,1,0,0:0:0:70:LR_Hit Med Click.wav
192,192,105840,1,0,0:0:0:0:
448,192,105954,1,0,0:0:0:0:
320,192,106067,1,0,0:0:0:35:snare.wav
64,192,106067,128,0,107431:0:0:0:0:
192,192,106295,1,0,0:0:0:0:
448,192,106408,1,0,0:0:0:70:LR_Hit Med Click.wav
320,192,106635,1,0,0:0:0:0:
448,192,106749,1,0,0:0:0:0:
192,192,106976,1,0,0:0:0:0:
448,192,107090,1,0,0:0:0:70:LR_Hit Med Click.wav
320,192,107090,1,0,0:0:0:50:LR_Kick Bass strong fast.wav
448,192,107317,1,0,0:0:0:0:
192,192,107431,1,0,0:0:0:35:snare.wav
320,192,107431,1,0,0:0:0:0:
64,192,107658,1,0,0:0:0:0:
192,192,107772,1,0,0:0:0:70:LR_Hit Med Click.wav
448,192,107772,1,0,0:0:0:35:snare.wav
320,192,107999,1,0,0:0:0:0:
448,192,108113,1,0,0:0:0:35:LR_Kick Bass strong fast.wav
64,192,108113,1,0,0:0:0:0:
320,192,108340,1,0,0:0:0:0:
192,192,108454,1,0,0:0:0:70:LR_Hit Med Click.wav
448,192,108681,1,0,0:0:0:0:
64,192,108795,1,0,0:0:0:35:snare.wav
192,192,108795,1,0,0:0:0:0:
320,192,109022,1,0,0:0:0:0:
192,192,109135,1,0,0:0:0:70:LR_Hit Med Click.wav
64,192,109363,1,0,0:0:0:0:
320,192,109476,1,0,0:0:0:50:LR_Kick Bass strong fast.wav
448,192,109476,1,0,0:0:0:0:
64,192,109704,1,0,0:0:0:0:
192,192,109817,1,0,0:0:0:70:LR_Hit Med Click.wav
320,192,110045,1,0,0:0:0:0:
448,192,110158,1,0,0:0:0:35:snare.wav
192,192,110158,1,0,0:0:0:0:
64,192,110385,1,0,0:0:0:0:
320,192,110499,1,0,0:0:0:70:LR_Hit Med Click.wav
192,192,110726,1,0,0:0:0:0:
64,192,110840,1,0,0:0:0:35:LR_Kick Bass strong fast.wav
448,192,110840,1,0,0:0:0:0:
192,192,111067,1,0,0:0:0:0:
320,192,111181,1,0,0:0:0:70:LR_Hit Med Click.wav
448,192,111408,1,0,0:0:0:0:
320,192,111522,1,0,0:0:0:35:snare.wav
192,192,111522,128,0,112204:0:0:0:0:
448,192,111749,1,0,0:0:0:0:
64,192,111863,1,0,0:0:0:70:LR_Hit Med Click.wav
320,192,112090,1,0,0:0:0:0:
64,192,112204,1,0,0:0:0:50:LR_Kick Bass strong fast.wav
448,192,112204,1,0,0:0:0:0:
320,192,112431,1,0,0:0:0:0:
192,192,112545,1,0,0:0:0:70:LR_Hit Med Click.wav
448,192,112772,1,0,0:0:0:0:
64,192,112885,1,0,0:0:0:35:snare.wav
320,192,112885,1,0,0:0:0:0:
192,192,113113,1,0,0:0:0:0:
64,192,113226,1,0,0:0:0:70:LR_Hit Med Click.wav
320,192,113454,1,0,0:0:0:0:
448,192,113567,1,0,0:0:0:35:LR_Kick Bass strong fast.wav
192,192,113567,1,0,0:0:0:0:
64,192,113795,1,0,0:0:0:0:
192,192,113908,1,0,0:0:0:70:LR_Hit Med Click.wav
320,192,114135,1,0,0:0:0:0:
448,192,114249,1,0,0:0:0:35:snare.wav
64,192,114249,1,0,0:0:0:0:
192,192,114476,1,0,0:0:0:0:
448,192,114590,1,0,0:0:0:70:LR_Hit Med Click.wav
320,192,114817,1,0,0:0:0:0:
192,192,114931,1,0,0:0:0:50:LR_Kick Bass strong fast.wav
64,192,114931,1,0,0:0:0:0:
448,192,115158,1,0,0:0:0:0:
192,192,115272,1,0,0:0:0:70:LR_Hit Med Click.wav
64,192,115499,1,0,0:0:0:0:
320,192,115613,1,0,0:0:0:35:snare.wav
192,192,115613,1,0,0:0:0:0:
448,192,115840,1,0,0:0:0:0:
320,192,115954,1,0,0:0:0:70:LR_Hit Med Click.wav
64,192,116181,1,0,0:0:0:0:
448,192,116295,1,0,0:0:0:35:LR_Kick Bass strong fast.wav
192,192,116295,1,0,0:0:0:0:
320,192,116522,1,0,0:0:0:0:
64,192,116635,1,0,0:0:0:70:LR_Hit Med Click.wav
320,192,116863,1,0,0:0:0:0:
448,192,116976,1,0,0:0:0:35:snare.wav
192,192,116976,128,0,117658:0:0:0:0:
64,192,117204,1,0,0:0:0:0:
320,192,117317,1,0,0:0:0:70:LR_Hit Med Click.wav
448,192,117545,1,0,0:0:0:0:
320,192,117658,1,0,0:0:0:50:LR_Kick Bass strong fast.wav
64,192,117658,1,0,0:0:0:0:
448,192,117885,1,0,0:0:0:0:
192,192,117999,1,0,0:0:0:70:LR_Hit Med Click.wav
64,192,118226,1,0,0:0:0:0:
320,192,118340,1,0,0:0:0:35:snare.wav
448,192,118340,1,0,0:0:0:0:
192,192,118567,1,0,0:0:0:0:
64,192,118681,1,0,0:0:0:70:LR_Hit Med Click.wav
448,192,118908,1,0,0:0:0:0:
192,192,119022,1,0,0:0:0:35:LR_Kick Bass strong fast.wav
320,192,119022,1,0,0:0:0:100:LR_Drum Crush FInish.wav
64,192,119249,1,0,0:0:0:0:
192,192,119363,1,0,0:0:0:70:LR_Hit Med Click.wav
320,192,119590,1,0,0:0:0:0:
64,192,119704,1,0,0:0:0:35:snare.wav
448,192,119704,1,0,0:0:0:0:
192,192,119931,1,0,0:0:0:0:
320,192,120045,1,0,0:0:0:70:LR_Hit Med Click.wav
192,192,120272,1,0,0:0:0:0:
448,192,120385,1,0,0:0:0:50:LR_Kick Bass strong fast.wav
64,192,120385,1,0,0:0:0:0:
320,192,120613,1,0,0:0:0:0:
192,192,120726,1,0,0:0:0:70:LR_Hit Med Click.wav
64,192,120954,1,0,0:0:0:0:
448,192,121067,1,0,0:0:0:35:snare.wav
320,192,121067,1,0,0:0:0:0:
192,192,121295,1,0,0:0:0:0:
320,192,121408,1,0,0:0:0:70:LR_Hit Med Click.wav
448,192,121635,1,0,0:0:0:0:
192,192,121749,1,0,0:0:0:35:LR_Kick Bass strong fast.wav
64,192,121749,1,0,0:0:0:0:
320,192,121976,1,0,0:0:0:0:
192,192,122090,1,0,0:0:0:70:LR_Hit Med Click.wav
448,192,122317,1,0,0:0:0:0:
64,192,122431,1,0,0:0:0:35:snare.wav
320,192,122431,128,0,123113:0:0:0:0:
192,192,122658,1,0,0:0:0:0:
448,192,122772,1,0,0:0:0:70:LR_Hit Med Click.wav
192,192,122999,1,0,0:0:0:0:
64,192,123113,1,0,0:0:0:50:LR_Kick Bass strong fast.wav
448,192,123113,1,0,0:0:0:0:
320,192,123340,1,0,0:0:0:0:
448,192,123454,1,0,0:0:0:70:LR_Hit Med Click.wav
64,192,123681,1,0,0:0:0:0:
192,192,123795,1,0,0:0:0:35:snare.wav
320,192,123795,1,0,0:0:0:0:
448,192,124022,1,0,0:0:0:0:
320,192,124135,1,0,0:0:0:70:LR_Hit Med Click.wav
192,192,124363,1,0,0:0:0:0:
64,192,124476,1,0,0:0:0:35:LR_Kick Bass strong fast.wav
320,192,124476,1,0,0:0:0:0:
448,192,124704,1,0,0:0:0:0:
192,192,124817,1,0,0:0:0:70:LR_Hit Med Click.wav
64,192,125045,1,0,0:0:0:0:
192,192,125158,1,0,0:0:0:35:snare.wav
448,192,125158,1,0,0:0:0:0:
320,192,125385,1,0,0:0:0:0:
64,192,125499,1,0,0:0:0:70:LR_Hit Med Click.wav
448,192,125726,1,0,0:0:0:0:
192,192,125840,1,0,0:0:0:50:LR_Kick Bass strong fast.wav
64,192,125840,1,0,0:0:0:0:
320,192,126067,1,0,0:0:0:0:
192,192,126181,1,0,0:0:0:70:LR_Hit Med Click.wav
64,192,126408,1,0,0:0:0:0:
320,192,126522,1,0,0:0:0:35:snare.wav
448,192,126522,1,0,0:0:0:0:
64,192,126749,1,0,0:0:0:0:
192,192,126863,1,0,0:0:0:70:LR_Hit Med Click.wav
448,192,127090,1,0,0:0:0:0:
192,192,127204,1,0,0:0:0:70:LR_Drum Crush FInish.wav
64,192,127204,1,0,0:0:0:0:
320,192,127317,1,0,0:0:0:0:
448,192,127431,1,0,0:0:0:0:
320,192,127545,1,0,0:0:0:70:LR_Hit Med Click.wav
64,192,127658,1,0,0:0:0:0:
192,192,127772,1,0,0:0:0:0:
64,192,127885,1,0,0:0:0:50:LR_Kick Bass strong fast.wav
448,192,127885,128,0,128567:0:0:0:0:
192,192,128113,1,0,0:0:0:0:
320,192,128226,1,0,0:0:0:70:LR_Hit Med Click.wav
192,192,128454,1,0,0:0:0:0:
64,192,128567,1,0,0:0:0:50:LR_Hit Med Click.wav
192,192,128795,1,0,0:0:0:0:
448,192,128908,1,0,0:0:0:70:LR_Hit Med Click.wav
320,192,129135,1,0,0:0:0:0:
192,192,129249,1,0,0:0:0:50:LR_Kick Bass strong fast.wav
64,192,129249,1,0,0:0:0:0:
448,192,129476,1,0,0:0:0:0:
320,192,129590,1,0,0:0:0:70:LR_Hit Med Click.wav
192,192,129817,1,0,0:0:0:0:
448,192,129931,1,0,0:0:0:70:LR_Drum Crush FInish.wav
64,192,130158,1,0,0:0:0:0:
448,192,130272,1,0,0:0:0:70:LR_Hit Med Click.wav
192,192,130385,1,0,0:0:0:0:
320,192,130499,1,0,0:0:0:0:
192,192,130613,1,0,0:0:0:50:LR_Kick Bass strong fast.wav
64,192,130613,128,0,131295:0:0:0:0:
448,192,130840,1,0,0:0:0:0:
192,192,130954,1,0,0:0:0:70:LR_Hit Med Click.wav
320,192,131181,1,0,0:0:0:0:
448,192,131295,1,0,0:0:0:70:LR_Hit Med Click.wav
192,192,131522,1,0,0:0:0:0:
320,192,131635,1,0,0:0:0:50:LR_Kick Bass strong fast.wav
64,192,131635,1,0,0:0:0:70:LR_Hit Med Click.wav
448,192,131863,1,0,0:0:0:0:
192,192,131976,1,0,0:0:0:50:LR_Kick Bass strong fast.wav
64,192,131976,1,0,0:0:0:0:
320,192,132204,1,0,0:0:0:0:
448,192,132317,1,0,0:0:0:50:LR_Kick Bass strong fast.wav
192,192,132317,1,0,0:0:0:70:LR_Hit Med Click.wav
64,192,132545,1,0,0:0:0:0:
320,192,132658,1,0,0:0:0:70:LR_Drum Crush FInish.wav
448,192,132658,128,0,135385:0:0:0:0:
64,192,135385,1,0,0:0:0:0:
192,192,135442,1,0,0:0:0:0:
320,192,135499,1,0,0:0:0:0:
448,192,135556,128,0,137431:0:0:0:0:
64,192,137431,1,0,0:0:0:40:snare.wav
192,192,137431,1,0,0:0:0:0:
