osu file format v14

[General]
AudioFilename: audio.mp3
AudioLeadIn: 0
PreviewTime: 95476
Countdown: 0
SampleSet: Soft
StackLeniency: 0.5
Mode: 0
LetterboxInBreaks: 0
WidescreenStoryboard: 0

[Editor]
Bookmarks: 22,10931,19112,27294,30022,51840,73658,96840,143203,148658,170476,192294,215476,256385,259112,280930,301385
DistanceSpacing: 0.5
BeatDivisor: 8
GridSize: 32
TimelineZoom: 2.1

[Metadata]
Title:Indigo Bird
TitleUnicode:Indigo Bird
Artist:Sana feat. Nekomata Master
ArtistUnicode:Sana feat. 猫叉Master
Creator:Mir
Version:Flight
Source:
Tags:extended ver swing raindrops KONAMI♪MUSICフル KONAMI 新谷早苗 佐藤直之
BeatmapID:1571394
BeatmapSetID:738331

[Difficulty]
HPDrainRate:5
CircleSize:5
OverallDifficulty:8
ApproachRate:9
SliderMultiplier:2.8
SliderTickRate:1

[Events]
//Background and Video events
0,0,"ruins.jpg",0,0
//Break Periods
//Storyboard Layer 0 (Background)
//Storyboard Layer 1 (Fail)
//Storyboard Layer 2 (Pass)
//Storyboard Layer 3 (Foreground)
//Storyboard Sound Samples

[TimingPoints]
22,681.818181818182,4,2,1,30,1,0
22,-125,4,2,1,30,0,0
27294,-200,4,2,1,20,0,0
30022,-100,4,2,1,40,0,0
73658,-166.666666666667,4,2,1,30,0,0
96840,681.818181818182,4,2,1,60,1,1
96840,-83.3333333333333,4,2,1,60,0,1
118544,-83.3333333333333,4,2,1,60,0,0
118658,-83.3333333333333,4,2,1,60,0,1
137749,-100,4,2,1,60,0,1
143203,-200,4,2,1,30,0,0
148658,-125,4,2,1,30,0,0
167749,-200,4,2,1,30,0,0
169112,-100,4,2,1,40,0,0
192294,-166.666666666667,4,2,1,40,0,0
215476,681.818181818182,4,2,1,60,1,1
215476,-83.3333333333333,4,2,1,60,0,1
237180,-83.3333333333333,4,2,1,60,0,0
237294,-83.3333333333333,4,2,1,60,0,1
256385,-100,4,2,1,60,0,0
293203,-100,4,2,1,55,0,0
294566,-100,4,2,1,50,0,0
295930,-100,4,2,1,40,0,0
297294,-100,4,2,1,30,0,0
298657,-100,4,2,1,10,0,0
300064,-100,4,2,1,5,0,0

[Colours]
Combo1 : 243,236,194
Combo2 : 197,240,245
Combo3 : 247,221,241
Combo4 : 236,251,215

[HitObjects]
265,176,22,6,0,P|267:139|257:104,1,74.6666666666667,2|2,0:2|0:0,0:2:0:0:
249,88,362,1,0,0:0:0:0:
167,140,589,1,2,0:2:0:0:
157,156,703,2,0,P|146:191|148:228,1,74.6666666666667,0|0,0:2|0:0,0:2:0:0:
158,244,1044,1,0,0:2:0:0:
325,329,1272,1,0,0:2:0:0:
307,323,1385,6,0,P|271:327|219:346,1,74.6666666666667,2|2,0:2|0:0,0:2:0:0:
222,353,1726,1,2,0:2:0:0:
88,255,1953,1,2,0:2:0:0:
105,248,2067,2,0,P|141:252|193:271,1,74.6666666666667,0|0,0:2|0:0,0:2:0:0:
188,278,2408,1,0,0:2:0:0:
0,309,2635,1,0,0:2:0:0:
6,291,2749,6,0,P|16:227|17:202,1,74.6666666666667,2|2,0:2|0:0,0:2:0:0:
13,190,3090,1,2,0:2:0:0:
45,103,3317,1,2,0:2:0:0:
63,102,3431,2,0,L|151:97,1,74.6666666666667,0|0,0:2|0:0,0:2:0:0:
154,104,3772,2,0,L|228:108,1,74.6666666666667,2|0,0:2|0:0,0:2:0:0:
336,63,4112,6,0,P|342:120|343:150,1,74.6666666666667,2|2,0:2|0:0,0:2:0:0:
332,152,4453,1,0,0:2:0:0:
441,235,4681,1,2,0:2:0:0:
425,225,4794,2,0,L|330:218,1,74.6666666666667,0|0,0:2|0:0,0:2:0:0:
337,232,5135,2,0,L|262:237,1,74.6666666666667,0|2,0:2|0:0,0:2:0:0:
191,210,5476,6,0,P|190:258|208:293,1,74.6666666666667,2|2,0:2|0:0,0:2:0:0:
215,292,5817,1,2,0:2:0:0:
129,303,6044,1,2,0:2:0:0:
116,316,6158,2,0,B|21:307,1,74.6666666666667,0|0,0:2|0:0,0:2:0:0:
29,294,6499,2,0,B|124:285,1,74.6666666666667,0|0,0:2|0:0,0:2:0:0:
114,208,6840,6,0,P|114:159|91:106,1,74.6666666666667,2|2,0:2|0:0,0:2:0:0:
95,119,7181,1,2,0:2:0:0:
201,13,7408,1,2,0:2:0:0:
191,29,7522,2,0,P|182:65|183:102,1,74.6666666666667,0|0,0:2|0:0,0:2:0:0:
194,117,7863,1,0,0:2:0:0:
321,36,8090,1,0,0:2:0:0:
329,52,8203,6,0,B|342:89|342:89|329:149,1,74.6666666666667,2|2,0:2|0:0,0:2:0:0:
328,141,8544,1,2,0:2:0:0:
421,160,8772,1,2,0:2:0:0:
414,176,8885,2,0,B|406:210|406:210|419:247,1,74.6666666666667,0|0,0:2|0:0,0:2:0:0:
428,264,9226,2,0,B|435:298|435:298|422:335,1,74.6666666666667,2|0,0:2|0:0,0:2:0:0:
300,351,9567,6,0,P|261:317|216:300,1,74.6666666666667,2|2,0:2|0:0,0:2:0:0:
222,301,9908,1,0,0:2:0:0:
235,222,10135,1,2,0:2:0:0:
212,218,10249,2,0,P|180:235|153:261,1,74.6666666666667,0|0,0:2|0:0,0:2:0:0:
137,272,10590,2,0,P|110:246|77:228,1,74.6666666666667,0|2,0:2|0:0,0:2:0:0:
46,146,10931,6,0,L|63:51,1,74.6666666666667,2|2,0:2|0:0,0:2:0:0:
64,64,11272,1,2,0:2:0:0:
160,95,11499,1,2,0:2:0:0:
164,113,11612,2,0,L|177:186,1,74.6666666666667,0|0,0:2|0:0,0:2:0:0:
195,186,11953,2,0,L|181:259,1,74.6666666666667,0|0,0:2|0:0,0:2:0:0:
186,277,12294,5,2,0:2:0:0:
302,274,12522,1,2,0:2:0:0:
319,268,12635,1,2,0:2:0:0:
342,348,12862,1,2,0:2:0:0:
359,341,12976,2,0,B|403:327|403:327|462:339,1,74.6666666666667,0|0,0:2|0:0,0:2:0:0:
478,315,13317,2,0,B|434:301|434:301|375:313,1,74.6666666666667,0|0,0:2|0:0,0:2:0:0:
429,227,13658,6,0,L|440:141,1,74.6666666666667,2|2,0:2|0:0,0:2:0:0:
430,135,13999,1,2,0:2:0:0:
292,60,14226,1,2,0:2:0:0:
308,69,14340,2,0,P|386:73|401:68,1,74.6666666666667,0|0,0:2|0:0,0:2:0:0:
350,157,14681,2,0,P|312:154|276:162,1,74.6666666666667,2|0,0:2|0:0,0:2:0:0:
212,221,15022,6,0,L|187:131,1,74.6666666666667,2|0,0:2|0:0,0:2:0:0:
184,132,15362,1,0,0:2:0:0:
89,93,15590,1,2,0:2:0:0:
83,110,15703,2,0,L|63:181,1,74.6666666666667,0|0,0:2|0:0,0:2:0:0:
47,192,16044,2,0,L|66:263,1,74.6666666666667,0|2,0:2|0:0,0:2:0:0:
137,317,16385,6,0,P|206:313|233:331,1,74.6666666666667,2|2,0:2|0:0,0:2:0:0:
222,326,16726,1,2,0:2:0:0:
265,244,16953,1,2,0:2:0:0:
274,260,17067,2,0,P|310:267|345:257,1,74.6666666666667,0|0,0:2|0:0,0:2:0:0:
350,239,17408,1,0,0:2:0:0:
441,168,17635,5,0,0:2:0:0:
456,178,17749,2,0,L|450:277,1,74.6666666666667,2|2,0:2|0:0,0:2:0:0:
437,265,18090,1,2,0:2:0:0:
458,354,18317,1,2,0:2:0:0:
440,347,18431,2,0,P|377:337|350:344,1,74.6666666666667,2|0,0:2|0:0,0:2:0:0:
349,343,18772,2,0,P|286:353|259:346,1,74.6666666666667,2|0,0:2|0:0,0:2:0:0:
261,339,19112,5,2,0:2:0:0:
197,248,19340,1,2,0:2:0:0:
202,265,19453,1,2,0:2:0:0:
105,269,19681,1,2,0:2:0:0:
110,252,19794,2,0,P|120:201|118:159,1,74.6666666666667,0|0,0:2|0:0,0:2:0:0:
102,173,20135,2,0,P|92:122|94:80,1,74.6666666666667,2|0,0:2|0:0,0:2:0:0:
103,84,20476,5,2,0:2:0:0:
194,36,20703,1,0,0:2:0:0:
204,51,20817,1,2,0:2:0:0:
297,54,21044,1,2,0:2:0:0:
308,70,21158,2,0,L|296:172,1,74.6666666666667,0|0,0:2|0:0,0:2:0:0:
280,145,21499,2,0,L|292:247,1,74.6666666666667,2|0,0:2|0:0,0:2:0:0:
305,226,21840,5,2,0:2:0:0:
285,327,22067,1,0,0:2:0:0:
277,309,22181,1,2,0:2:0:0:
384,361,22408,1,2,0:2:0:0:
392,344,22522,2,0,P|442:327|484:327,1,74.6666666666667,0|0,0:2|0:0,0:2:0:0:
481,319,22862,2,0,P|431:302|389:302,1,74.6666666666667,2|0,0:2|0:0,0:2:0:0:
391,303,23203,5,2,0:2:0:0:
305,226,23431,1,0,0:2:0:0:
313,243,23544,1,2,0:2:0:0:
382,171,23772,1,2,0:2:0:0:
391,154,23885,2,0,P|397:101|397:66,1,74.6666666666667,0|0,0:2|0:0,0:2:0:0:
379,74,24226,2,0,P|373:21|373:-14,1,74.6666666666667,2|0,0:2|0:0,0:2:0:0:
391,3,24567,5,2,0:2:0:0:
279,42,24794,1,0,0:2:0:0:
262,51,24908,1,2,0:2:0:0:
132,43,25135,1,2,0:2:0:0:
148,51,25249,2,0,P|153:108|139:149,1,74.6666666666667,0|0,0:2|0:0,0:2:0:0:
134,136,25590,2,0,P|129:193|143:234,1,74.6666666666667,2|0,0:2|0:0,0:2:0:0:
138,227,25931,5,2,0:2:0:0:
260,258,26158,1,0,0:2:0:0:
269,241,26272,1,2,0:2:0:0:
344,160,26499,1,2,0:2:0:0:
335,143,26612,2,0,P|334:90|348:40,1,74.6666666666667,0|0,0:2|0:0,0:2:0:0:
356,73,26953,2,0,P|357:20|343:-30,1,74.6666666666667,2|0,0:2|0:0,0:2:0:0:
265,38,27294,6,0,P|205:36|181:27,1,70,2|2,0:2|0:0,0:2:0:0:
119,0,27862,2,0,L|136:105,1,93.3333333333333,2|2,0:2|0:0,0:2:0:0:
320,236,30022,6,0,P|236:232|203:247,1,93.3333333333333,2|2,3:2|0:0,0:2:0:0:
162,290,30363,1,2,0:2:0:0:
125,169,30591,1,0,0:2:0:0:
144,155,30704,2,0,L|157:46,1,93.3333333333333,0|0,3:2|0:0,0:2:0:0:
45,120,31045,2,0,L|56:212,1,93.3333333333333,0|0,0:2|0:0,0:2:0:0:
162,290,31386,6,0,P|98:284|40:349,1,140,0|0,3:2|0:0,0:2:0:0:
216,352,31954,1,0,0:2:0:0:
232,335,32068,2,0,P|241:276|228:233,1,93.3333333333333,2|0,3:2|0:0,0:2:0:0:
297,210,32409,2,0,P|288:151|301:108,1,93.3333333333333,0|0,0:2|0:0,0:2:0:0:
512,179,32750,6,0,L|370:167,1,140,2|2,3:2|0:0,0:2:0:0:
334,47,33318,1,0,0:2:0:0:
353,33,33432,2,0,P|417:27|453:32,1,93.3333333333333,0|0,3:2|0:0,0:2:0:0:
304,110,33772,2,0,P|240:116|204:111,1,93.3333333333333,0|0,0:2|0:0,0:2:0:0:
122,69,34113,6,0,L|137:200,1,93.3333333333333,2|0,3:2|0:0,0:2:0:0:
143,237,34454,1,0,0:2:0:0:
221,336,34682,1,0,0:2:0:0:
204,319,34795,2,0,P|134:315|98:321,1,93.3333333333333,2|0,3:2|0:0,0:2:0:0:
15,295,35136,2,0,P|85:291|121:297,1,93.3333333333333,0|0,0:2|0:0,0:2:0:0:
273,360,35476,6,0,P|281:310|245:240,1,93.3333333333333,2|2,3:2|0:0,0:2:0:0:
220,207,35818,1,2,0:2:0:0:
362,282,36045,1,0,0:2:0:0:
385,280,36159,2,0,L|494:269,2,93.3333333333333,0|0|0,3:2|0:0|0:0,0:2:0:0:
326,210,36841,6,0,P|307:155|317:103,1,93.3333333333333,2|0,3:2|0:0,0:2:0:0:
335,52,37182,1,0,0:2:0:0:
124,76,37409,1,0,0:2:0:0:
140,92,37522,2,0,B|179:102|179:102|258:87,1,93.3333333333333,2|0,3:2|0:0,0:2:0:0:
152,178,37863,2,0,B|113:168|113:168|34:183,1,93.3333333333333,2|0,0:2|0:0,0:2:0:0:
115,337,38203,6,0,L|107:234,1,93.3333333333333,2|0,3:2|0:0,0:2:0:0:
223,211,38545,2,0,L|215:304,1,93.3333333333333,2|0,0:2|0:0,0:2:0:0:
292,360,38886,2,0,P|348:361|420:303,1,140,2|0,3:2|0:0,0:2:0:0:
383,197,39454,1,0,0:2:0:0:
401,210,39568,6,0,P|451:216|506:212,1,93.3333333333333,0|0,3:2|0:0,0:2:0:0:
390,127,39909,2,0,P|340:133|285:129,1,93.3333333333333,0|0,0:2|0:0,0:2:0:0:
222,87,40250,1,0,3:2:0:0:
340,15,40477,1,0,0:2:0:0:
350,36,40591,1,0,0:2:0:0:
494,66,40818,1,0,0:2:0:0:
484,89,40932,6,0,L|496:206,1,93.3333333333333,2|2,3:2|0:0,0:2:0:0:
484,203,41272,1,2,0:2:0:0:
415,316,41500,1,0,0:2:0:0:
394,305,41613,2,0,P|447:278|500:288,1,93.3333333333333,0|0,3:2|0:0,0:2:0:0:
354,237,41954,2,0,P|301:210|248:220,1,93.3333333333333,0|0,0:2|0:0,0:2:0:0:
185,298,42295,6,0,L|167:141,1,140,0|0,3:2|0:0,0:2:0:0:
59,70,42863,1,0,0:2:0:0:
78,82,42977,2,0,P|145:82|183:68,1,93.3333333333333,2|0,3:2|0:0,0:2:0:0:
228,19,43318,2,0,P|273:29|319:26,1,93.3333333333333,0|0,0:2|0:0,0:2:0:0:
472,67,43659,6,0,P|424:59|369:153,1,140,2|2,3:2|0:0,0:2:0:0:
437,246,44227,1,0,0:2:0:0:
455,231,44341,2,0,L|445:128,1,93.3333333333333,0|0,3:2|0:0,0:2:0:0:
349,199,44682,2,0,L|358:291,1,93.3333333333333,0|0,0:2|0:0,0:2:0:0:
285,349,45022,6,0,B|224:311|213:375|131:329,1,140,2|0,3:2|0:0,0:2:0:0:
170,171,45591,1,0,0:2:0:0:
189,183,45704,2,0,P|197:246|169:293,1,93.3333333333333,2|0,3:2|0:0,0:2:0:0:
102,211,46045,2,0,P|88:166|99:121,1,93.3333333333333,0|0,0:2|0:2,0:2:0:0:
4,300,46386,6,0,L|127:291,1,93.3333333333333,2|2,3:2|0:2,0:2:0:0:
110,312,46727,1,2,0:2:0:0:
219,250,46954,1,0,0:2:0:0:
237,264,47068,2,0,L|330:270,1,93.3333333333333,0|0,3:2|0:2,0:2:0:0:
345,253,47409,2,0,P|355:194|335:155,1,93.3333333333333,0|0,0:2|0:2,0:2:0:0:
174,77,47750,6,0,L|335:67,1,140,2|0,3:2|0:2,0:2:0:0:
100,25,48318,1,0,0:2:0:0:
87,44,48432,2,0,P|88:116|108:147,1,93.3333333333333,2|0,3:2|0:2,0:2:0:0:
59,200,48772,2,0,P|58:272|38:303,1,93.3333333333333,2|0,0:2|0:2,0:2:0:0:
3,341,49113,6,0,L|0:382,2,35,6|2|2,3:2|0:2|0:2,0:2:0:0:
219,203,50307,5,0,0:2:0:0:
219,203,50392,1,0,0:2:0:0:
219,203,50477,2,0,B|270:199|270:199|301:212|301:212|362:206,1,140,8|0,0:2|0:2,0:2:0:0:
492,290,50988,5,0,0:2:0:0:
492,290,51073,1,0,0:2:0:0:
492,290,51158,2,0,B|440:286|440:286|389:316,1,93.3333333333333,8|0,0:2|0:2,0:2:0:0:
289,366,51500,2,0,B|340:362|340:362|392:392,1,93.3333333333333,0|0,3:2|0:2,0:2:0:0:
485,384,51841,6,0,L|495:264,1,93.3333333333333,4|0,3:2|0:0,0:2:0:0:
436,165,52182,2,0,L|502:159,1,46.6666666666667,2|0,0:2|0:0,0:2:0:0:
354,170,52409,1,0,0:2:0:0:
336,185,52522,6,0,P|323:257|334:294,1,93.3333333333333,8|0,0:2|0:0,0:2:0:0:
436,165,52863,2,0,L|502:159,1,46.6666666666667,2|0,0:2|0:0,0:2:0:0:
370,96,53091,1,0,0:2:0:0:
349,85,53204,6,0,P|288:126|270:160,1,93.3333333333333,0|0,3:2|0:0,0:2:0:0:
436,165,53545,2,0,L|502:159,1,46.6666666666667,2|0,0:2|0:0,0:2:0:0:
512,53,53772,1,0,0:2:0:0:
505,30,53886,6,0,P|433:17|396:28,1,93.3333333333333,8|0,0:2|0:0,0:2:0:0:
436,165,54227,2,0,L|502:159,2,46.6666666666667,2|0|0,0:2|0:0|0:0,0:2:0:0:
349,85,54568,6,0,P|269:77|226:107,1,93.3333333333333,0|0,3:2|0:0,0:2:0:0:
181,193,54909,2,0,L|187:262,1,46.6666666666667,2|0,0:2|0:0,0:2:0:0:
47,319,55136,1,0,0:2:0:0:
59,338,55250,6,0,P|139:346|182:316,1,93.3333333333333,8|0,0:2|0:0,0:2:0:0:
181,193,55591,2,0,L|187:262,1,46.6666666666667,2|0,0:2|0:0,0:2:0:0:
363,191,55818,1,0,0:2:0:0:
353,212,55931,6,0,P|273:220|230:190,1,93.3333333333333,0|0,3:2|0:0,0:2:0:0:
181,193,56272,2,0,L|187:262,1,46.6666666666667,2|0,0:2|0:0,0:2:0:0:
0,201,56500,1,0,0:2:0:0:
11,220,56612,6,0,P|91:228|134:198,1,93.3333333333333,8|0,0:2|0:0,0:2:0:0:
185,239,56953,2,0,L|181:193,1,46.6666666666667,2|0,0:2|0:0,0:2:0:0:
78,114,57181,1,0,0:2:0:0:
90,94,57294,6,0,P|133:70|204:75,1,93.3333333333333,0|0,3:2|0:0,0:2:0:0:
272,122,57636,2,0,L|268:169,1,46.6666666666667,2|0,0:2|0:0,0:2:0:0:
383,72,57863,1,0,0:2:0:0:
371,51,57977,6,0,B|317:37|317:37|249:42,1,93.3333333333333,8|0,0:2|0:0,0:2:0:0:
272,122,58318,2,0,L|268:169,1,46.6666666666667,2|0,0:2|0:0,0:2:0:0:
78,114,58545,1,0,0:2:0:0:
90,93,58659,6,0,B|144:79|144:79|212:84,1,93.3333333333333,0|0,3:2|0:0,0:2:0:0:
272,122,59000,2,0,L|268:169,1,46.6666666666667,2|0,0:2|0:0,0:2:0:0:
338,231,59227,1,0,0:2:0:0:
351,249,59341,6,0,B|391:261|391:261|459:250,1,93.3333333333333,8|0,0:2|0:0,0:2:0:0:
268,169,59682,2,0,L|272:122,2,46.6666666666667,2|0|0,0:2|0:0|0:0,0:2:0:0:
132,263,60022,6,0,P|235:254|251:262,1,93.3333333333333,0|0,3:2|0:0,0:2:0:0:
73,315,60363,2,0,P|56:269|56:249,1,46.6666666666667,2|0,0:2|0:0,0:2:0:0:
57,95,60591,1,0,0:2:0:0:
76,107,60704,6,0,P|85:210|77:226,1,93.3333333333333,8|0,0:2|0:0,0:2:0:0:
73,315,61045,2,0,P|56:269|56:249,1,46.6666666666667,2|0,0:2|0:0,0:2:0:0:
243,276,61272,1,0,0:2:0:0:
221,249,61386,6,0,P|175:246|132:263,1,93.3333333333333,0|0,3:2|0:0,0:2:0:0:
73,315,61727,2,0,P|56:269|56:249,2,46.6666666666667,2|0|0,0:2|0:0|0:0,0:2:0:0:
305,321,62068,6,0,P|315:300|321:277,1,46.6666666666667,10|0,0:2|0:0,0:2:0:0:
272,164,62295,1,2,0:2:0:0:
286,182,62409,2,0,P|349:201|392:181,1,93.3333333333333,2|0,0:2|0:0,0:2:0:0:
387,51,62750,6,0,P|339:112|353:154,1,93.3333333333333,0|0,3:2|0:0,0:2:0:0:
469,132,63091,2,0,L|407:120,1,46.6666666666667,2|0,0:2|0:0,0:2:0:0:
321,248,63318,1,0,0:2:0:0:
286,182,63432,6,0,P|331:174|373:193,1,93.3333333333333,12|0,0:2|0:0,0:2:0:0:
469,132,63772,2,0,L|407:120,1,46.6666666666667,2|0,0:2|0:0,0:2:0:0:
420,289,64000,1,0,0:2:0:0:
438,302,64113,6,0,P|457:260|449:214,1,93.3333333333333,0|0,3:2|0:0,0:2:0:0:
469,132,64454,2,0,L|407:120,1,46.6666666666667,2|0,0:2|0:0,0:2:0:0:
273,162,64682,1,0,0:2:0:0:
286,182,64795,6,0,P|327:201|373:193,1,93.3333333333333,10|0,0:2|0:0,0:2:0:0:
469,132,65136,2,0,L|407:120,2,46.6666666666667,2|0|0,0:2|0:0|0:0,0:2:0:0:
449,214,65477,6,0,L|438:306,1,93.3333333333333,2|2,3:2|0:0,0:2:0:0:
349,235,65818,2,0,P|325:238|303:243,1,46.6666666666667,2|0,0:2|0:0,0:2:0:0:
237,195,66045,1,0,0:2:0:0:
226,173,66159,6,0,L|236:80,1,93.3333333333333,8|0,0:2|0:0,0:2:0:0:
349,235,66500,2,0,P|325:238|303:243,1,46.6666666666667,2|0,0:2|0:0,0:2:0:0:
438,192,66727,1,0,0:2:0:0:
449,214,66841,6,0,L|438:306,1,93.3333333333333,2|0,3:2|0:0,0:2:0:0:
348,235,67182,2,0,P|325:238|303:243,1,46.6666666666667,2|0,0:2|0:0,0:2:0:0:
241,315,67409,1,0,0:2:0:0:
224,297,67522,6,0,B|213:272|213:272|214:187,1,93.3333333333333,10|0,0:2|0:0,0:2:0:0:
302,243,67863,2,0,P|324:238|348:235,2,46.6666666666667,2|0|0,0:2|0:0|0:0,0:2:0:0:
295,100,68204,6,0,L|168:88,1,93.3333333333333,2|0,3:2|0:0,0:2:0:0:
92,62,68545,2,0,L|103:115,1,46.6666666666667,2|0,0:2|0:0,0:2:0:0:
47,205,68772,1,0,0:2:0:0:
67,216,68886,6,0,P|129:220|178:189,1,93.3333333333333,8|0,0:2|0:0,0:2:0:0:
92,62,69227,2,0,L|101:107,1,46.6666666666667,2|0,0:2|0:0,0:2:0:0:
252,188,69454,1,0,0:2:0:0:
232,199,69568,6,0,P|170:203|121:172,1,93.3333333333333,0|0,3:2|0:0,0:2:0:0:
101,107,69909,2,0,L|92:62,1,46.6666666666667,2|0,0:2|0:0,0:2:0:0:
287,52,70136,1,0,0:2:0:0:
263,50,70250,6,0,L|203:44,2,35,10|2|2,0:2|0:0|0:0,0:2:0:0:
101,107,70591,2,0,L|92:62,2,46.6666666666667,2|0|0,0:2|0:0|0:0,0:2:0:0:
263,50,70932,6,0,B|277:90|277:90|261:182,1,93.3333333333333,0|0,3:2|0:0,0:2:0:0:
237,271,71272,2,0,L|253:204,1,46.6666666666667,2|0,0:2|0:0,0:2:0:0:
430,246,71500,1,0,0:2:0:0:
413,262,71613,6,0,P|354:276|313:264,1,93.3333333333333,8|0,0:2|0:0,0:2:0:0:
237,271,71954,2,0,L|253:204,1,46.6666666666667,2|0,0:2|0:0,0:2:0:0:
161,162,72182,1,0,0:2:0:0:
178,146,72295,6,0,P|237:132|278:144,1,93.3333333333333,0|0,3:2|0:0,0:2:0:0:
247,225,72636,2,0,L|237:271,1,46.6666666666667,2|0,0:2|0:0,0:2:0:0:
286,207,72863,5,0,0:2:0:0:
254,218,72977,2,0,L|244:264,1,46.6666666666667,10|0,0:2|0:0,0:2:0:0:
129,253,73204,5,2,0:2:0:0:
117,273,73318,2,0,L|140:371,1,93.3333333333333,2|0,3:2|0:0,0:2:0:0:
251,353,73659,6,0,L|354:347,1,83.9999974365235,6|0,0:2|0:0,0:2:0:0:
398,307,74227,1,0,0:2:0:0:
406,296,74340,2,0,P|409:248|406:227,1,55.9999982910157,0|0,3:2|0:0,0:2:0:0:
397,230,74682,2,0,P|394:182|397:161,1,55.9999982910157,0|0,0:2|0:0,0:2:0:0:
402,162,75022,5,0,0:2:0:0:
460,105,75250,1,0,0:2:0:0:
450,94,75363,2,0,L|386:82,1,55.9999982910157,0|0,0:2|0:0,0:2:0:0:
382,89,75704,1,0,3:2:0:0:
286,88,75932,1,0,0:2:0:0:
273,94,76045,2,0,L|261:158,1,55.9999982910157,0|0,0:2|0:0,0:2:0:0:
243,221,76386,6,0,P|201:226|171:219,1,55.9999982910157,2|0,0:2|0:0,0:2:0:0:
174,229,76727,2,0,P|146:231|118:225,1,55.9999982910157,0|0,0:2|0:0,0:2:0:0:
108,147,77068,2,0,L|104:75,1,55.9999982910157,0|0,3:2|0:0,0:2:0:0:
94,82,77408,1,0,0:0:0:0:
40,192,77750,6,0,B|32:216|32:216|42:256,1,55.9999982910157,0|0,0:2|0:0,0:2:0:0:
51,252,78091,2,0,B|59:276|59:276|49:316,1,55.9999982910157,0|0,0:2|0:0,0:2:0:0:
46,318,78432,2,0,L|114:310,1,55.9999982910157,0|0,3:2|0:0,0:2:0:0:
112,320,78772,1,0,0:2:0:0:
280,281,79113,5,2,0:2:0:0:
267,274,79227,2,0,L|281:350,1,55.9999982910157,0|0,0:2|0:0,0:2:0:0:
245,201,79682,1,0,0:2:0:0:
256,193,79794,2,0,L|266:137,1,55.9999982910157,0|0,3:2|0:0,0:2:0:0:
256,127,80136,2,0,L|245:71,1,55.9999982910157,0|0,0:2|0:0,0:2:0:0:
243,58,80477,5,0,0:2:0:0:
151,42,80704,1,0,0:2:0:0:
141,52,80818,2,0,P|89:63|67:59,1,55.9999982910157,0|0,0:2|0:0,0:2:0:0:
72,61,81159,2,0,L|92:133,1,55.9999982910157,0|0,3:2|0:0,0:2:0:0:
95,125,81500,2,0,L|75:197,1,55.9999982910157,0|0,0:2|0:0,0:2:0:0:
104,323,81841,5,2,0:2:0:0:
108,302,82182,1,0,0:2:0:0:
121,302,82295,1,0,0:2:0:0:
135,302,82409,1,0,0:2:0:0:
148,303,82522,2,0,L|218:303,1,55.9999982910157,0|0,3:2|0:0,0:2:0:0:
218,303,82863,2,0,L|274:303,1,55.9999982910157,0|0,0:2|0:0,0:2:0:0:
315,234,83204,6,0,P|324:179|324:168,1,55.9999982910157,2|8,0:2|0:0,0:2:0:0:
297,110,83545,1,8,0:2:0:0:
193,166,83886,2,0,P|230:170|265:170,1,55.9999982910157,10|0,0:2|0:0,0:2:0:0:
297,110,84227,1,4,0:2:0:0:
66,59,84568,6,0,L|81:160,1,83.9999974365235,6|0,0:2|0:0,0:2:0:0:
0,230,85249,2,0,P|31:216|62:216,1,55.9999982910157,0|0,3:2|0:0,0:2:0:0:
61,225,85591,2,0,L|46:326,1,83.9999974365235,0|0,0:2|0:0,0:2:0:0:
48,308,86272,1,0,0:2:0:0:
120,364,86500,1,0,0:2:0:0:
117,350,86613,1,0,3:2:0:0:
183,309,86954,1,0,0:2:0:0:
251,342,87295,6,0,B|282:353|282:353|342:343,1,83.9999974365235,2|0,0:2|0:0,0:2:0:0:
366,208,87977,2,0,L|369:264,1,55.9999982910157,0|0,3:2|0:0,0:2:0:0:
380,272,88317,1,0,0:0:0:0:
421,147,88658,6,0,P|367:124|285:191,1,167.999994873047,2|2,0:2|3:2,0:2:0:0:
366,208,89681,1,0,0:2:0:0:
256,91,90022,6,0,B|228:79|228:79|157:86,1,83.9999974365235,2|0,0:2|0:0,0:2:0:0:
90,93,90591,1,0,0:2:0:0:
84,105,90704,2,0,L|97:180,1,55.9999982910157,0|0,0:2|0:0,0:2:0:0:
104,169,91045,2,0,L|91:244,1,55.9999982910157,0|0,0:2|0:0,0:2:0:0:
92,238,91386,1,0,0:2:0:0:
116,342,91727,1,0,0:2:0:0:
187,299,91954,1,0,0:2:0:0:
200,293,92068,6,0,P|243:289|271:296,1,55.9999982910157,0|0,0:2|0:0,0:2:0:0:
261,303,92409,2,0,P|288:300|314:302,1,41.9999987182618,0|8,0:2|0:0,0:2:0:0:
312,303,92664,1,8,0:2:0:0:
322,305,92750,5,10,3:2:0:0:
139,258,93091,1,0,0:2:0:0:
229,192,93261,1,8,0:2:0:0:
232,182,93346,1,8,0:2:0:0:
235,171,93432,5,2,3:2:0:0:
139,258,93772,1,0,0:2:0:0:
229,192,93942,1,8,0:2:0:0:
232,182,94027,1,8,0:2:0:0:
235,171,94112,5,2,3:2:0:0:
139,258,94454,1,0,0:2:0:0:
229,192,94624,1,8,0:2:0:0:
232,182,94709,1,8,0:2:0:0:
235,171,94794,6,0,L|252:107,1,55.9999982910157,2|0,3:2|0:0,0:2:0:0:
153,82,95136,2,0,L|167:136,1,55.9999982910157,0|0,0:2|3:0,0:2:0:0:
167,136,95704,1,0,0:2:0:0:
125,209,95988,2,0,L|119:239,2,20.9999993591309,0|0|0,0:2|0:0|0:0,0:2:0:0:
58,155,96386,1,0,0:2:0:0:
55,141,96500,1,4,0:3:0:0:
55,141,96841,6,0,L|216:133,1,111.999996582031,4|0,3:2|0:0,0:2:0:0:
217,70,97181,1,2,0:2:0:0:
239,251,97409,1,0,0:2:0:0:
218,232,97522,2,0,B|198:191|198:191|219:50,1,167.999994873047,8|2,0:2|0:0,0:2:0:0:
411,133,98091,1,0,0:2:0:0:
391,153,98204,6,0,L|279:158,1,111.999996582031,0|0,3:2|0:0,0:2:0:0:
216,69,98545,2,0,L|327:63,1,111.999996582031,2|0,0:2|0:0,0:2:0:0:
391,153,98886,1,8,0:2:0:0:
408,0,99113,2,0,B|375:33|375:33|393:165,1,167.999994873047,0|0,0:2|0:0,0:2:0:0:
478,280,99568,6,0,P|423:247|355:265,1,111.999996582031,0|0,3:2|0:0,0:2:0:0:
351,332,99908,1,2,0:2:0:0:
307,218,100136,1,0,0:2:0:0:
284,200,100250,2,0,P|229:197|183:228,1,111.999996582031,8|0,0:2|0:0,0:2:0:0:
240,384,100591,6,0,L|253:261,1,111.999996582031,2|0,0:2|0:0,0:2:0:0:
107,181,100931,2,0,B|97:220|97:220|118:292,1,111.999996582031,0|0,3:2|0:0,0:2:0:0:
216,153,101272,2,0,B|226:114|226:114|205:45,1,111.999996582031,2|0,0:2|0:0,0:2:0:0:
114,27,101613,1,8,0:2:0:0:
300,90,101841,1,0,0:2:0:0:
327,86,101954,2,0,L|456:71,1,111.999996582031,2|0,0:2|0:0,0:2:0:0:
495,162,102295,6,0,B|511:210|511:210|498:317,1,111.999996582031,0|0,3:2|0:0,0:2:0:0:
463,347,102636,1,2,0:2:0:0:
206,263,102863,1,0,0:2:0:0:
224,284,102977,2,0,B|304:323|304:243|407:291,1,167.999994873047,8|2,0:2|0:0,0:2:0:0:
284,120,103545,1,0,0:2:0:0:
275,147,103659,2,0,P|203:183|136:139,1,167.999994873047,0|2,3:2|0:0,0:2:0:0:
62,90,104170,6,0,L|48:191,2,83.9999974365235,0|8|0,0:2|0:0|0:0,0:2:0:0:
176,237,104681,1,2,0:2:0:0:
208,111,104852,1,0,0:2:0:0:
83,264,105022,6,0,P|164:255|217:328,1,167.999994873047,0|2,3:2|0:0,0:2:0:0:
23,333,105591,1,0,0:2:0:0:
7,309,105704,2,0,P|-1:248|27:197,1,111.999996582031,8|0,0:2|0:0,0:2:0:0:
89,66,106045,2,0,P|111:116|102:170,1,111.999996582031,2|0,0:2|0:0,0:2:0:0:
28,22,106386,5,0,3:2:0:0:
172,82,106613,1,0,0:2:0:0:
195,66,106727,2,0,B|230:53|230:53|350:78,1,111.999996582031,2|0,0:2|0:0,0:2:0:0:
400,103,107068,2,0,B|407:149|407:149|394:171|394:171|399:265,1,111.999996582031,8|0,0:2|0:0,0:2:0:0:
488,329,107409,2,0,B|490:289|490:289|477:267|477:267|484:221,1,111.999996582031,2|0,0:2|0:0,0:2:0:0:
380,348,107750,6,0,B|311:303|306:385|209:337,1,167.999994873047,4|2,3:2|0:0,0:2:0:0:
177,194,108318,1,0,0:2:0:0:
198,175,108431,2,0,L|221:357,1,167.999994873047,8|2,0:2|0:0,0:2:0:0:
15,302,109000,1,0,0:2:0:0:
27,277,109113,6,0,P|97:276|146:312,1,111.999996582031,0|0,3:2|0:0,0:2:0:0:
198,175,109454,2,0,P|128:174|79:210,1,111.999996582031,2|0,0:2|0:0,0:2:0:0:
122,94,109795,1,8,0:2:0:0:
269,223,110022,1,0,0:2:0:0:
278,196,110136,1,2,0:2:0:0:
149,28,110363,1,0,0:2:0:0:
122,94,110477,6,0,B|167:70|167:70|294:71,1,167.999994873047,0|2,3:2|0:0,0:2:0:0:
403,152,111045,1,0,0:2:0:0:
416,176,111159,2,0,P|428:239|401:309,1,111.999996582031,8|0,0:2|0:0,0:2:0:0:
372,346,111500,1,2,0:2:0:0:
237,281,111727,1,0,0:2:0:0:
247,255,111841,6,0,L|237:119,1,111.999996582031,0|0,3:2|0:0,0:2:0:0:
108,69,112181,2,0,L|99:180,1,111.999996582031,2|0,0:2|0:0,0:2:0:0:
234,254,112522,2,0,L|224:118,1,111.999996582031,8|0,0:2|0:0,0:2:0:0:
95,68,112862,2,0,L|86:179,1,111.999996582031,2|0,0:2|0:0,0:2:0:0:
389,138,113204,6,0,B|336:121|336:121|225:142,1,167.999994873047,0|2,3:2|0:0,0:2:0:0:
429,272,113772,1,0,0:2:0:0:
454,259,113886,2,0,L|486:84,1,167.999994873047,8|2,0:2|0:0,0:2:0:0:
322,88,114454,1,0,0:2:0:0:
306,111,114568,2,0,L|326:274,1,111.999996582031,0|0,3:2|0:0,0:2:0:0:
216,354,114909,2,0,L|229:242,1,111.999996582031,2|0,0:2|0:0,0:2:0:0:
85,181,115250,6,0,P|173:179|184:174,1,83.9999974365235,8|0,0:2|0:0,0:2:0:0:
306,111,115591,2,0,P|218:109|207:104,1,83.9999974365235,2|0,0:2|0:0,0:2:0:0:
113,0,115931,6,0,L|124:140,1,111.999996582031,0|0,3:2|0:0,0:2:0:0:
223,111,116272,2,0,L|227:55,1,55.9999982910157,2|0,0:2|0:0,0:2:0:0:
167,181,116500,1,0,0:2:0:0:
180,205,116613,2,0,B|220:217|220:217|319:201,1,111.999996582031,8|0,0:2|0:0,0:2:0:0:
413,116,116953,2,0,B|373:128|373:128|274:112,1,111.999996582031,2|0,0:2|0:0,0:2:0:0:
227,55,117295,5,2,0:2:0:0:
413,116,117636,2,0,L|405:186,1,55.9999982910157,0|0,3:2|0:0,0:2:0:0:
469,73,117863,5,0,0:2:0:0:
406,171,117977,2,0,L|398:241,1,55.9999982910157,10|0,0:2|0:0,0:2:0:0:
337,151,118204,5,0,0:2:0:0:
399,226,118318,2,0,L|391:296,1,55.9999982910157,0|0,3:2|0:0,0:2:0:0:
262,28,118544,1,0,0:2:0:0:
312,79,118659,6,0,B|261:64|261:64|142:92,1,167.999994873047,6|2,3:2|0:0,0:2:0:0:
28,74,119227,1,0,0:2:0:0:
47,94,119340,2,0,P|87:166|42:250,1,167.999994873047,10|2,0:2|0:0,0:2:0:0:
166,196,119909,1,0,0:2:0:0:
191,184,120022,6,0,B|231:172|231:172|337:192,1,111.999996582031,2|0,3:2|0:0,0:2:0:0:
380,264,120362,2,0,B|340:276|340:276|265:263,1,83.9999974365235,0|2,0:2|0:0,0:2:0:0:
286,264,120619,1,2,0:2:0:0:
273,261,120704,1,10,0:2:0:0:
233,53,120931,1,0,0:2:0:0:
240,80,121045,1,2,0:2:0:0:
84,107,121272,1,0,0:2:0:0:
40,44,121386,6,0,P|101:35|158:130,1,167.999994873047,2|2,3:2|0:0,0:2:0:0:
45,213,121954,1,0,0:2:0:0:
23,194,122068,2,0,L|198:183,1,167.999994873047,10|2,0:2|0:0,0:2:0:0:
199,312,122636,1,0,0:2:0:0:
182,289,122750,6,0,P|172:228|205:167,1,111.999996582031,2|0,3:2|0:0,0:2:0:0:
122,121,123091,2,0,P|132:60|110:9,1,83.9999974365235,0|2,0:2|0:0,0:2:0:0:
123,51,123346,1,2,0:2:0:0:
120,63,123431,2,0,L|250:56,1,111.999996582031,10|0,0:2|0:0,0:2:0:0:
293,22,123772,2,0,L|404:28,1,111.999996582031,2|0,0:2|0:0,0:2:0:0:
427,286,124113,6,0,B|404:208|479:213|418:86,1,167.999994873047,0|2,3:2|0:0,0:2:0:0:
219,223,124681,1,0,0:2:0:0:
238,243,124795,2,0,P|318:240|362:155,1,167.999994873047,10|2,0:2|0:0,0:2:0:0:
152,171,125363,1,0,0:2:0:0:
133,191,125477,6,0,B|119:227|119:227|146:330,1,111.999996582031,2|0,3:2|0:0,0:2:0:0:
278,168,125818,2,0,B|292:132|292:132|273:50,1,83.9999974365235,0|2,0:2|0:0,0:2:0:0:
278,75,126073,1,2,0:2:0:0:
274,62,126158,1,10,0:2:0:0:
70,104,126386,1,0,0:2:0:0:
85,127,126500,2,0,P|151:138|214:110,1,111.999996582031,2|0,0:2|0:0,0:2:0:0:
266,335,126841,6,0,L|279:141,1,167.999994873047,2|0,3:2|0:0,0:2:0:0:
464,178,127409,1,0,0:2:0:0:
463,205,127522,2,0,P|415:234|351:216,1,111.999996582031,10|0,0:2|0:0,0:2:0:0:
295,159,127863,1,0,0:2:0:0:
145,258,128091,1,0,0:2:0:0:
179,184,128203,6,0,P|125:174|78:203,1,111.999996582031,2|0,3:2|0:0,0:2:0:0:
66,288,128545,2,0,L|82:353,2,55.9999982910157,2|2|2,0:2|0:0|0:0,0:2:0:0:
145,258,128886,2,0,B|186:273|186:273|305:257,1,111.999996582031,10|0,0:2|0:0,0:2:0:0:
283,188,129227,2,0,B|324:173|324:173|443:189,1,111.999996582031,0|0,0:2|0:0,0:2:0:0:
253,22,129568,6,0,L|286:206,1,167.999994873047,4|2,3:2|0:0,0:2:0:0:
391,182,130136,1,0,0:2:0:0:
413,165,130250,2,0,L|380:349,1,167.999994873047,10|2,0:2|0:0,0:2:0:0:
253,263,130818,1,0,0:2:0:0:
235,284,130931,6,0,P|171:300|114:286,1,111.999996582031,2|0,3:2|0:0,0:2:0:0:
30,201,131272,2,0,P|94:217|148:204,1,83.9999974365235,0|2,0:2|0:0,0:2:0:0:
120,208,131528,1,2,0:2:0:0:
129,200,131613,2,0,L|139:78,1,111.999996582031,10|0,0:2|0:0,0:2:0:0:
144,17,131954,1,2,0:2:0:0:
358,62,132181,1,0,0:2:0:0:
304,111,132295,6,0,B|289:157|289:157|307:278,1,167.999994873047,2|2,3:2|0:0,0:2:0:0:
465,355,132863,1,0,0:2:0:0:
439,342,132977,2,0,B|358:313|365:386|263:347,1,167.999994873047,10|2,0:2|0:0,0:2:0:0:
198,322,133431,2,0,L|205:395,1,55.9999982910157,2|2,0:2|0:0,0:2:0:0:
255,261,133659,6,0,P|262:187|203:221,1,167.999994873047,2|0,3:2|0:0,0:2:0:0:
361,208,134170,1,2,0:2:0:0:
365,196,134255,1,2,0:2:0:0:
370,184,134341,2,0,P|377:109|362:68,1,111.999996582031,10|0,0:2|0:0,0:2:0:0:
208,104,134681,2,0,P|194:158|204:213,1,111.999996582031,2|0,0:2|0:0,0:2:0:0:
427,295,135022,6,0,L|271:286,1,111.999996582031,2|0,3:2|0:0,0:2:0:0:
236,284,135362,1,2,0:2:0:0:
93,333,135591,1,0,0:2:0:0:
76,310,135704,2,0,B|62:261|62:261|88:161,1,111.999996582031,10|0,0:2|0:0,0:2:0:0:
175,185,136045,2,0,B|189:136|189:136|163:36,1,111.999996582031,2|0,0:2|0:0,0:2:0:0:
9,88,136386,6,0,B|66:76|66:76|112:88|112:88|198:71,1,167.999994873047,2|0,3:2|0:0,0:2:0:0:
306,24,136897,1,2,0:2:0:0:
303,36,136983,1,2,0:2:0:0:
300,48,137068,1,10,0:2:0:0:
370,183,137295,1,0,0:2:0:0:
367,155,137409,1,2,0:2:0:0:
233,243,137636,1,0,0:2:0:0:
236,215,137750,5,2,0:2:0:0:
165,291,137977,1,0,0:2:0:0:
182,313,138091,1,2,0:2:0:0:
206,326,138204,1,2,0:2:0:0:
233,331,138318,1,2,0:2:0:0:
259,323,138431,6,0,B|294:307|294:307|425:312,1,140,10|0,0:2|0:0,0:2:0:0:
407,91,139113,2,0,L|395:243,1,140,2|0,0:2|0:0,0:2:0:0:
295,64,139681,1,0,0:2:0:0:
277,79,139795,2,0,L|289:231,1,140,8|0,0:2|0:0,0:2:0:0:
67,248,140477,6,0,B|123:237|123:237|147:248|147:248|218:237,1,140,6|2,0:2|0:0,0:2:0:0:
171,169,140931,1,0,0:2:0:0:
167,145,141045,1,0,0:2:0:0:
165,121,141159,2,0,B|180:84|180:84|176:20|176:20|151:-11,1,140,10|0,0:2|0:0,0:2:0:0:
25,132,141840,6,0,L|176:120,1,140,2|0,0:2|3:0,0:2:0:0:
302,56,142409,1,0,0:2:0:0:
333,115,142522,2,0,P|333:179|323:232,1,93.3333333333333,10|0,0:2|0:0,0:2:0:0:
235,330,142863,2,0,P|229:283|230:237,1,93.3333333333333,2|0,3:2|0:0,0:2:0:0:
256,128,143204,6,0,B|199:93|141:128|141:134|142:140|78:189|42:151|42:151|-12:87|86:17|136:138|42:151|42:151|-12:180|-4:235|36:263|71:256,1,595,4|2,3:2|0:0,0:2:0:0:
42,259,147977,5,0,0:2:0:0:
108,218,148318,1,0,0:2:0:0:
177,249,148659,5,2,3:2:0:0:
247,188,148885,1,2,0:2:0:0:
258,203,148999,2,0,P|265:253|259:297,1,74.6666666666667,2|0,0:2|0:0,0:2:0:0:
257,294,149340,1,0,3:2:0:0:
202,353,149567,1,0,0:2:0:0:
192,336,149680,1,0,0:2:0:0:
109,317,149908,1,0,0:2:0:0:
119,301,150021,6,0,P|120:263|113:227,1,74.6666666666667,2|0,3:2|0:0,0:2:0:0:
101,213,150362,2,0,P|99:175|106:139,1,74.6666666666667,0|0,0:2|0:0,0:2:0:0:
115,123,150703,1,2,3:2:0:0:
161,40,150930,1,0,0:2:0:0:
167,57,151044,1,0,0:2:0:0:
259,65,151271,1,0,0:2:0:0:
251,82,151385,6,0,L|346:88,1,74.6666666666667,2|2,3:2|0:0,0:2:0:0:
335,102,151726,2,0,L|409:106,1,74.6666666666667,2|0,0:2|0:0,0:2:0:0:
397,121,152067,1,0,3:2:0:0:
496,136,152294,1,0,0:2:0:0:
488,152,152408,1,0,0:2:0:0:
495,221,152635,1,0,0:2:0:0:
484,236,152749,6,0,P|426:248|398:244,1,74.6666666666667,2|0,3:2|0:0,0:2:0:0:
393,240,153090,1,0,0:2:0:0:
276,208,153317,1,0,0:2:0:0:
277,226,153430,2,0,L|286:316,1,74.6666666666667,2|0,3:2|0:0,0:2:0:0:
287,318,153771,1,0,0:2:0:0:
181,278,153999,1,0,0:2:0:0:
176,260,154112,6,0,P|118:248|90:252,1,74.6666666666667,2|2,3:2|0:0,0:2:0:0:
101,230,154453,2,0,P|63:229|28:240,1,74.6666666666667,2|0,0:2|0:0,0:2:0:0:
17,256,154794,1,0,3:2:0:0:
55,151,155021,1,0,0:2:0:0:
59,132,155135,1,0,0:2:0:0:
165,170,155362,1,0,0:2:0:0:
161,151,155476,6,0,B|156:121|156:121|167:55,1,74.6666666666667,2|0,3:2|0:0,0:2:0:0:
181,77,155817,2,0,B|186:47|186:47|178:3,1,74.6666666666667,0|0,0:2|0:0,0:2:0:0:
266,55,156158,1,2,3:2:0:0:
268,59,156243,1,2,0:2:0:0:
269,64,156328,1,2,0:2:0:0:
294,135,156499,2,0,P|342:136|382:122,1,74.6666666666667,2|0,0:2|0:0,0:2:0:0:
444,103,156840,6,0,L|427:196,1,74.6666666666667,2|0,3:2|0:0,0:2:0:0:
417,189,157180,2,0,L|434:282,1,74.6666666666667,2|0,0:2|0:0,0:2:0:0:
435,280,157521,2,0,B|390:279|390:279|375:288|375:288|297:285,1,112,2|0,3:2|0:0,0:2:0:0:
226,249,158090,1,0,0:2:0:0:
229,267,158203,1,0,3:2:0:0:
263,357,158430,1,0,0:2:0:0:
266,339,158543,1,0,0:2:0:0:
156,308,158771,1,0,0:2:0:0:
159,326,158884,5,0,3:2:0:0:
226,249,159112,1,0,0:2:0:0:
229,231,159225,1,0,0:2:0:0:
88,233,159453,1,0,0:2:0:0:
92,252,159567,6,0,P|26:253|-5:243,1,74.6666666666667,2|2,3:2|0:0,0:2:0:0:
12,233,159908,2,0,L|13:147,1,74.6666666666667,2|0,0:2|0:0,0:2:0:0:
23,143,160249,1,0,3:2:0:0:
82,55,160476,1,0,0:2:0:0:
80,73,160590,1,0,0:2:0:0:
154,132,160817,1,0,0:2:0:0:
149,114,160930,6,0,P|219:99|247:100,1,74.6666666666667,2|0,3:2|0:0,0:2:0:0:
228,116,161271,1,0,0:2:0:0:
338,49,161499,1,0,0:2:0:0:
343,31,161612,2,0,P|273:16|245:17,1,74.6666666666667,2|0,3:2|0:0,0:2:0:0:
264,33,161953,1,0,0:2:0:0:
355,126,162180,1,0,0:2:0:0:
359,144,162294,6,0,B|365:179|365:179|356:235,1,74.6666666666667,2|2,3:2|0:0,0:2:0:0:
353,235,162635,2,0,B|347:270|347:270|356:326,1,74.6666666666667,2|0,0:2|0:0,0:2:0:0:
358,326,162976,1,0,3:2:0:0:
481,306,163203,1,0,0:2:0:0:
462,301,163317,1,0,0:2:0:0:
409,193,163544,1,0,0:2:0:0:
426,185,163658,6,0,P|440:130|438:87,1,74.6666666666667,2|0,3:2|0:0,0:2:0:0:
428,98,163999,1,0,0:0:0:0:
438,0,164226,1,0,0:0:0:0:
424,12,164340,2,0,B|375:12|375:12|354:20|354:20|281:15,1,112,2|0,3:2|0:0,0:2:0:0:
181,11,164908,1,0,0:2:0:0:
192,25,165021,6,0,P|186:106|184:113,1,74.6666666666667,2|2,3:2|0:0,0:2:0:0:
175,113,165362,2,0,P|181:194|183:201,1,74.6666666666667,2|0,0:2|0:0,0:2:0:0:
184,205,165703,1,0,3:2:0:0:
278,239,165930,1,0,0:2:0:0:
285,222,166044,1,0,0:2:0:0:
224,313,166271,1,0,0:2:0:0:
214,296,166385,6,0,B|193:287|193:287|122:295,1,74.6666666666667,2|2,3:2|0:0,0:2:0:0:
122,294,166726,2,0,B|101:303|101:303|30:295,1,74.6666666666667,2|0,0:2|0:0,0:2:0:0:
29,223,167067,1,2,3:2:0:0:
29,217,167152,1,2,0:2:0:0:
29,211,167237,1,2,0:2:0:0:
99,146,167408,2,0,P|152:153|197:143,1,74.6666666666667,2|0,0:2|0:0,0:2:0:0:
252,78,167749,6,0,L|248:105,2,17.5,6|2|0,3:2|0:0|0:2,0:2:0:0:
428,191,168942,5,0,0:2:0:0:
428,191,169027,1,0,0:2:0:0:
428,191,169112,2,0,B|367:185|367:185|347:192|347:192|267:182,1,140,8|0,0:2|0:0,0:2:0:0:
210,237,169624,5,0,0:2:0:0:
210,237,169709,1,0,0:2:0:0:
210,237,169794,2,0,B|224:268|224:268|217:342,1,93.3333333333333,8|0,0:2|0:0,0:2:0:0:
316,368,170135,2,0,B|302:337|302:337|307:277,1,93.3333333333333,0|0,3:2|0:0,0:2:0:0:
218,327,170476,6,0,L|109:322,1,93.3333333333333,4|0,3:2|0:0,0:2:0:0:
88,187,170817,2,0,L|96:240,1,46.6666666666667,2|0,0:2|0:0,0:2:0:0:
32,363,171044,1,0,0:2:0:0:
19,343,171158,6,0,B|5:311|5:311|16:233,1,93.3333333333333,8|0,0:2|0:0,0:2:0:0:
88,187,171499,2,0,L|96:240,1,46.6666666666667,2|0,0:2|0:0,0:2:0:0:
218,327,171726,1,0,0:2:0:0:
231,307,171840,6,0,B|245:275|245:275|234:197,1,93.3333333333333,0|0,3:2|0:0,0:2:0:0:
88,187,172180,2,0,L|96:240,1,46.6666666666667,2|0,0:2|0:0,0:2:0:0:
277,138,172408,1,0,0:2:0:0:
256,126,172521,6,0,P|186:138|157:170,1,93.3333333333333,8|0,0:2|0:0,0:2:0:0:
88,187,172862,2,0,L|96:240,2,46.6666666666667,2|0|0,0:2|0:0|0:0,0:2:0:0:
38,67,173203,6,0,L|164:73,1,93.3333333333333,0|0,3:2|0:0,0:2:0:0:
287,40,173544,2,0,P|259:30|220:25,1,46.6666666666667,2|0,0:2|0:0,0:2:0:0:
277,138,173771,1,0,0:2:0:0:
294,153,173885,6,0,L|387:148,1,93.3333333333333,8|0,0:2|0:0,0:2:0:0:
287,40,174226,2,0,P|259:30|220:25,1,46.6666666666667,2|0,0:2|0:0,0:2:0:0:
170,151,174453,1,0,0:2:0:0:
162,173,174567,6,0,P|157:230|170:279,1,93.3333333333333,0|0,3:2|0:0,0:2:0:0:
287,40,174908,2,0,P|259:30|220:25,1,46.6666666666667,2|0,0:2|0:0,0:2:0:0:
22,83,175135,1,0,0:2:0:0:
38,67,175249,6,0,L|131:71,1,93.3333333333333,8|0,0:2|0:0,0:2:0:0:
242,26,175590,2,0,P|265:31|287:40,1,46.6666666666667,2|0,0:2|0:0,0:2:0:0:
297,231,175817,1,0,0:0:0:0:
286,249,175930,6,0,L|272:124,1,93.3333333333333,0|0,3:2|0:0,0:2:0:0:
429,208,176271,2,0,L|362:194,1,46.6666666666667,2|0,0:2|0:0,0:2:0:0:
484,80,176499,1,0,0:2:0:0:
504,69,176612,6,0,B|517:107|517:107|502:192,1,93.3333333333333,8|0,0:2|0:0,0:2:0:0:
429,208,176953,2,0,L|362:194,1,46.6666666666667,2|0,0:2|0:0,0:2:0:0:
299,76,177180,1,0,0:2:0:0:
279,65,177293,6,0,B|266:103|266:103|281:188,1,93.3333333333333,0|0,3:2|0:0,0:2:0:0:
429,208,177635,2,0,L|362:194,1,46.6666666666667,2|0,0:2|0:0,0:2:0:0:
398,65,177862,1,0,0:2:0:0:
416,51,177976,6,0,P|479:53|519:85,1,93.3333333333333,8|0,0:2|0:0,0:2:0:0:
429,208,178317,2,0,L|362:194,2,46.6666666666667,2|0|0,0:2|0:0|0:0,0:2:0:0:
475,384,178658,6,0,L|488:278,1,93.3333333333333,0|0,3:2|0:0,0:2:0:0:
315,306,178999,2,0,P|346:310|381:300,1,46.6666666666667,2|0,0:2|0:0,0:2:0:0:
429,208,179226,1,0,0:2:0:0:
416,188,179340,6,0,B|387:180|387:180|282:197,1,93.3333333333333,8|0,0:2|0:0,0:2:0:0:
315,306,179680,2,0,P|346:310|381:300,1,46.6666666666667,2|0,0:2|0:0,0:2:0:0:
247,244,179908,1,0,0:2:0:0:
234,224,180022,6,0,B|205:216|205:216|100:233,1,93.3333333333333,0|0,3:2|0:0,0:2:0:0:
315,306,180362,2,0,P|346:310|381:300,2,46.6666666666667,2|0|0,0:2|0:0|0:0,0:2:0:0:
239,351,180703,6,0,P|208:347|173:357,1,46.6666666666667,10|0,0:2|0:0,0:2:0:0:
97,378,180930,1,2,0:2:0:0:
84,357,181044,2,0,P|67:291|75:238,1,93.3333333333333,2|0,0:2|0:0,0:2:0:0:
128,163,181385,6,0,B|96:146|96:146|1:161,1,93.3333333333333,0|0,3:2|0:0,0:2:0:0:
203,67,181726,2,0,L|192:123,1,46.6666666666667,2|0,0:2|0:0,0:2:0:0:
180,234,181953,1,0,0:2:0:0:
198,248,182067,6,0,B|230:265|230:265|325:250,1,93.3333333333333,8|0,0:2|0:0,0:2:0:0:
203,67,182408,2,0,L|192:123,1,46.6666666666667,2|0,0:2|0:0,0:2:0:0:
320,162,182635,1,0,0:2:0:0:
334,143,182749,6,0,P|348:62|335:23,1,93.3333333333333,0|0,3:2|0:0,0:2:0:0:
203,67,183090,2,0,L|192:123,1,46.6666666666667,2|0,0:2|0:0,0:2:0:0:
20,37,183317,1,0,0:2:0:0:
27,12,183430,6,0,B|83:3|83:3|115:20,1,93.3333333333333,8|0,0:2|0:0,0:2:0:0:
203,67,183771,2,0,L|192:123,2,46.6666666666667,2|0|0,0:2|0:0|0:0,0:2:0:0:
305,23,184112,6,0,P|356:17|430:42,1,93.3333333333333,0|0,3:2|0:0,0:2:0:0:
375,169,184453,2,0,L|367:110,1,46.6666666666667,2|0,0:2|0:0,0:2:0:0:
458,229,184680,1,0,0:2:0:0:
475,244,184794,6,0,B|483:277|483:277|466:341,1,93.3333333333333,8|0,0:2|0:0,0:2:0:0:
375,169,185135,2,0,L|367:110,1,46.6666666666667,2|0,0:2|0:0,0:2:0:0:
310,225,185362,1,0,0:2:0:0:
293,240,185476,6,0,B|285:273|285:273|302:337,1,93.3333333333333,0|0,3:2|0:0,0:2:0:0:
375,169,185817,2,0,L|368:122,1,46.6666666666667,2|0,0:2|0:0,0:2:0:0:
308,48,186044,1,0,0:2:0:0:
292,30,186158,6,0,P|235:28|187:61,1,93.3333333333333,8|0,0:2|0:0,0:2:0:0:
368,122,186499,2,0,L|375:169,2,46.6666666666667,2|0|0,0:2|0:0|0:0,0:2:0:0:
494,28,186840,6,0,L|475:165,1,93.3333333333333,0|0,3:2|0:0,0:2:0:0:
456,271,187180,2,0,L|462:224,1,46.6666666666667,2|0,0:2|0:0,0:2:0:0:
375,169,187408,1,0,0:2:0:0:
355,156,187521,6,0,P|280:159|238:184,1,93.3333333333333,8|0,0:2|0:0,0:2:0:0:
456,271,187862,2,0,L|462:224,1,46.6666666666667,2|0,0:2|0:0,0:2:0:0:
494,139,188090,1,0,0:2:0:0:
481,120,188203,6,0,L|498:2,1,93.3333333333333,0|0,3:2|0:0,0:2:0:0:
462,224,188544,2,0,L|456:271,1,46.6666666666667,2|0,0:2|0:0,0:2:0:0:
366,322,188771,1,0,0:2:0:0:
347,336,188885,6,0,P|315:345|284:341,2,46.6666666666667,8|0|0,0:2|0:0|0:2,0:2:0:0:
462,224,189226,2,0,L|456:271,2,46.6666666666667,2|0|0,0:2|0:0|0:0,0:2:0:0:
355,156,189567,6,0,L|372:266,1,93.3333333333333,0|0,3:2|0:0,0:2:0:0:
199,135,189908,2,0,P|253:122|276:125,1,46.6666666666667,2|0,0:2|0:0,0:2:0:0:
220,240,190135,1,0,0:2:0:0:
205,258,190249,6,0,B|179:268|179:268|82:263,1,93.3333333333333,8|0,0:2|0:0,0:2:0:0:
199,135,190590,2,0,P|253:122|276:125,1,46.6666666666667,2|0,0:2|0:0,0:2:0:0:
367,135,190817,1,0,0:2:0:0:
355,156,190930,6,0,L|372:266,1,93.3333333333333,0|0,3:2|0:0,0:2:0:0:
243,122,191271,2,0,P|220:126|199:135,1,46.6666666666667,2|0,0:2|0:0,0:2:0:0:
270,139,191499,5,0,0:2:0:0:
249,127,191612,2,0,P|226:130|204:139,1,46.6666666666667,8|0,0:2|0:0,0:2:0:0:
205,258,191840,1,2,0:2:0:0:
220,240,191953,2,0,P|297:228|326:238,1,93.3333333333333,2|0,3:2|0:0,0:2:0:0:
443,316,192294,6,0,L|340:310,1,83.9999974365235,6|0,0:2|0:0,0:2:0:0:
273,348,192862,1,0,0:2:0:0:
262,356,192976,2,0,P|214:359|193:356,1,55.9999982910157,0|0,3:2|0:0,0:2:0:0:
199,345,193317,2,0,P|151:342|130:345,1,55.9999982910157,0|0,0:2|0:0,0:2:0:0:
130,349,193657,5,0,0:2:0:0:
44,286,193885,1,0,0:2:0:0:
54,275,193998,2,0,L|118:263,1,55.9999982910157,0|0,0:2|0:0,0:2:0:0:
122,270,194339,1,0,3:2:0:0:
184,230,194567,1,0,0:2:0:0:
197,224,194680,2,0,L|209:160,1,55.9999982910157,0|0,0:2|0:0,0:2:0:0:
222,91,195021,6,0,P|264:86|294:93,1,55.9999982910157,2|0,0:2|0:0,0:2:0:0:
288,96,195362,2,0,P|316:98|344:92,1,55.9999982910157,0|0,0:2|0:0,0:2:0:0:
418,69,195703,2,0,L|422:-3,1,55.9999982910157,0|0,3:2|0:0,0:2:0:0:
410,3,196044,1,0,0:0:0:0:
462,138,196385,6,0,B|460:202,1,55.9999982910157,0|0,0:2|0:0,0:2:0:0:
447,200,196726,2,0,B|449:264,1,55.9999982910157,0|0,0:2|0:0,0:2:0:0:
442,325,197067,2,0,L|374:317,1,55.9999982910157,0|0,3:2|0:0,0:2:0:0:
375,327,197408,1,0,0:2:0:0:
232,279,197748,5,2,0:2:0:0:
245,272,197862,2,0,B|249:293|249:293|231:348,1,55.9999982910157,0|0,0:2|0:0,0:2:0:0:
189,205,198317,1,0,0:2:0:0:
197,194,198430,2,0,L|253:184,1,55.9999982910157,0|0,3:2|0:0,0:2:0:0:
263,194,198771,2,0,L|319:205,1,55.9999982910157,0|0,0:2|0:0,0:2:0:0:
332,207,199112,5,0,0:2:0:0:
381,102,199339,1,0,0:2:0:0:
391,112,199453,2,0,B|413:108|413:108|465:119,1,55.9999982910157,0|0,0:2|0:0,0:2:0:0:
454,125,199794,2,0,L|445:197,1,55.9999982910157,0|0,3:2|0:0,0:2:0:0:
445,194,200135,2,0,L|436:266,1,55.9999982910157,0|0,0:2|0:0,0:2:0:0:
344,369,200476,5,2,0:2:0:0:
340,348,200817,1,0,0:2:0:0:
327,348,200930,1,0,0:2:0:0:
313,348,201044,1,0,0:2:0:0:
300,349,201157,2,0,L|230:349,1,55.9999982910157,0|0,3:2|0:0,0:2:0:0:
230,349,201498,2,0,L|174:349,1,55.9999982910157,0|0,0:2|0:0,0:2:0:0:
114,284,201839,6,0,B|106:268|106:268|105:218,1,55.9999982910157,2|8,0:2|0:0,0:2:0:0:
158,151,202180,1,8,0:2:0:0:
269,230,202521,2,0,L|197:234,1,55.9999982910157,10|0,3:2|0:0,0:2:0:0:
158,151,202862,1,4,0:2:0:0:
446,57,203203,6,0,L|431:158,1,83.9999974365235,6|0,0:2|0:0,0:2:0:0:
512,228,203885,2,0,L|450:214,1,55.9999982910157,0|0,3:2|0:0,0:2:0:0:
447,225,204226,2,0,L|346:240,1,83.9999974365235,0|0,0:2|0:0,0:2:0:0:
293,126,204907,1,0,0:2:0:0:
221,182,205135,1,0,0:2:0:0:
224,168,205248,1,0,3:2:0:0:
155,127,205589,1,0,0:2:0:0:
88,175,205930,6,0,B|77:206|77:206|87:266,1,83.9999974365235,2|0,0:2|0:0,0:2:0:0:
190,315,206612,2,0,L|202:248,1,55.9999982910157,0|0,3:2|0:0,0:2:0:0:
212,253,206953,1,0,0:0:0:0:
291,361,207294,6,0,P|345:384|428:313,1,167.999994873047,2|2,0:2|3:2,0:2:0:0:
348,302,208317,1,0,0:2:0:0:
483,267,208658,6,0,P|444:247|384:262,1,83.9999974365235,2|0,0:2|0:0,0:2:0:0:
329,220,209226,1,0,0:2:0:0:
323,208,209339,2,0,L|336:133,1,55.9999982910157,0|0,3:2|0:0,0:2:0:0:
343,144,209680,2,0,L|330:69,1,55.9999982910157,0|0,0:2|0:0,0:2:0:0:
328,75,210021,1,0,0:2:0:0:
238,106,210362,1,0,0:2:0:0:
167,63,210589,1,0,0:2:0:0:
154,57,210703,6,0,P|111:53|83:60,1,55.9999982910157,0|0,3:2|0:0,0:2:0:0:
93,67,211044,2,0,P|66:64|40:66,1,41.9999987182618,0|8,0:2|0:0,0:2:0:0:
42,67,211299,1,8,0:2:0:0:
32,69,211385,5,2,0:2:0:0:
160,139,211726,1,0,0:2:0:0:
123,238,211896,1,8,0:2:0:0:
120,248,211982,1,8,0:2:0:0:
117,258,212067,5,2,3:2:0:0:
160,139,212408,1,0,0:2:0:0:
123,238,212578,1,8,0:2:0:0:
120,248,212664,1,8,0:2:0:0:
117,258,212749,5,2,3:2:0:0:
160,139,213090,1,0,0:2:0:0:
123,238,213260,1,8,0:2:0:0:
120,248,213346,1,8,0:2:0:0:
117,258,213430,6,0,L|128:326,1,55.9999982910157,2|0,3:2|0:0,0:2:0:0:
202,370,213771,2,0,L|210:314,1,55.9999982910157,0|0,0:2|0:0,0:2:0:0:
210,314,214340,1,0,0:2:0:0:
396,209,214680,1,0,0:2:0:0:
243,147,214794,2,0,L|234:202,1,55.9999982910157,0|0,0:2|0:0,0:2:0:0:
333,153,215135,2,0,L|324:97,1,55.9999982910157,0|0,0:2|0:0,0:2:0:0:
78,99,215476,6,0,B|106:84|106:84|224:93,1,111.999996582031,4|0,3:2|0:0,0:2:0:0:
243,147,215816,1,2,0:2:0:0:
77,285,216044,1,0,0:2:0:0:
56,265,216157,2,0,L|82:68,1,167.999994873047,8|2,0:2|0:0,0:2:0:0:
243,147,216726,1,0,0:2:0:0:
258,169,216839,6,0,B|268:202|268:202|246:294,1,111.999996582031,0|0,3:2|0:0,0:2:0:0:
153,376,217180,2,0,B|143:343|143:343|161:267,1,111.999996582031,2|0,0:2|0:0,0:2:0:0:
249,277,217521,1,8,0:2:0:0:
346,343,217748,1,0,0:2:0:0:
327,363,217862,1,2,0:2:0:0:
451,177,218089,1,0,0:2:0:0:
439,260,218203,6,0,P|516:234|535:193,1,111.999996582031,0|0,3:2|0:0,0:2:0:0:
436,67,218544,2,0,L|454:200,1,111.999996582031,2|0,0:2|0:0,0:2:0:0:
281,65,218885,2,0,P|347:114|357:195,1,167.999994873047,8|2,0:2|0:0,0:2:0:0:
131,194,219453,1,0,0:2:0:0:
146,170,219566,6,0,L|271:163,1,111.999996582031,0|0,3:2|0:0,0:2:0:0:
281,65,219907,2,0,L|169:71,1,111.999996582031,2|0,0:2|0:0,0:2:0:0:
53,125,220248,2,0,B|44:165|44:165|79:283,1,111.999996582031,8|0,0:2|0:0,0:2:0:0:
157,278,220589,2,0,B|166:238|166:238|145:169,1,111.999996582031,2|0,0:2|0:0,0:2:0:0:
22,363,220930,6,0,L|167:359,1,111.999996582031,0|0,3:2|0:0,0:2:0:0:
157,278,221271,1,2,0:2:0:0:
298,300,221498,1,0,0:2:0:0:
275,316,221612,2,0,B|260:283|260:283|278:143,1,167.999994873047,8|2,0:2|0:0,0:2:0:0:
385,46,222180,1,0,0:2:0:0:
408,30,222294,6,0,B|423:63|423:63|405:203,1,167.999994873047,0|2,3:2|0:0,0:2:0:0:
391,311,222862,1,0,0:2:0:0:
387,336,222976,1,8,0:2:0:0:
262,266,223203,1,0,0:2:0:0:
266,291,223317,1,2,0:2:0:0:
195,384,223544,1,0,0:2:0:0:
149,328,223657,6,0,B|131:273|131:273|143:140,1,167.999994873047,0|2,3:2|0:0,0:2:0:0:
208,27,224226,1,0,0:2:0:0:
197,52,224339,2,0,P|139:75|19:38,1,167.999994873047,8|2,0:2|0:0,0:2:0:0:
311,28,224907,1,0,0:2:0:0:
336,39,225021,6,0,L|329:164,1,111.999996582031,0|0,3:2|0:0,0:2:0:0:
253,173,225362,2,0,L|260:298,1,111.999996582031,2|0,0:2|0:0,0:2:0:0:
450,257,225703,2,0,P|395:234|331:261,1,111.999996582031,8|0,0:2|0:0,0:2:0:0:
216,355,226044,2,0,P|269:368|319:345,1,111.999996582031,2|0,0:2|0:0,0:2:0:0:
122,299,226385,6,0,B|100:218|173:229|117:109,1,167.999994873047,4|2,3:2|0:0,0:2:0:0:
49,7,226953,1,0,0:2:0:0:
65,29,227066,2,0,P|131:57|221:12,1,167.999994873047,8|2,0:2|0:0,0:2:0:0:
451,96,227635,1,0,0:2:0:0:
435,74,227748,6,0,P|369:46|279:91,1,167.999994873047,0|2,3:2|0:0,0:2:0:0:
320,192,228316,1,0,0:2:0:0:
303,214,228430,2,0,B|294:250|294:250|311:333,1,83.9999974365235,8|0,0:2|0:0,0:2:0:0:
383,334,228771,1,2,0:2:0:0:
334,74,228998,1,0,0:2:0:0:
273,109,229112,6,0,B|209:105|209:105|182:120|182:120|77:114,1,167.999994873047,0|2,3:2|0:0,0:2:0:0:
82,288,229680,1,0,0:2:0:0:
101,308,229794,2,0,B|142:289|142:289|287:294,1,167.999994873047,8|2,0:2|0:0,0:2:0:0:
434,297,230362,1,0,0:2:0:0:
446,274,230476,6,0,L|436:132,1,111.999996582031,0|0,3:2|0:0,0:2:0:0:
340,60,230816,2,0,L|347:171,1,111.999996582031,2|0,0:2|0:0,0:2:0:0:
437,273,231157,2,0,L|427:131,1,111.999996582031,8|0,0:2|0:0,0:2:0:0:
331,59,231498,2,0,L|338:170,1,111.999996582031,2|0,0:2|0:0,0:2:0:0:
304,335,231839,6,0,B|221:294|220:376|110:313,1,167.999994873047,0|2,3:2|0:0,0:2:0:0:
150,92,232407,1,0,0:2:0:0:
178,96,232521,2,0,B|194:140|194:140|181:260,1,167.999994873047,8|2,0:2|0:0,0:2:0:0:
332,339,233089,1,0,0:2:0:0:
304,335,233203,6,0,B|291:294|291:294|302:187,1,111.999996582031,0|0,3:2|0:0,0:2:0:0:
398,125,233544,2,0,B|411:166|411:166|403:234,1,111.999996582031,2|0,0:2|0:0,0:2:0:0:
312,135,233885,1,8,0:2:0:0:
439,39,234112,1,0,0:2:0:0:
460,57,234226,1,2,0:2:0:0:
312,135,234453,1,0,0:2:0:0:
254,83,234566,6,0,P|192:76|112:151,1,167.999994873047,0|2,3:2|0:0,0:2:0:0:
148,225,235021,2,0,L|159:292,1,55.9999982910157,2|2,0:2|0:0,0:2:0:0:
228,343,235248,2,0,B|307:308|321:375|397:330,1,167.999994873047,8|2,0:2|0:0,0:2:0:0:
157,280,235816,1,0,0:2:0:0:
143,304,235930,6,0,P|70:327|27:303,1,111.999996582031,2|0,0:2|0:0,0:2:0:0:
74,188,236271,2,0,L|87:258,1,55.9999982910157,2|0,3:2|0:0,0:2:0:0:
156,116,236498,5,0,0:2:0:0:
63,132,236612,2,0,L|76:202,1,55.9999982910157,10|0,0:2|0:0,0:2:0:0:
156,116,236839,5,0,0:2:0:0:
52,76,236953,2,0,L|65:146,1,55.9999982910157,2|0,3:2|0:0,0:2:0:0:
179,272,237180,1,0,0:2:0:0:
239,311,237294,6,0,P|322:327|420:275,1,167.999994873047,4|2,3:2|0:0,0:2:0:0:
384,32,237862,1,0,0:2:0:0:
368,55,237976,2,0,L|392:249,1,167.999994873047,10|2,0:2|0:0,0:2:0:0:
239,311,238544,1,0,0:2:0:0:
227,285,238657,6,0,P|149:254|84:262,1,111.999996582031,2|0,3:2|0:0,0:2:0:0:
24,370,238998,2,0,P|101:339|167:347,1,111.999996582031,0|0,0:2|0:0,0:2:0:0:
200,384,239339,1,10,0:2:0:0:
121,254,239566,1,0,0:2:0:0:
96,268,239680,1,2,0:2:0:0:
185,149,239907,1,0,0:2:0:0:
244,186,240021,6,0,P|328:191|411:118,1,167.999994873047,0|2,3:2|0:0,0:2:0:0:
232,4,240589,1,0,0:2:0:0:
209,21,240703,2,0,L|246:200,1,167.999994873047,10|2,0:2|0:0,0:2:0:0:
36,156,241271,1,0,0:2:0:0:
55,135,241385,6,0,P|115:131|175:183,1,111.999996582031,2|0,3:2|0:0,0:2:0:0:
208,256,241726,2,0,P|268:259|328:207,1,83.9999974365235,0|2,0:2|0:0,0:2:0:0:
294,245,241981,1,2,0:2:0:0:
301,240,242066,2,0,P|361:236|421:288,1,111.999996582031,10|0,0:2|0:0,0:2:0:0:
484,362,242407,2,0,L|503:230,1,111.999996582031,2|0,0:2|0:0,0:2:0:0:
469,75,242748,6,0,B|377:45|407:128|269:82,1,167.999994873047,0|2,3:2|0:0,0:2:0:0:
135,27,243316,1,0,0:2:0:0:
161,16,243430,2,0,P|188:82|139:189,1,167.999994873047,10|2,0:2|0:0,0:2:0:0:
102,358,243998,1,0,0:2:0:0:
76,369,244112,6,0,P|49:303|98:196,1,167.999994873047,2|0,3:2|0:0,0:2:0:0:
242,239,244623,1,2,0:2:0:0:
249,243,244708,1,2,0:2:0:0:
256,247,244794,2,0,L|238:359,1,111.999996582031,10|0,0:2|0:0,0:2:0:0:
361,269,245135,2,0,L|343:158,1,111.999996582031,2|0,0:2|0:0,0:2:0:0:
185,48,245476,6,0,B|254:43|254:43|283:55|283:55|382:50,1,167.999994873047,2|0,3:2|0:0,0:2:0:0:
439,77,245930,2,0,L|448:-3,1,55.9999982910157,2|2,0:2|0:0,0:2:0:0:
506,134,246157,2,0,B|518:178|518:178|476:323,1,167.999994873047,10|0,0:2|0:0,0:2:0:0:
266,313,246726,1,0,0:2:0:0:
283,291,246839,6,0,P|369:284|413:311,1,111.999996582031,2|0,3:2|0:0,0:2:0:0:
229,202,247180,2,0,P|143:195|99:222,1,111.999996582031,0|0,0:2|0:0,0:2:0:0:
33,378,247521,2,0,L|44:252,1,111.999996582031,10|0,0:2|0:0,0:2:0:0:
112,93,247862,2,0,L|121:204,1,111.999996582031,0|0,3:2|0:0,0:2:0:0:
413,123,248203,6,0,B|330:86|331:174|217:104,1,167.999994873047,6|2,3:2|0:0,0:2:0:0:
510,39,248771,1,0,0:2:0:0:
509,67,248885,2,0,L|513:252,1,167.999994873047,10|2,0:2|0:0,0:2:0:0:
409,318,249453,1,0,0:2:0:0:
409,290,249566,6,0,L|413:105,1,167.999994873047,2|0,3:2|0:0,0:2:0:0:
228,37,250135,1,2,0:2:0:0:
230,64,250248,1,10,0:2:0:0:
124,165,250476,1,0,0:2:0:0:
135,139,250589,1,2,0:2:0:0:
327,127,250816,1,0,0:2:0:0:
338,153,250930,6,0,B|358:211|358:211|328:345,1,167.999994873047,0|2,3:2|0:0,0:2:0:0:
197,341,251498,1,0,0:2:0:0:
179,319,251612,2,0,P|97:304|31:367,1,167.999994873047,10|2,0:2|0:0,0:2:0:0:
220,177,252180,1,0,0:2:0:0:
203,199,252294,6,0,P|121:214|55:151,1,167.999994873047,2|0,3:2|0:0,0:2:0:0:
123,19,252805,1,2,0:2:0:0:
124,27,252890,1,2,0:2:0:0:
125,35,252976,2,0,P|196:56|246:33,1,111.999996582031,10|0,0:2|0:0,0:2:0:0:
411,25,253316,2,0,P|340:4|290:27,1,111.999996582031,2|0,0:2|0:0,0:2:0:0:
348,202,253657,6,0,L|355:67,1,111.999996582031,2|0,3:2|0:0,0:2:0:0:
306,15,253998,1,2,0:2:0:0:
260,222,254226,1,0,0:2:0:0:
271,247,254339,2,0,P|320:288|376:298,1,111.999996582031,10|0,0:2|0:0,0:2:0:0:
215,325,254680,2,0,P|166:366|110:376,1,111.999996582031,2|0,0:2|0:0,0:2:0:0:
75,171,255021,6,0,P|149:217|85:291,1,167.999994873047,2|0,3:2|0:0,0:2:0:0:
24,100,255532,1,2,0:2:0:0:
26,91,255618,1,2,0:2:0:0:
28,82,255703,1,10,0:2:0:0:
122,30,255930,1,0,0:2:0:0:
124,57,256044,1,2,0:2:0:0:
217,62,256271,1,0,0:2:0:0:
215,89,256385,5,6,3:2:0:0:
213,116,257066,5,2,0:2:0:0:
211,143,257748,5,2,3:2:0:0:
209,170,258430,5,2,0:2:0:0:
207,201,259112,6,0,P|298:220|323:206,1,93.3333333333333,6|0,3:2|0:0,0:2:0:0:
350,175,259453,1,2,0:2:0:0:
446,67,259680,1,0,0:2:0:0:
466,77,259794,2,0,L|452:221,1,140,10|2,0:2|0:0,0:2:0:0:
395,353,260362,1,0,0:2:0:0:
375,343,260476,6,0,L|386:210,1,93.3333333333333,2|0,3:2|0:0,0:2:0:0:
452,216,260816,1,0,0:2:0:0:
308,282,260987,1,2,0:2:0:0:
301,280,261072,1,2,0:2:0:0:
294,279,261157,2,0,L|189:256,1,93.3333333333333,10|0,0:2|0:0,0:2:0:0:
128,366,261498,2,0,L|232:343,1,93.3333333333333,2|0,0:2|0:0,0:2:0:0:
294,279,261839,5,2,3:2:0:0:
130,171,262066,1,0,0:2:0:0:
112,185,262180,2,0,B|100:208|100:208|101:291,1,93.3333333333333,2|0,0:2|0:0,0:2:0:0:
214,139,262521,2,0,P|165:89|68:104,1,140,10|2,0:2|0:0,0:2:0:0:
202,259,263089,1,0,0:2:0:0:
219,274,263203,6,0,L|373:262,1,140,2|0,3:2|0:0,0:2:0:0:
463,228,263714,1,2,0:2:0:0:
461,234,263799,1,2,0:2:0:0:
459,240,263885,2,0,P|455:284|468:343,1,93.3333333333333,10|0,0:2|0:0,0:2:0:0:
353,355,264226,2,0,P|361:309|357:262,1,93.3333333333333,2|0,0:2|0:0,0:2:0:0:
298,191,264566,5,2,3:2:0:0:
89,272,264907,2,0,L|224:259,1,93.3333333333333,2|0,0:2|0:0,0:2:0:0:
172,180,265248,2,0,L|79:188,1,93.3333333333333,10|0,0:2|0:0,0:2:0:0:
73,105,265589,2,0,L|165:96,1,93.3333333333333,2|0,0:2|0:0,0:2:0:0:
327,62,265930,6,0,P|279:80|289:189,1,140,2|0,3:2|0:0,0:2:0:0:
353,255,266441,1,2,0:2:0:0:
354,248,266527,1,2,0:2:0:0:
356,241,266612,2,0,L|349:139,1,93.3333333333333,10|0,0:2|0:0,0:2:0:0:
269,262,266953,2,0,L|275:355,1,93.3333333333333,2|0,0:2|0:0,0:2:0:0:
482,237,267294,6,0,P|414:213|349:248,1,140,2|2,3:2|0:0,0:2:0:0:
192,319,267862,1,2,0:2:0:0:
177,337,267976,2,0,P|161:285|162:166,1,140,10|0,0:2|0:0,0:2:0:0:
250,32,268544,1,0,0:2:0:0:
265,14,268657,6,0,P|281:66|280:185,1,140,2|0,3:2|0:0,0:2:0:0:
103,154,269226,1,0,0:2:0:0:
115,134,269339,2,0,P|183:116|216:127,1,93.3333333333333,10|0,0:2|0:0,0:2:0:0:
321,230,269680,2,0,P|275:235|232:217,1,93.3333333333333,0|0,0:2|0:0,0:2:0:0:
426,122,270021,6,0,B|435:174|435:174|425:202|425:202|438:303,1,140,6|2,3:2|0:0,0:2:0:0:
375,371,270589,1,0,0:2:0:0:
365,349,270703,2,0,P|291:322|242:338,1,93.3333333333333,10|0,0:2|0:0,0:2:0:0:
217,377,271044,2,0,P|143:350|94:366,1,93.3333333333333,2|0,0:2|0:0,0:2:0:0:
36,233,271385,6,0,L|46:376,1,140,2|0,3:2|0:0,0:2:0:0:
142,181,271896,1,2,0:2:0:0:
145,175,271981,1,2,0:2:0:0:
149,169,272066,2,0,P|155:85|141:49,1,93.3333333333333,10|0,0:2|0:0,0:2:0:0:
45,30,272407,2,0,P|39:76|48:121,1,93.3333333333333,2|0,0:2|0:0,0:2:0:0:
149,169,272748,5,2,3:2:0:0:
339,100,273089,2,0,L|224:91,1,93.3333333333333,2|0,0:2|0:0,0:2:0:0:
264,200,273430,2,0,B|326:206|326:206|345:217|345:217|423:226,1,140,10|2,0:2|0:0,0:2:0:0:
496,384,273998,1,0,0:2:0:0:
486,361,274112,6,0,P|472:286|494:237,1,93.3333333333333,2|0,3:2|0:0,0:2:0:0:
502,188,274453,1,0,0:2:0:0:
363,39,274623,1,2,0:2:0:0:
358,45,274708,1,2,0:2:0:0:
353,50,274794,2,0,P|338:93|342:139,1,93.3333333333333,10|0,0:2|0:0,0:2:0:0:
384,296,275135,2,0,P|399:253|396:207,1,93.3333333333333,2|0,0:2|0:0,0:2:0:0:
297,330,275476,6,0,L|167:317,1,93.3333333333333,2|0,3:2|0:0,0:2:0:0:
143,248,275816,1,2,0:2:0:0:
139,43,276044,1,0,0:2:0:0:
148,63,276157,2,0,B|151:98|151:98|129:167,1,93.3333333333333,10|0,0:2|0:0,0:2:0:0:
24,158,276498,2,0,B|21:193|21:193|43:262,1,93.3333333333333,2|0,0:2|0:0,0:2:0:0:
180,307,276839,6,0,P|132:293|80:311,1,93.3333333333333,2|0,3:2|0:0,0:2:0:0:
38,365,277180,1,0,0:2:0:0:
261,260,277351,1,2,0:2:0:0:
266,264,277436,1,2,0:2:0:0:
271,268,277521,2,0,L|257:378,1,93.3333333333333,10|0,0:2|0:0,0:2:0:0:
377,370,277862,2,0,L|365:277,1,93.3333333333333,2|0,0:2|0:0,0:2:0:0:
220,123,278203,6,0,B|304:106|273:159|395:121,1,140,2|2,3:2|0:0,0:2:0:0:
489,49,278771,1,2,0:2:0:0:
486,72,278885,2,0,L|465:228,1,140,10|0,0:2|0:0,0:2:0:0:
357,131,279453,1,0,0:2:0:0:
346,110,279566,6,0,P|343:44|349:28,2,46.6666666666667,2|0|0,3:2|0:0|0:0,0:2:0:0:
384,212,279907,2,0,P|374:271|342:308,1,93.3333333333333,0|0,0:2|0:0,0:2:0:0:
145,250,280248,2,0,L|275:246,1,93.3333333333333,10|0,0:2|0:0,0:2:0:0:
278,372,280589,2,0,L|184:374,1,93.3333333333333,0|0,0:2|0:0,0:2:0:0:
57,146,280930,6,0,B|66:201|66:201|52:236|52:236|62:320,1,140,6|2,3:2|0:0,0:2:0:0:
267,146,281498,1,0,0:2:0:0:
282,128,281612,2,0,P|236:96|164:102,1,93.3333333333333,10|0,0:2|0:0,0:2:0:0:
64,53,281953,2,0,P|110:21|182:27,1,93.3333333333333,2|0,0:2|0:0,0:2:0:0:
282,128,282294,6,0,L|269:273,1,140,2|0,3:2|0:0,0:2:0:0:
168,372,282805,1,2,0:2:0:0:
165,365,282890,1,2,0:2:0:0:
162,358,282976,2,0,B|147:321|147:321|152:257,1,93.3333333333333,10|0,0:2|0:0,0:2:0:0:
48,178,283316,2,0,B|63:215|63:215|58:279,1,93.3333333333333,2|0,0:2|0:0,0:2:0:0:
47,368,283657,5,2,3:2:0:0:
151,267,283885,1,0,0:2:0:0:
169,254,283998,2,0,P|214:242|260:249,1,93.3333333333333,2|0,0:2|0:0,0:2:0:0:
325,309,284339,2,0,P|369:320|415:313,1,93.3333333333333,10|0,0:2|0:0,0:2:0:0:
509,192,284680,2,0,L|493:297,1,93.3333333333333,2|0,0:2|0:0,0:2:0:0:
260,249,285021,6,0,L|245:156,1,93.3333333333333,2|0,3:2|0:0,0:2:0:0:
231,78,285362,1,0,0:2:0:0:
372,29,285532,1,2,0:2:0:0:
370,35,285617,1,2,0:2:0:0:
368,41,285703,2,0,L|353:133,1,93.3333333333333,10|0,0:2|0:0,0:2:0:0:
231,78,286044,2,0,P|181:65|122:78,1,93.3333333333333,2|0,0:2|0:0,0:2:0:0:
73,126,286385,5,2,3:2:0:0:
130,340,286726,2,0,L|141:218,1,93.3333333333333,2|0,0:2|0:0,0:2:0:0:
243,305,287066,2,0,L|232:183,1,93.3333333333333,10|0,0:2|0:0,0:2:0:0:
334,349,287407,2,0,L|345:227,1,93.3333333333333,2|0,0:2|0:0,0:2:0:0:
511,175,287748,6,0,B|426:142|458:215|338:169,1,140,2|0,3:2|0:0,0:2:0:0:
387,0,288260,1,2,0:2:0:0:
388,6,288345,1,2,0:2:0:0:
388,12,288430,2,0,L|399:115,1,93.3333333333333,10|0,0:2|0:0,0:2:0:0:
296,140,288771,2,0,L|286:47,1,93.3333333333333,2|0,0:2|0:0,0:2:0:0:
81,75,289112,6,0,P|169:64|207:101,1,140,2|2,3:2|0:0,0:2:0:0:
141,301,289680,1,2,0:2:0:0:
130,280,289794,2,0,B|122:240|122:240|134:139,1,140,10|0,0:2|0:0,0:2:0:0:
343,189,290362,1,0,0:2:0:0:
336,211,290476,6,0,P|279:248|213:230,1,140,2|0,3:2|0:0,0:2:0:0:
365,109,291044,1,0,0:2:0:0:
385,99,291157,2,0,P|458:99|491:114,1,93.3333333333333,10|0,0:2|0:0,0:2:0:0:
321,31,291498,2,0,P|248:31|215:46,1,93.3333333333333,0|0,0:2|0:0,0:2:0:0:
189,108,291839,5,6,3:2:0:0:
256,192,291953,12,0,300064,0:2:0:0:
