osu file format v14

[General]
AudioFilename: littleregret.mp3
AudioLeadIn: 0
PreviewTime: 59357
Countdown: 1
SampleSet: Soft
StackLeniency: 0.7
Mode: 0
LetterboxInBreaks: 0
WidescreenStoryboard: 0

[Editor]
DistanceSpacing: 1.5
BeatDivisor: 4
GridSize: 32
TimelineZoom: 2.5

[Metadata]
Title:Little Regret
TitleUnicode:リトルリグレット
Artist:Sana
ArtistUnicode:鎖那
Creator:Noobish
Version:Himecut
Source:
Tags:guststorm pazo spook dcyte nanamiya-
BeatmapID:905044
BeatmapSetID:418046

[Difficulty]
HPDrainRate:6
CircleSize:4
OverallDifficulty:7.2
ApproachRate:9
SliderMultiplier:1.4
SliderTickRate:1

[Events]
//Background and Video events
0,0,"55295025_p0.jpg",0,0
//Break Periods
//Storyboard Layer 0 (Background)
//Storyboard Layer 1 (Fail)
//Storyboard Layer 2 (Pass)
//Storyboard Layer 3 (Foreground)
//Storyboard Sound Samples

[TimingPoints]
1314,326.086956521739,4,2,0,60,1,0
8161,-80,4,2,0,60,0,0
18270,-100,4,2,0,60,0,0
18270,-100,4,2,0,45,0,0
29683,-66.6666666666667,4,2,0,60,0,0
53487,-66.6666666666667,4,2,0,20,0,0
54466,-66.6666666666667,4,2,0,60,0,0
64493,-66.6666666666667,4,2,0,40,0,0
64574,-66.6666666666667,4,2,0,60,0,0

[HitObjects]
360,88,1314,5,0,0:0:0:0:
258,282,1558,1,0,0:0:0:0:
121,108,1803,1,0,0:0:0:0:
121,108,1884,1,0,0:0:0:0:
121,108,1966,1,0,0:0:0:0:
61,308,2210,1,0,0:0:0:0:
235,190,2455,1,0,0:0:0:0:
267,176,2536,1,0,0:0:0:0:
301,180,2618,6,0,P|370:212|391:301,2,140
257,313,3433,1,0,0:0:0:0:
481,223,3759,2,0,P|452:162|401:111,1,140
182,84,4248,1,0,0:0:0:0:
318,119,4411,1,0,0:0:0:0:
197,189,4574,1,0,0:0:0:0:
197,189,4656,1,0,0:0:0:0:
197,189,4737,6,0,L|179:277,1,70
160,368,5063,1,0,0:0:0:0:
59,281,5227,6,0,L|41:369,1,70
73,212,5553,1,0,0:0:0:0:
351,234,5879,5,0,0:0:0:0:
184,70,6042,1,0,0:0:0:0:
61,321,6368,2,0,P|138:343|206:327,1,140
150,127,6857,1,0,0:0:0:0:
421,54,7020,1,0,0:0:0:0:
433,46,7346,1,0,0:0:0:0:
446,40,7672,2,0,P|456:111|411:194,1,140
388,306,8161,6,0,L|295:339,1,87.5
172,291,8487,2,0,L|265:258,1,87.5
128,200,8813,2,0,P|81:149|91:103,1,87.5
115,11,9140,2,0,P|162:62|152:108,2,87.5
213,155,9629,5,0,0:0:0:0:
295,41,9792,1,0,0:0:0:0:
362,163,9955,1,0,0:0:0:0:
295,41,10118,1,0,0:0:0:0:
142,35,10281,1,0,0:0:0:0:
112,52,10362,1,0,0:0:0:0:
90,80,10444,2,0,P|75:141|80:185,1,87.5
123,346,10770,5,0,0:0:0:0:
184,182,10933,1,0,0:0:0:0:
242,347,11096,2,0,P|299:344|341:311,1,87.5
298,183,11422,5,0,0:0:0:0:
122,118,11585,1,0,0:0:0:0:
139,292,11748,1,0,0:0:0:0:
225,140,11911,1,0,0:0:0:0:
51,158,12074,1,0,0:0:0:0:
215,217,12237,1,0,0:0:0:0:
53,249,12400,1,0,0:0:0:0:
225,140,12563,1,0,0:0:0:0:
42,82,12727,1,0,0:0:0:0:
246,3,12890,6,0,P|325:-4|402:67,1,175
269,174,13379,5,0,0:0:0:0:
135,60,13542,1,0,0:0:0:0:
308,82,13705,1,0,0:0:0:0:
47,256,13868,1,0,0:0:0:0:
181,142,14031,1,0,0:0:0:0:
8,164,14194,1,0,0:0:0:0:
268,340,14357,1,0,0:0:0:0:
134,226,14520,1,0,0:0:0:0:
307,248,14683,1,0,0:0:0:0:
150,347,14846,1,0,0:0:0:0:
347,161,15009,1,0,0:0:0:0:
190,82,15172,1,0,0:0:0:0:
361,49,15335,1,0,0:0:0:0:
457,123,15498,6,0,B|495:212|401:296,1,175
205,279,15987,2,0,P|152:214|156:178,1,87.5
205,104,16313,2,0,P|288:90|318:112,1,87.5
357,192,16640,2,0,P|327:271|293:285,1,87.5
241,267,16966,1,0,0:0:0:0:
178,198,17129,1,0,0:0:0:0:
127,127,17292,1,0,0:0:0:0:
43,154,17455,1,0,0:0:0:0:
43,241,17618,1,0,0:0:0:0:
127,269,17781,1,0,0:0:0:0:
209,240,17944,1,0,0:0:0:0:
291,269,18107,1,0,0:0:0:0:
351,328,18270,6,0,L|407:382,2,70
391,243,18759,1,0,0:0:0:0:
391,243,18922,2,0,L|469:243,1,70
444,139,19248,1,0,0:0:0:0:
444,139,19411,2,0,P|400:152|355:137,1,70
303,74,19737,2,0,P|259:60|214:76,1,70
123,146,20063,2,0,P|167:132|212:148,1,70
306,214,20390,2,0,P|262:200|217:216,1,70
88,225,20716,5,0,0:0:0:0:
88,225,20879,2,0,L|86:313,1,70
43,129,21205,1,0,0:0:0:0:
43,129,21368,2,0,L|-45:168,1,70
147,129,21694,2,0,L|231:91,1,70
123,209,22020,1,0,0:0:0:0:
123,209,22183,2,0,L|39:171,1,70
163,273,22509,2,0,L|247:235,1,70
121,336,22835,2,0,L|57:307,1,70
206,339,23161,1,0,0:0:0:0:
352,192,23324,5,0,0:0:0:0:
352,192,23406,1,0,0:0:0:0:
352,192,23487,2,0,P|400:176|421:140,1,70
208,275,23813,2,0,P|197:324|218:360,1,70
208,108,24140,2,0,P|170:75|128:75,1,70
74,190,24466,1,0,0:0:0:0:
213,188,24629,1,0,0:0:0:0:
134,303,24792,1,0,0:0:0:0:
135,135,24955,1,0,0:0:0:0:
331,38,25118,6,0,P|365:84|367:116,1,70
328,229,25444,2,0,P|303:204|291:171,1,70
198,66,25770,2,0,P|178:93|170:131,1,70
156,269,26096,2,0,P|131:244|119:211,1,70
9,116,26422,1,0,0:0:0:0:
145,63,26585,2,0,P|170:88|182:121,1,70
118,214,26911,6,0,P|140:259|186:272,1,70
272,190,27237,2,0,P|250:145|204:132,1,70
170,99,27563,2,0,P|137:109|115:136,1,70
224,303,27890,1,0,0:0:0:0:
371,267,28053,1,0,0:0:0:0:
404,257,28134,1,0,0:0:0:0:
429,233,28216,1,0,0:0:0:0:
440,201,28297,1,0,0:0:0:0:
433,167,28379,1,0,0:0:0:0:
389,33,28542,5,0,0:0:0:0:
308,147,28705,2,0,L|243:79,1,70
145,177,29031,2,0,L|153:269,1,70
290,250,29357,2,0,L|270:338,1,70
67,366,29683,5,0,0:0:0:0:
36,283,29846,1,0,0:0:0:0:
189,366,30009,1,0,0:0:0:0:
220,283,30172,2,0,P|258:247|271:197,1,105.000004005432
193,73,30498,2,0,P|155:108|147:187,1,105.000004005432
394,140,30824,2,0,P|412:213|391:267,1,105.000004005432
220,283,31150,1,0,0:0:0:0:
231,101,31313,2,0,B|244:137|244:137|237:226,1,105.000004005432
82,180,31640,1,0,0:0:0:0:
96,25,31803,2,0,P|146:4|201:24,1,105.000004005432
332,90,32129,2,0,B|353:117|353:117|330:224,1,105.000004005432
299,338,32455,1,0,0:0:0:0:
174,241,32618,6,0,P|129:177|136:122,1,105.000004005432
311,232,32944,1,0,0:0:0:0:
237,109,33107,2,0,P|269:38|321:16,1,105.000004005432
311,232,33433,1,0,0:0:0:0:
380,106,33596,2,0,P|452:78|505:99,1,105.000004005432
457,239,33922,5,0,0:0:0:0:
337,341,34085,1,0,0:0:0:0:
457,239,34248,1,0,0:0:0:0:
337,341,34411,1,0,0:0:0:0:
311,185,34574,2,0,P|254:162|194:193,1,105.000004005432
92,273,34900,1,0,0:0:0:0:
87,115,35063,2,0,P|141:61|196:48,1,105.000004005432
324,54,35390,2,0,P|391:83|419:115,1,105.000004005432
392,261,35716,5,0,0:0:0:0:
307,322,35879,1,0,0:0:0:0:
205,322,36042,1,0,0:0:0:0:
120,261,36205,1,0,0:0:0:0:
187,90,36368,5,0,0:0:0:0:
288,62,36531,1,0,0:0:0:0:
349,209,36694,5,0,0:0:0:0:
256,162,36857,1,0,0:0:0:0:
198,249,37020,5,0,0:0:0:0:
356,111,37183,1,0,0:0:0:0:
355,301,37346,5,0,0:0:0:0:
190,76,37509,1,0,0:0:0:0:
67,246,37672,1,0,0:0:0:0:
43,43,37835,2,0,P|65:113|185:182,1,210.000008010865
384,209,38324,1,0,0:0:0:0:
368,236,38406,1,0,0:0:0:0:
350,261,38487,2,0,B|306:309|306:309|226:290|226:290,1,105.000004005432
165,270,38813,5,0,0:0:0:0:
134,262,38895,1,0,0:0:0:0:
108,242,38977,1,0,0:0:0:0:
99,211,39058,1,0,0:0:0:0:
93,179,39140,2,0,P|82:113|48:84,1,105.000004005432
0,58,39466,5,0,0:0:0:0:
313,73,39792,1,0,0:0:0:0:
130,328,40118,1,0,0:0:0:0:
182,179,40281,1,0,0:0:0:0:
130,328,40444,1,0,0:0:0:0:
182,179,40607,1,0,0:0:0:0:
280,301,40770,1,0,0:0:0:0:
38,202,41096,1,0,0:0:0:0:
342,120,41422,1,0,0:0:0:0:
370,134,41504,1,0,0:0:0:0:
390,157,41585,1,0,0:0:0:0:
395,188,41667,1,0,0:0:0:0:
386,218,41748,2,0,P|378:282|415:325,1,105.000004005432
464,354,42074,5,0,0:0:0:0:
169,242,42400,1,0,0:0:0:0:
412,40,42727,1,0,0:0:0:0:
335,177,42890,1,0,0:0:0:0:
310,60,43053,1,0,0:0:0:0:
437,151,43216,1,0,0:0:0:0:
310,60,43379,1,0,0:0:0:0:
168,280,43705,1,0,0:0:0:0:
7,9,44031,1,0,0:0:0:0:
25,34,44112,1,0,0:0:0:0:
53,47,44194,1,0,0:0:0:0:
84,48,44275,1,0,0:0:0:0:
115,42,44357,1,0,0:0:0:0:
256,0,44683,5,0,0:0:0:0:
256,314,45009,1,0,0:0:0:0:
8,118,45335,1,0,0:0:0:0:
165,119,45498,1,0,0:0:0:0:
44,220,45661,1,0,0:0:0:0:
77,66,45824,1,0,0:0:0:0:
44,220,45987,1,0,0:0:0:0:
353,163,46313,1,0,0:0:0:0:
100,352,46640,5,0,0:0:0:0:
81,326,46721,1,0,0:0:0:0:
84,294,46803,1,0,0:0:0:0:
102,268,46884,1,0,0:0:0:0:
130,253,46966,1,0,0:0:0:0:
444,255,47292,1,0,0:0:0:0:
248,7,47618,1,0,0:0:0:0:
122,295,47944,1,0,0:0:0:0:
236,186,48107,1,0,0:0:0:0:
79,200,48270,1,0,0:0:0:0:
236,186,48433,1,0,0:0:0:0:
122,295,48596,1,0,0:0:0:0:
430,359,48922,1,0,0:0:0:0:
385,207,49248,5,0,0:0:0:0:
369,179,49330,1,0,0:0:0:0:
369,147,49411,1,0,0:0:0:0:
385,120,49493,1,0,0:0:0:0:
406,96,49574,1,0,0:0:0:0:
169,303,49900,1,0,0:0:0:0:
147,322,50553,5,0,0:0:0:0:
358,88,50879,1,0,0:0:0:0:
110,345,51205,5,0,0:0:0:0:
76,359,51857,5,0,0:0:0:0:
60,282,51938,1,0,0:0:0:0:
77,204,52020,1,0,0:0:0:0:
124,140,52102,1,0,0:0:0:0:
194,105,52183,1,0,0:0:0:0:
415,328,52509,1,0,0:0:0:0:
431,339,53161,5,0,0:0:0:0:
207,117,53487,2,0,L|184:146,1,26.2500010013581
190,137,53977,1,0,0:0:0:0:
178,155,54466,5,0,0:0:0:0:
165,183,54547,1,0,0:0:0:0:
170,214,54629,1,0,0:0:0:0:
191,236,54710,1,0,0:0:0:0:
218,251,54792,1,0,0:0:0:0:
343,156,54955,1,0,0:0:0:0:
321,306,55118,1,0,0:0:0:0:
253,66,55281,1,0,0:0:0:0:
266,222,55444,1,0,0:0:0:0:
393,23,55607,1,0,0:0:0:0:
343,156,55770,1,0,0:0:0:0:
185,160,55933,6,0,L|106:159,1,52.5000020027161
53,160,56096,1,0,0:0:0:0:
114,304,56259,1,0,0:0:0:0:
254,231,56422,1,0,0:0:0:0:
193,376,56585,1,0,0:0:0:0:
344,332,56748,1,0,0:0:0:0:
387,313,56830,1,0,0:0:0:0:
421,280,56911,1,0,0:0:0:0:
443,238,56993,1,0,0:0:0:0:
448,191,57074,1,0,0:0:0:0:
442,143,57156,1,0,0:0:0:0:
424,99,57237,1,0,0:0:0:0:
394,61,57319,1,0,0:0:0:0:
354,35,57400,1,0,0:0:0:0:
256,192,57482,12,0,59031,0:0:0:0:
131,85,59357,5,0,0:0:0:0:
329,248,59520,1,0,0:0:0:0:
77,333,60009,6,0,P|41:259|57:205,1,105.000004005432
200,239,60335,1,0,0:0:0:0:
121,102,60498,1,0,0:0:0:0:
278,100,60661,2,0,P|321:141|329:202,1,105.000004005432
347,340,60987,1,0,0:0:0:0:
477,251,61150,1,0,0:0:0:0:
331,183,61313,2,0,P|254:186|228:231,1,105.000004005432
126,336,61640,1,0,0:0:0:0:
127,178,61803,1,0,0:0:0:0:
255,268,61966,2,0,L|376:254,1,105.000004005432
351,127,62292,1,0,0:0:0:0:
193,121,62455,5,0,0:0:0:0:
193,121,62536,1,0,0:0:0:0:
193,121,62618,2,0,B|173:262,1,105.000004005432
272,1,62944,1,0,0:0:0:0:
351,127,63107,1,0,0:0:0:0:
193,119,63270,2,0,P|61:108|61:108,1,105.000004005432
17,251,63596,1,0,0:0:0:0:
173,270,63759,1,0,0:0:0:0:
85,138,63922,2,0,P|158:196|202:192,1,105.000004005432
322,192,64248,2,0,P|421:118|419:63,1,157.500006008148
423,49,64574,5,0,0:0:0:0:
266,33,64737,1,0,0:0:0:0:
373,148,64900,1,0,0:0:0:0:
394,184,64982,1,0,0:0:0:0:
400,225,65063,1,0,0:0:0:0:
393,266,65145,1,0,0:0:0:0:
374,303,65227,1,0,0:0:0:0:
240,219,65390,1,0,0:0:0:0:
269,373,65553,1,0,0:0:0:0:
120,320,65716,1,0,0:0:0:0:
120,320,65797,1,0,0:0:0:0:
120,320,65879,1,0,0:0:0:0:
126,103,66042,6,0,L|89:220,1,105.000004005432
209,38,66368,1,0,0:0:0:0:
335,131,66531,1,0,0:0:0:0:
188,189,66694,2,0,P|230:245|301:250,1,105.000004005432
418,257,67020,1,0,0:0:0:0:
418,257,67102,1,0,0:0:0:0:
418,257,67183,1,0,0:0:0:0:
400,68,67346,6,0,L|437:185,1,105.000004005432
185,162,67672,1,0,0:0:0:0:
185,162,67754,1,0,0:0:0:0:
185,162,67835,1,0,0:0:0:0:
295,274,67998,1,0,0:0:0:0:
138,261,68161,1,0,0:0:0:0:
326,169,68324,1,0,0:0:0:0:
119,130,68487,1,0,0:0:0:0:
226,310,68650,1,0,0:0:0:0:
21,262,68813,1,0,0:0:0:0:
46,44,68977,5,0,0:0:0:0:
46,44,69058,1,0,0:0:0:0:
46,44,69140,2,0,L|182:81,1,105.000004005432
291,224,69466,2,0,L|165:275,1,105.000004005432
1,348,69792,1,0,0:0:0:0:
38,320,69873,1,0,0:0:0:0:
84,311,69955,1,0,0:0:0:0:
130,319,70036,1,0,0:0:0:0:
172,339,70118,2,0,P|258:341|292:305,1,105.000004005432
416,114,70444,6,0,L|384:228,1,105.000004005432
235,178,70770,1,0,0:0:0:0:
270,332,70933,1,0,0:0:0:0:
119,286,71096,2,0,P|67:243|68:197,1,105.000004005432
127,64,71422,1,0,0:0:0:0:
277,110,71585,1,0,0:0:0:0:
160,216,71748,2,0,L|254:271,1,105.000004005432
397,212,72074,1,0,0:0:0:0:
277,110,72237,1,0,0:0:0:0:
425,58,72400,2,0,P|480:118|491:232,1,157.500006008148
494,238,72727,5,0,0:0:0:0:
319,192,72890,1,0,0:0:0:0:
366,342,73053,2,0,P|312:325|242:352,1,105.000004005432
168,211,73379,1,0,0:0:0:0:
87,346,73542,1,0,0:0:0:0:
45,86,73705,2,0,L|64:190,1,105.000004005432
177,81,74031,1,0,0:0:0:0:
123,229,74194,1,0,0:0:0:0:
279,211,74357,2,0,L|389:254,1,105.000004005432
315,104,74683,1,0,0:0:0:0:
196,207,74846,1,0,0:0:0:0:
304,321,75009,2,0,P|392:322|442:290,1,105.000004005432
433,104,75335,5,0,0:0:0:0:
397,72,75417,1,0,0:0:0:0:
354,51,75498,1,0,0:0:0:0:
306,48,75580,1,0,0:0:0:0:
259,55,75661,1,0,0:0:0:0:
124,137,75824,1,0,0:0:0:0:
265,205,75987,1,0,0:0:0:0:
132,290,76150,1,0,0:0:0:0:
132,290,76232,1,0,0:0:0:0:
132,290,76313,1,0,0:0:0:0:
364,237,76477,6,0,L|232:194,1,105.000004005432
124,137,76803,1,0,0:0:0:0:
275,93,76966,1,0,0:0:0:0:
138,20,77129,1,0,0:0:0:0:
138,20,77210,1,0,0:0:0:0:
138,20,77292,1,0,0:0:0:0:
378,76,77455,6,0,L|253:96,1,105.000004005432
174,214,77781,1,0,0:0:0:0:
331,212,77944,1,0,0:0:0:0:
365,244,78025,1,0,0:0:0:0:
374,290,78107,1,0,0:0:0:0:
363,335,78188,1,0,0:0:0:0:
321,358,78270,2,0,B|243:389|199:292|108:368,1,210.000008010865
53,214,78759,6,0,P|123:171|176:182,1,105.000004005432
226,234,79085,1,0,0:0:0:0:
259,134,79248,1,0,0:0:0:0:
325,215,79411,1,0,0:0:0:0:
119,114,79574,1,0,0:0:0:0:
260,44,79737,1,0,0:0:0:0:
413,79,79900,1,0,0:0:0:0:
463,228,80063,1,0,0:0:0:0:
375,359,80227,1,0,0:0:0:0:
217,354,80390,1,0,0:0:0:0:
109,234,80553,5,0,0:0:0:0:
109,234,80634,1,0,0:0:0:0:
109,234,80716,1,0,0:0:0:0:
109,234,80797,1,0,0:0:0:0:
109,234,80879,1,0,0:0:0:0:
262,200,81042,1,0,0:0:0:0:
169,327,81205,1,0,0:0:0:0:
264,26,81368,1,0,0:0:0:0:
121,93,81531,1,0,0:0:0:0:
274,126,81694,1,0,0:0:0:0:
8,19,81857,1,0,0:0:0:0:
165,23,82020,1,0,0:0:0:0:
40,119,82183,1,0,0:0:0:0:
197,130,82346,1,0,0:0:0:0:
104,257,82509,1,0,0:0:0:0:
250,199,82672,1,0,0:0:0:0:
242,356,82835,1,0,0:0:0:0:
346,238,82998,1,0,0:0:0:0:
452,354,83161,1,0,0:0:0:0:
492,157,83324,1,0,0:0:0:0:
