osu file format v14

[General]
AudioFilename: audio.mp3
AudioLeadIn: 0
PreviewTime: 65585
Countdown: 1
SampleSet: Normal
StackLeniency: 0.7
Mode: 0
LetterboxInBreaks: 0
WidescreenStoryboard: 0

[Editor]
DistanceSpacing: 2.4
BeatDivisor: 4
GridSize: 4
TimelineZoom: 1

[Metadata]
Title:Kotonoha Clinic
TitleUnicode:言の葉クリニック
Artist:Sana
ArtistUnicode:鎖那
Creator:----
Version:Insane
Source:
Tags:
BeatmapID:1063415
BeatmapSetID:499685

[Difficulty]
HPDrainRate:6
CircleSize:4
OverallDifficulty:7
ApproachRate:8.5
SliderMultiplier:1.4
SliderTickRate:1

[Events]
//Background and Video events
0,0,"58273753_p0.jpg",0,0
//Break Periods
2,39361,41864
2,151613,159877
//Storyboard Layer 0 (Background)
//Storyboard Layer 1 (Fail)
//Storyboard Layer 2 (Pass)
//Storyboard Layer 3 (Foreground)
//Storyboard Sound Samples

[TimingPoints]
65586,397.350993377483,4,1,0,100,1,0
68764,-66.6666666666667,4,1,0,100,0,0
70354,-100,4,1,0,100,0,0
175056,-66.6666666666667,4,1,0,100,0,0
176744,-100,4,1,0,100,0,0
206645,-200,4,1,0,100,0,0

[HitObjects]
196,152,21877,5,0,0:0:0:0:
196,152,22076,1,0,0:0:0:0:
196,152,22274,1,0,0:0:0:0:
328,240,22672,5,0,0:0:0:0:
328,240,22870,1,0,0:0:0:0:
328,240,23069,1,0,0:0:0:0:
144,256,23466,5,0,0:0:0:0:
144,256,23665,1,0,0:0:0:0:
144,256,23864,1,0,0:0:0:0:
264,140,24261,2,0,L|344:92,2,70
336,204,25056,5,0,0:0:0:0:
224,108,25254,1,0,0:0:0:0:
184,244,25453,2,0,B|220:280|268:284,1,70
272,280,25751,1,0,0:0:0:0:
300,276,25850,2,0,P|320:212|308:196,1,70
321,215,26248,1,0,0:0:0:0:
172,84,26645,5,0,0:0:0:0:
264,180,26844,1,0,0:0:0:0:
272,44,27042,2,0,P|332:44|336:68,1,70
344,72,27340,1,0,0:0:0:0:
352,108,27440,2,0,L|340:140,6,35
308,244,28235,5,0,0:0:0:0:
308,244,28433,1,0,0:0:0:0:
308,244,28632,1,0,0:0:0:0:
104,256,28831,1,0,0:0:0:0:
104,256,28930,1,0,0:0:0:0:
104,256,29029,2,0,P|84:216|104:184,1,70
144,128,29427,2,0,L|264:40,1,140
364,104,30023,5,0,0:0:0:0:
260,216,30221,1,0,0:0:0:0:
364,104,30420,1,0,0:0:0:0:
428,260,30619,1,0,0:0:0:0:
260,216,30817,1,0,0:0:0:0:
320,300,31016,2,0,P|292:328|236:336,1,70
200,240,31413,5,0,0:0:0:0:
124,100,31612,1,0,0:0:0:0:
272,168,31811,1,0,0:0:0:0:
96,192,32009,1,0,0:0:0:0:
216,88,32208,1,0,0:0:0:0:
200,240,32407,1,0,0:0:0:0:
280,124,32605,5,0,0:0:0:0:
360,228,32804,1,0,0:0:0:0:
396,104,33003,2,0,L|332:64,1,70
268,80,33400,2,0,L|200:124,1,70
140,124,33797,2,0,L|68:88,1,70
56,240,34195,5,0,0:0:0:0:
196,272,34393,1,0,0:0:0:0:
140,168,34592,2,0,P|192:116|248:152,1,140
344,96,35188,1,0,0:0:0:0:
344,96,35387,2,0,L|404:228,1,140
320,276,36182,6,0,L|248:300,1,70
176,252,36579,2,0,L|212:180,1,70
252,120,36976,2,0,L|320:144,1,70
416,136,37374,2,0,L|376:60,1,70
300,32,37771,6,0,L|216:68,1,70
160,112,38168,2,0,L|128:192,1,70
216,224,38566,2,0,L|264:284,1,70
184,336,38963,2,0,L|108:348,1,70
320,116,42539,6,0,P|368:152|380:192,1,70
372,159,42936,1,0,0:0:0:0:
368,276,43135,1,0,0:0:0:0:
368,276,43235,1,0,0:0:0:0:
368,276,43334,2,0,P|328:316|296:308,1,70
160,256,43731,5,0,0:0:0:0:
160,256,43831,1,0,0:0:0:0:
160,256,43930,1,0,0:0:0:0:
160,256,44029,1,0,0:0:0:0:
160,256,44129,2,0,L|132:176,1,70
240,44,44526,5,0,0:0:0:0:
240,44,44625,1,0,0:0:0:0:
240,44,44725,1,0,0:0:0:0:
240,44,44824,1,0,0:0:0:0:
240,44,44923,2,0,L|324:88,2,70
316,204,45718,5,0,0:0:0:0:
316,204,45917,1,0,0:0:0:0:
256,284,46115,2,0,P|212:288|192:272,1,70
193,273,46413,1,0,0:0:0:0:
193,273,46513,1,0,0:0:0:0:
272,140,46711,1,0,0:0:0:0:
76,204,46910,1,0,0:0:0:0:
136,72,47109,1,0,0:0:0:0:
193,273,47307,2,0,P|233:285|301:217,2,140
208,184,48499,5,0,0:0:0:0:
352,80,48698,1,0,0:0:0:0:
300,224,48897,2,0,P|304:260|340:284,1,70
440,168,49294,5,0,0:0:0:0:
272,96,49493,1,0,0:0:0:0:
368,220,49691,2,0,P|368:256|324:280,1,70
344,277,50089,1,0,0:0:0:0:
280,216,50486,6,0,L|220:160,1,70
172,128,50884,2,0,L|112:184,1,70
64,224,51281,2,0,L|7:177,1,70
76,300,51678,5,0,0:0:0:0:
208,224,51877,1,0,0:0:0:0:
76,300,52076,2,0,P|108:340|132:348,1,70
160,180,52473,1,0,0:0:0:0:
56,112,52672,1,0,0:0:0:0:
160,180,52870,2,0,P|200:140|244:132,1,70
211,135,53268,1,0,0:0:0:0:
280,272,53665,6,0,P|336:268|360:248,1,70
360,244,53963,1,0,0:0:0:0:
376,220,54062,2,0,P|396:180|396:144,1,70
316,40,54460,1,0,0:0:0:0:
192,124,54658,1,0,0:0:0:0:
288,200,54857,2,0,P|268:244|224:272,1,70
120,304,55254,6,0,P|104:264|128:224,1,70
136,224,55552,1,0,0:0:0:0:
168,204,55652,2,0,P|208:184|216:152,1,70
228,136,55950,1,0,0:0:0:0:
248,108,56050,2,0,P|268:88|316:92,1,70
392,168,56446,5,0,0:0:0:0:
452,308,56645,1,0,0:0:0:0:
328,268,56844,2,0,L|196:332,1,140
168,232,57440,1,0,0:0:0:0:
96,312,57638,2,0,P|64:260|80:184,1,140
148,88,58235,5,0,0:0:0:0:
240,140,58433,2,0,L|304:92,2,70
400,128,59029,1,0,0:0:0:0:
368,224,59228,2,0,L|304:272,2,70
200,224,59824,5,0,0:0:0:0:
200,224,60023,2,0,P|188:176|164:164,1,70
152,148,60321,1,0,0:0:0:0:
128,132,60420,2,0,P|84:140|72:160,1,70
68,188,60718,1,0,0:0:0:0:
76,216,60817,2,0,L|132:288,1,70
118,271,61215,1,0,0:0:0:0:
220,212,61612,6,0,L|256:284,1,70
324,232,62009,2,0,L|356:164,1,70
432,140,62407,2,0,L|472:208,1,70
392,280,62804,1,0,0:0:0:0:
304,160,63003,1,0,0:0:0:0:
296,300,63201,6,0,P|232:280|208:216,2,140
288,200,64195,1,0,0:0:0:0:
288,88,64393,1,0,0:0:0:0:
168,164,64592,1,0,0:0:0:0:
240,260,64791,2,0,L|304:204,2,70
320,104,65586,6,0,P|336:120|348:152,1,35
340,216,65784,2,0,P|336:244|328:268,1,35
280,320,65983,2,0,P|244:328|216:324,1,35
136,296,66182,2,0,P|104:280|96:256,1,35
96,176,66380,6,0,P|96:132|104:120,1,35
156,60,66579,2,0,P|192:40|208:40,1,35
296,48,66778,2,0,P|328:60|336:80,1,35
400,136,66976,2,0,P|408:180|408:192,1,35
360,264,67175,6,0,P|344:304|336:312,1,35
248,324,67374,2,0,P|208:332|192:320,1,35
128,236,67572,1,0,0:0:0:0:
224,180,67771,1,0,0:0:0:0:
132,104,67970,2,0,B|88:96|68:104|52:120|40:192,1,140
72,284,68566,1,0,0:0:0:0:
168,256,68764,6,0,B|224:256|236:284|244:356,1,105.000004005432
320,316,69162,2,0,P|352:252|416:244,1,105.000004005432
376,164,69559,2,0,P|304:136|296:96,1,105.000004005432
204,108,69956,2,0,P|164:172|104:180,1,105.000004005432
139,181,70254,5,0,0:0:0:0:
139,181,70354,2,0,P|68:216|52:280,1,140
176,304,70950,1,0,0:0:0:0:
272,232,71148,2,0,P|320:168|384:160,1,140
304,60,71744,5,0,0:0:0:0:
304,60,71943,2,0,L|180:136,1,140
184,236,72539,1,0,0:0:0:0:
184,236,72738,2,0,P|244:252|264:184,1,140
248,116,73334,1,0,0:0:0:0:
248,116,73533,2,0,P|273:66|337:102,1,140
354,169,74129,1,0,0:0:0:0:
354,169,74327,2,0,P|408:208|440:148,1,140
376,68,75122,6,0,L|304:116,1,70
232,56,75519,1,0,0:0:0:0:
312,192,75718,1,0,0:0:0:0:
192,156,75917,2,0,L|232:224,2,70
236,312,76711,6,0,P|264:312|288:292,1,35
340,228,76910,2,0,P|352:192|352:176,1,35
248,140,77109,2,0,P|208:152|196:164,1,35
144,216,77307,2,0,P|144:252|152:264,1,35
236,324,77506,2,0,P|296:312|312:288,1,70
312,292,77804,1,0,0:0:0:0:
324,272,77903,2,0,L|356:208,1,70
368,176,78201,1,0,0:0:0:0:
372,144,78301,6,0,P|360:112|348:104,1,35
248,76,78499,2,0,P|212:72|200:84,1,35
124,128,78698,2,0,P|108:168|112:188,1,35
140,268,78897,2,0,P|184:280|200:276,1,35
272,252,79095,2,0,L|204:192,2,70
272,252,79691,5,0,0:0:0:0:
308,136,79890,2,0,P|272:96|240:88,1,70
192,176,80287,2,0,P|140:180|124:196,1,70
200,296,80685,2,0,P|168:324|176:344,1,70
328,296,81082,1,0,0:0:0:0:
384,188,81281,5,0,0:0:0:0:
384,188,81380,1,0,0:0:0:0:
384,188,81480,2,0,P|344:124|280:100,3,140
216,208,83069,6,0,L|164:268,1,70
88,216,83466,2,0,L|84:120,1,70
152,88,83864,2,0,L|228:124,2,70
280,44,84460,5,0,0:0:0:0:
160,104,84658,2,0,B|188:152|224:164|288:168,1,140
280,44,85254,1,0,0:0:0:0:
396,104,85453,2,0,B|345:150|305:166|249:170,1,140
280,44,86049,1,0,0:0:0:0:
280,160,86248,2,0,L|280:240,2,70
280,160,87042,1,0,0:0:0:0:
280,160,87440,1,0,0:0:0:0:
196,224,87638,6,0,L|128:264,1,70
196,224,88433,2,0,L|128:264,3,70
232,156,89427,5,0,0:0:0:0:
376,56,89625,1,0,0:0:0:0:
336,224,89824,1,0,0:0:0:0:
264,56,90023,1,0,0:0:0:0:
420,160,90221,5,0,0:0:0:0:
236,160,90420,1,0,0:0:0:0:
400,56,90619,1,0,0:0:0:0:
328,236,90817,1,0,0:0:0:0:
268,40,91016,5,0,0:0:0:0:
424,168,91215,1,0,0:0:0:0:
236,176,91413,1,0,0:0:0:0:
320,60,91612,1,0,0:0:0:0:
348,248,91811,1,0,0:0:0:0:
220,144,92009,5,0,0:0:0:0:
220,144,92109,1,0,0:0:0:0:
220,144,92208,2,0,P|172:180|164:216,1,70
196,296,92605,5,0,0:0:0:0:
76,192,92804,1,0,0:0:0:0:
184,180,93003,2,0,L|188:104,1,70
300,84,93400,5,0,0:0:0:0:
408,216,93599,1,0,0:0:0:0:
312,192,93797,2,0,L|280:268,1,70
156,192,94195,5,0,0:0:0:0:
240,48,94393,1,0,0:0:0:0:
308,112,94592,2,0,L|380:80,1,70
320,248,94989,5,0,0:0:0:0:
200,120,95188,1,0,0:0:0:0:
152,224,95387,2,0,L|76:268,1,70
76,80,95784,6,0,L|144:112,1,70
232,68,96182,2,0,L|312:40,1,70
384,112,96579,2,0,L|440:172,1,70
440,256,96976,2,0,L|376:308,1,70
312,236,97374,6,0,L|248:176,1,70
196,284,97771,2,0,L|132:336,1,70
68,240,98168,2,0,L|104:164,1,70
224,152,98566,5,0,0:0:0:0:
148,40,98764,1,0,0:0:0:0:
264,56,98963,2,0,L|320:136,1,70
344,196,99360,2,0,L|404:128,1,70
356,36,99758,5,0,0:0:0:0:
432,184,99956,1,0,0:0:0:0:
332,140,100155,2,0,P|292:148|252:188,1,70
160,120,100552,5,0,0:0:0:0:
216,244,100751,1,0,0:0:0:0:
64,232,100950,1,0,0:0:0:0:
64,232,101049,1,0,0:0:0:0:
64,232,101148,1,0,0:0:0:0:
64,232,101248,1,0,0:0:0:0:
64,232,101347,1,0,0:0:0:0:
120,108,101546,1,0,0:0:0:0:
200,256,101744,2,0,P|256:256|276:240,1,70
264,132,102142,5,0,0:0:0:0:
372,212,102340,2,0,P|352:240|316:268,1,70
188,204,102738,1,0,0:0:0:0:
188,204,102837,1,0,0:0:0:0:
188,204,102936,2,0,L|128:164,2,70
288,124,103731,5,0,0:0:0:0:
288,124,103831,1,0,0:0:0:0:
288,124,103930,2,0,L|264:88,1,35
404,128,104129,5,0,0:0:0:0:
404,128,104229,1,0,0:0:0:0:
404,128,104328,2,0,L|432:104,1,35
380,256,104526,5,0,0:0:0:0:
236,156,104725,1,0,0:0:0:0:
288,312,104923,1,0,0:0:0:0:
352,176,105122,1,0,0:0:0:0:
272,68,105321,2,0,P|196:56|148:108,2,140
144,200,106513,5,0,0:0:0:0:
312,188,106711,1,0,0:0:0:0:
248,292,106910,2,0,P|192:312|172:304,1,70
192,176,107307,5,0,0:0:0:0:
344,240,107506,1,0,0:0:0:0:
308,104,107705,2,0,P|352:88|372:96,1,70
371,95,108102,1,0,0:0:0:0:
388,244,108499,6,0,L|352:264,1,35
272,256,108698,2,0,L|232:244,1,35
184,164,108897,1,0,0:0:0:0:
184,164,108996,1,0,0:0:0:0:
184,164,109095,1,0,0:0:0:0:
184,164,109195,1,0,0:0:0:0:
184,164,109294,5,0,0:0:0:0:
336,120,109493,1,0,0:0:0:0:
192,48,109691,1,0,0:0:0:0:
88,172,109890,1,0,0:0:0:0:
224,248,110089,5,0,0:0:0:0:
224,248,110188,1,0,0:0:0:0:
224,248,110287,2,0,L|196:280,1,35
328,204,110486,5,0,0:0:0:0:
328,204,110585,1,0,0:0:0:0:
328,204,110685,2,0,L|352:240,1,35
320,332,110884,1,0,0:0:0:0:
452,208,111082,1,0,0:0:0:0:
276,112,111281,1,0,0:0:0:0:
260,288,111678,6,0,P|204:296|176:276,1,70
160,264,111976,1,0,0:0:0:0:
144,228,112076,2,0,P|128:184|128:152,1,70
140,124,112374,1,0,0:0:0:0:
160,100,112473,2,0,P|200:84|232:88,1,70
226,86,112771,1,0,0:0:0:0:
226,86,112870,1,0,0:0:0:0:
360,152,113069,1,0,0:0:0:0:
264,232,113268,6,0,L|136:304,2,140
368,264,114460,1,0,0:0:0:0:
240,164,114658,1,0,0:0:0:0:
332,112,114857,2,0,P|376:104|388:136,1,70
440,216,115254,1,0,0:0:0:0:
280,272,115453,1,0,0:0:0:0:
292,172,115652,2,0,P|252:160|208:176,1,70
225,165,116049,1,0,0:0:0:0:
132,296,116446,6,0,L|92:228,1,70
96,156,116844,2,0,L|152:96,1,70
224,148,117241,2,0,L|304:180,1,70
352,64,117638,5,0,0:0:0:0:
264,220,117837,1,0,0:0:0:0:
224,88,118036,2,0,P|184:92|160:124,1,70
80,212,118433,1,0,0:0:0:0:
240,264,118632,1,0,0:0:0:0:
208,184,118831,2,0,L|336:120,1,140
404,172,119625,6,0,P|376:228|344:248,1,70
228,208,120023,1,0,0:0:0:0:
196,64,120221,1,0,0:0:0:0:
196,64,120321,1,0,0:0:0:0:
196,64,120420,2,0,P|148:96|128:132,1,70
108,180,120817,2,0,P|120:220|140:244,1,70
248,180,121215,6,0,L|288:108,1,70
320,236,121612,2,0,L|352:304,1,70
400,164,122009,2,0,L|440:88,1,70
424,252,122407,5,0,0:0:0:0:
296,128,122605,1,0,0:0:0:0:
280,272,122804,2,0,P|240:288|200:280,1,70
184,132,123201,5,0,0:0:0:0:
60,200,123400,1,0,0:0:0:0:
104,52,123599,2,0,L|188:40,2,70
212,188,124195,5,0,0:0:0:0:
288,92,124393,2,0,B|332:104|352:136|360:156|368:204,1,140
212,188,124989,1,0,0:0:0:0:
132,96,125188,2,0,B|84:112|68:136|52:176|48:216,1,140
160,292,125784,5,0,0:0:0:0:
252,208,125983,2,0,L|316:164,1,70
272,80,126380,1,0,0:0:0:0:
168,164,126579,1,0,0:0:0:0:
120,80,126778,2,0,P|148:40|192:32,2,70
320,100,127572,6,0,L|324:180,2,70
280,244,128168,1,0,0:0:0:0:
184,112,128367,1,0,0:0:0:0:
120,240,128566,1,0,0:0:0:0:
120,240,128665,1,0,0:0:0:0:
120,244,128764,2,0,L|192:288,1,70
312,268,129162,6,0,P|356:220|360:200,1,70
360,184,129460,1,0,0:0:0:0:
356,152,129559,2,0,P|320:120|276:112,1,70
264,112,129857,1,0,0:0:0:0:
236,112,129956,2,0,P|196:112|156:140,1,70
152,140,130254,1,0,0:0:0:0:
128,164,130354,2,0,P|104:208|104:240,1,70
232,292,130751,5,0,0:0:0:0:
344,184,130950,1,0,0:0:0:0:
160,208,131148,1,0,0:0:0:0:
316,256,131347,1,0,0:0:0:0:
240,124,131546,5,0,0:0:0:0:
208,312,131744,1,0,0:0:0:0:
376,168,131943,1,0,0:0:0:0:
144,176,132142,1,0,0:0:0:0:
372,280,132340,5,0,0:0:0:0:
280,104,132539,1,0,0:0:0:0:
232,304,132738,1,0,0:0:0:0:
136,108,132936,1,0,0:0:0:0:
88,284,133135,5,0,0:0:0:0:
256,196,133334,1,0,0:0:0:0:
60,156,133533,1,0,0:0:0:0:
256,80,133731,1,0,0:0:0:0:
248,248,133930,5,0,0:0:0:0:
116,60,134129,1,0,0:0:0:0:
248,248,134327,1,0,0:0:0:0:
116,60,134526,1,0,0:0:0:0:
260,132,134725,6,0,L|336:144,2,70
308,236,135519,5,0,0:0:0:0:
308,236,135718,1,0,0:0:0:0:
160,240,135917,5,0,0:0:0:0:
140,208,136016,1,0,0:0:0:0:
132,172,136115,1,0,0:0:0:0:
140,136,136215,1,0,0:0:0:0:
164,108,136314,5,0,0:0:0:0:
196,88,136413,1,0,0:0:0:0:
228,80,136513,1,0,0:0:0:0:
272,76,136612,1,0,0:0:0:0:
304,76,136711,1,0,0:0:0:0:
284,200,137109,5,0,0:0:0:0:
284,200,137208,1,0,0:0:0:0:
284,200,137307,1,0,0:0:0:0:
196,96,137506,5,0,0:0:0:0:
196,96,137605,1,0,0:0:0:0:
196,96,137705,2,0,P|164:120|156:148,1,70
156,147,138003,1,0,0:0:0:0:
156,147,138102,1,0,0:0:0:0:
176,276,138301,5,0,0:0:0:0:
176,276,138400,1,0,0:0:0:0:
176,276,138499,1,0,0:0:0:0:
280,216,138698,5,0,0:0:0:0:
188,140,138897,1,0,0:0:0:0:
336,48,139095,5,0,0:0:0:0:
356,64,139195,1,0,0:0:0:0:
372,80,139294,1,0,0:0:0:0:
388,104,139393,1,0,0:0:0:0:
400,128,139493,5,0,0:0:0:0:
412,148,139592,1,0,0:0:0:0:
416,176,139691,1,0,0:0:0:0:
416,204,139791,1,0,0:0:0:0:
416,228,139890,1,0,0:0:0:0:
252,296,140287,5,0,0:0:0:0:
252,296,140387,1,0,0:0:0:0:
252,296,140486,2,0,P|228:252|204:256,1,70
214,252,140784,1,0,0:0:0:0:
214,252,140884,1,0,0:0:0:0:
159,251,140983,6,0,P|131:171|151:131,1,105
136,156,141380,1,0,0:0:0:0:
136,156,141480,1,0,0:0:0:0:
256,100,141678,1,0,0:0:0:0:
372,52,141877,6,0,P|408:72|416:120,1,70
418,97,142175,1,0,0:0:0:0:
418,97,142274,1,0,0:0:0:0:
332,192,142473,5,0,0:0:0:0:
332,192,142572,1,0,0:0:0:0:
332,192,142672,2,0,P|288:228|248:224,1,70
276,229,142970,1,0,0:0:0:0:
276,229,143069,1,0,0:0:0:0:
184,160,143268,5,0,0:0:0:0:
184,160,143367,1,0,0:0:0:0:
184,160,143466,6,0,P|132:184|120:208,1,70
126,192,143764,1,0,0:0:0:0:
126,192,143864,1,0,0:0:0:0:
184,308,144062,5,0,0:0:0:0:
184,308,144162,1,0,0:0:0:0:
184,308,144261,2,0,P|232:268|268:268,1,70
237,266,144559,1,0,0:0:0:0:
237,266,144658,1,0,0:0:0:0:
332,220,144857,1,0,0:0:0:0:
292,80,145056,5,0,0:0:0:0:
260,112,145155,1,0,0:0:0:0:
228,136,145254,1,0,0:0:0:0:
228,136,145354,1,0,0:0:0:0:
228,136,145453,2,0,P|196:164|192:200,1,70
190,189,145751,1,0,0:0:0:0:
190,189,145850,1,0,0:0:0:0:
88,248,146049,5,0,0:0:0:0:
88,248,146148,1,0,0:0:0:0:
88,248,146248,2,0,P|76:196|88:168,1,70
80,181,146546,1,0,0:0:0:0:
80,181,146645,1,0,0:0:0:0:
196,76,146844,5,0,0:0:0:0:
196,76,146943,1,0,0:0:0:0:
196,76,147042,2,0,P|232:68|272:72,1,70
284,76,147340,1,0,0:0:0:0:
308,96,147440,1,0,0:0:0:0:
328,116,147539,1,0,0:0:0:0:
344,140,147638,5,0,0:0:0:0:
344,140,147738,1,0,0:0:0:0:
344,140,147837,1,0,0:0:0:0:
344,140,147936,1,0,0:0:0:0:
344,140,148036,1,0,0:0:0:0:
164,128,148235,5,0,0:0:0:0:
176,172,148334,1,0,0:0:0:0:
196,216,148433,1,0,0:0:0:0:
196,216,148533,1,0,0:0:0:0:
196,216,148632,2,0,P|248:236|276:236,1,70
261,236,148930,1,0,0:0:0:0:
261,236,149029,1,0,0:0:0:0:
360,108,149228,5,0,0:0:0:0:
360,108,149327,1,0,0:0:0:0:
360,108,149427,1,0,0:0:0:0:
360,108,149824,5,0,0:0:0:0:
320,96,149923,1,0,0:0:0:0:
284,92,150023,1,0,0:0:0:0:
248,92,150122,1,0,0:0:0:0:
216,92,150221,5,0,0:0:0:0:
216,92,150321,1,0,0:0:0:0:
216,92,150420,1,0,0:0:0:0:
216,92,150519,2,0,P|164:96|144:112,1,70
150,105,150817,1,0,0:0:0:0:
150,105,150917,1,0,0:0:0:0:
128,136,151016,6,0,L|104:176,1,35
92,192,151215,2,0,L|60:248,2,35
336,88,160552,5,0,0:0:0:0:
336,88,160751,1,0,0:0:0:0:
336,88,160950,2,0,P|372:156|380:228,1,140
304,288,161744,2,0,B|240:272|172:280|152:288,1,140
88,296,162340,1,0,0:0:0:0:
88,296,162539,2,0,B|68:244|64:200|64:148,1,140
136,84,163135,1,0,0:0:0:0:
136,84,163334,2,0,P|240:72|280:88,1,140
368,144,163930,5,0,0:0:0:0:
368,144,164029,1,0,0:0:0:0:
368,144,164129,2,0,P|312:148|280:172,1,70
192,216,164526,2,0,P|252:224|276:232,1,70
408,256,164923,2,0,P|360:264|336:280,1,70
200,320,165321,2,0,P|248:328|284:344,1,70
267,335,165619,5,0,0:0:0:0:
267,335,165718,2,0,P|300:284|308:248,1,70
302,275,166016,1,0,0:0:0:0:
302,275,166115,2,0,P|284:224|280:200,1,70
281,209,166413,1,0,0:0:0:0:
281,209,166513,2,0,P|304:160|300:124,1,70
304,145,166910,1,0,0:0:0:0:
200,56,167109,5,0,0:0:0:0:
192,200,167307,2,0,B|152:200|108:176|68:128,1,140
200,56,167903,1,0,0:0:0:0:
196,204,168102,2,0,P|240:188|280:160,1,70
332,116,168499,2,0,L|408:152,1,70
428,248,168897,6,0,B|388:288|320:312|292:312,1,140
296,148,169493,1,0,0:0:0:0:
184,248,169691,2,0,B|239:301|319:313|331:317,1,140
252,328,170486,6,0,P|208:296|196:264,1,70
200,196,170884,2,0,P|244:156|244:124,1,70
280,56,171281,2,0,L|312:72,1,35
152,68,171678,6,0,L|128:140,1,70
120,244,172076,6,0,P|144:272|164:276,1,35
252,312,172274,2,0,P|296:316|300:312,1,35
376,280,172473,2,0,P|400:244|400:232,1,35
408,148,172672,2,0,P|384:120|376:116,1,35
272,64,172870,6,0,P|220:76|188:100,1,70
206,84,173168,1,0,0:0:0:0:
206,84,173268,1,0,0:0:0:0:
108,168,173466,5,0,0:0:0:0:
108,168,173566,1,0,0:0:0:0:
108,168,173665,2,0,L|152:184,1,35
224,244,173864,2,0,L|264:228,1,35
312,136,174062,2,0,L|360:152,1,35
412,216,174261,2,0,L|388:248,1,35
320,312,174460,2,0,P|256:336|160:336,1,140
152,204,175056,1,0,0:0:0:0:
152,204,175254,6,0,P|212:172|216:100,1,105.000004005432
300,136,175652,2,0,P|312:188|376:204,1,105.000004005432
352,276,176049,2,0,P|308:300|296:360,1,105.000004005432
208,344,176446,2,0,P|192:280|128:264,1,105.000004005432
136,264,176744,1,0,0:0:0:0:
112,264,176844,2,0,P|76:232|96:192,1,70
156,100,177241,5,0,0:0:0:0:
156,100,177340,1,0,0:0:0:0:
156,100,177440,1,0,0:0:0:0:
292,168,177638,5,0,0:0:0:0:
292,168,177738,1,0,0:0:0:0:
292,168,177837,1,0,0:0:0:0:
392,84,178036,6,0,L|424:64,6,35
408,208,178831,5,0,0:0:0:0:
264,112,179029,1,0,0:0:0:0:
292,236,179228,2,0,P|228:284|160:276,1,140
236,144,179824,5,0,0:0:0:0:
92,224,180023,2,0,P|76:168|96:80,1,140
236,144,180619,1,0,0:0:0:0:
360,228,180817,2,0,P|392:172|364:84,1,140
236,144,181413,1,0,0:0:0:0:
196,276,181612,2,0,L|120:248,2,70
312,156,182407,5,0,0:0:0:0:
312,156,182804,1,0,0:0:0:0:
396,264,183003,2,0,L|464:288,1,70
396,264,183797,2,0,L|468:292,3,70
352,176,184791,5,0,0:0:0:0:
276,84,184989,1,0,0:0:0:0:
276,84,185089,1,0,0:0:0:0:
276,84,185188,2,0,P|244:108|216:144,1,70
248,220,185585,5,0,0:0:0:0:
144,132,185784,1,0,0:0:0:0:
184,296,185983,1,0,0:0:0:0:
68,208,186182,1,0,0:0:0:0:
208,100,186380,5,0,0:0:0:0:
344,160,186579,1,0,0:0:0:0:
344,160,186678,1,0,0:0:0:0:
344,160,186778,2,0,P|384:180|424:164,1,70
416,80,187175,2,0,L|344:68,1,70
272,56,187572,2,0,L|188:96,1,70
88,144,187970,5,0,0:0:0:0:
156,264,188168,1,0,0:0:0:0:
156,264,188268,1,0,0:0:0:0:
156,264,188367,2,0,L|224:284,1,70
296,268,188764,1,0,0:0:0:0:
220,144,188963,1,0,0:0:0:0:
384,168,189162,1,0,0:0:0:0:
224,228,189360,1,0,0:0:0:0:
304,76,189559,5,0,0:0:0:0:
364,240,189758,1,0,0:0:0:0:
364,240,189857,1,0,0:0:0:0:
364,240,189956,2,0,L|288:272,1,70
216,212,190354,2,0,L|140:176,1,70
172,84,190751,2,0,L|264:88,1,70
368,104,191148,6,0,L|336:160,2,35
372,240,191546,5,0,0:0:0:0:
272,316,191744,1,0,0:0:0:0:
272,316,191844,1,0,0:0:0:0:
272,316,191943,2,0,P|232:280|200:280,1,70
136,208,192340,2,0,P|132:164|156:128,1,70
252,56,192738,5,0,0:0:0:0:
332,152,192936,1,0,0:0:0:0:
332,152,193036,1,0,0:0:0:0:
332,152,193135,2,0,P|292:176|272:200,1,70
268,288,193533,2,0,L|196:272,1,70
120,208,193930,2,0,L|80:292,1,70
232,304,194327,5,0,0:0:0:0:
360,256,194526,1,0,0:0:0:0:
360,256,194625,1,0,0:0:0:0:
360,256,194725,2,0,P|332:220|328:180,1,70
412,136,195122,1,0,0:0:0:0:
276,204,195321,1,0,0:0:0:0:
328,44,195519,1,0,0:0:0:0:
192,140,195718,1,0,0:0:0:0:
128,48,195917,5,0,0:0:0:0:
64,188,196115,1,0,0:0:0:0:
64,188,196214,1,0,0:0:0:0:
64,188,196314,2,0,P|96:232|120:248,1,70
256,304,196711,1,0,0:0:0:0:
388,212,196910,1,0,0:0:0:0:
272,136,197109,1,0,0:0:0:0:
208,48,197307,5,0,0:0:0:0:
208,48,197406,1,0,0:0:0:0:
208,48,197506,2,0,B|164:84|136:136|128:168,1,140
204,272,198102,5,0,0:0:0:0:
204,272,198201,1,0,0:0:0:0:
204,272,198301,2,0,P|272:248|364:244,1,140
340,128,198897,5,0,0:0:0:0:
340,128,198996,1,0,0:0:0:0:
340,128,199095,2,0,L|312:96,2,35
224,84,199493,2,0,L|188:112,2,35
104,88,199890,2,0,L|52:64,12,35
112,164,201579,6,0,L|144:192,1,35
296,124,202374,2,0,L|276:152,1,35
208,276,203268,2,0,L|252:280,1,35
380,244,204559,2,0,L|348:216,1,35
296,56,206645,2,0,B|248:80|216:168|200:256|104:316,1,315
84,224,208831,5,0,0:0:0:0:
84,224,208930,1,0,0:0:0:0:
84,224,209029,1,0,0:0:0:0:
256,192,209228,12,0,213400,0:0:0:0:
