osu file format v14

[General]
AudioFilename: kokuhakuyokou.mp3
AudioLeadIn: 0
PreviewTime: 58418
Countdown: 0
SampleSet: Soft
StackLeniency: 0.7
Mode: 0
LetterboxInBreaks: 0
WidescreenStoryboard: 1

[Editor]
Bookmarks: 17549,24684,79170,100575,157493
DistanceSpacing: 1
BeatDivisor: 4
GridSize: 8
TimelineZoom: 3.499999

[Metadata]
Title:Kokuhaku Yokou Renshuu
TitleUnicode:告白予行練習
Artist:Sana
ArtistUnicode:鎖那
Creator:Deep Kimchi
Version:Insane
Source:
Tags:confession rehearsal honeyworks 告白実行委員会〜恋愛シリーズ〜 Kokuhaku Jikkou Iinkai Renai Series
BeatmapID:2077541
BeatmapSetID:993516

[Difficulty]
HPDrainRate:7
CircleSize:4
OverallDifficulty:8.5
ApproachRate:9
SliderMultiplier:2
SliderTickRate:1

[Events]
//Background and Video events
0,0,"kokuhaku.jpg",0,0
//Break Periods
//Storyboard Layer 0 (Background)
//Storyboard Layer 1 (Fail)
//Storyboard Layer 2 (Pass)
//Storyboard Layer 3 (Foreground)
//Storyboard Layer 4 (Overlay)
//Storyboard Sound Samples

[TimingPoints]
1333,324.324324324324,4,2,1,70,1,0
1333,-153.846153846154,4,2,1,70,0,0
11630,-153.846153846154,4,2,1,5,0,0
11711,-142.857142857143,4,2,1,70,0,0
16738,-222.222222222222,4,2,1,70,0,0
16981,-142.857142857143,4,2,1,5,0,0
17062,-142.857142857143,4,2,1,70,0,0
17224,-117.647058823529,4,2,1,70,0,0
27278,-133.333333333333,4,2,1,70,0,0
37657,-117.647058823529,4,2,1,70,0,0
48035,-142.857142857143,4,2,1,70,0,0
49576,-142.857142857143,4,2,1,5,0,0
49657,-142.857142857143,4,2,1,70,0,0
51522,-142.857142857143,4,2,1,5,0,0
51603,-142.857142857143,4,2,1,70,0,0
53224,-250,4,2,1,70,0,0
55170,-222.222222222222,4,2,1,70,0,0
55819,-181.818181818182,4,2,1,70,0,0
56468,-166.666666666667,4,2,1,70,0,0
58089,-111.111111111111,4,2,1,70,0,0
58332,-111.111111111111,4,2,1,5,0,0
58414,-100,4,2,1,70,0,0
69116,-117.647058823529,4,2,1,70,0,0
79170,324.324324324324,3,2,1,70,1,0
79170,-133.333333333333,3,2,1,70,0,0
82332,-133.333333333333,3,2,1,5,0,0
82413,-133.333333333333,3,2,1,70,0,0
84278,-133.333333333333,3,2,1,5,0,0
84359,-133.333333333333,3,2,1,70,0,0
86224,-133.333333333333,3,2,1,5,0,0
86305,-133.333333333333,3,2,1,70,0,0
88169,-133.333333333333,3,2,1,5,0,0
88251,-133.333333333333,3,2,1,70,0,0
92061,-133.333333333333,3,2,1,5,0,0
92142,-133.333333333333,3,2,1,70,0,0
94980,-133.333333333333,3,2,1,5,0,0
95061,-133.333333333333,3,2,1,70,0,0
95953,-133.333333333333,3,2,1,5,0,0
96034,-133.333333333333,3,2,1,70,0,0
98629,-250,3,2,1,70,0,0
100575,324.324324324324,4,2,1,70,1,0
103169,-142.857142857143,3,2,1,70,0,0
105764,-117.647058823529,3,2,1,70,0,0
110953,-142.857142857143,3,2,1,70,0,0
112494,-142.857142857143,3,2,1,5,0,0
112575,-142.857142857143,3,2,1,70,0,0
118737,-200,3,2,1,70,0,0
120034,-1000,3,2,1,70,0,0
121250,-1000,3,2,1,5,0,0
121331,-100,3,2,1,70,0,0
131142,-100,3,2,1,5,0,0
131223,-100,3,2,1,70,0,0
132034,-117.647058823529,3,2,1,70,0,0
142088,-153.846153846154,3,2,1,70,0,0
152466,-181.818181818182,3,2,1,70,0,0
157007,-222.222222222222,3,2,1,70,0,0

[HitObjects]
334,384,1333,6,0,P|332:344|329:307,1,64.9999970245363
324,239,1657,1,0,0:0:0:0:
168,297,1819,2,0,P|171:218|176:144,1,129.999994049073
247,265,2305,1,0,0:0:0:0:
84,331,2468,2,0,P|88:252|91:177,1,129.999994049073
15,94,2954,6,0,P|55:116|93:130,1,64.9999970245363
152,147,3278,1,0,0:0:0:0:
187,0,3441,1,0,0:0:0:0:
96,49,3603,2,0,P|138:65|177:75,1,64.9999970245363
228,240,3927,6,0,P|229:200|232:163,1,64.9999970245363
237,94,4251,1,0,0:0:0:0:
393,152,4413,2,0,P|389:73|384:0,1,129.999994049073
314,120,4899,1,0,0:0:0:0:
475,189,5062,2,0,P|469:110|466:36,1,129.999994049073
311,1,5549,6,0,P|265:9|227:23,1,64.9999970245363
77,139,5873,1,0,0:0:0:0:
149,191,6035,1,0,0:0:0:0:
158,100,6197,1,0,0:0:0:0:
67,226,6360,1,0,0:0:0:0:
232,156,6522,6,0,L|240:84,2,64.9999970245363
216,322,7008,2,0,P|281:312|354:300,1,129.999994049073
344,302,7495,1,0,0:0:0:0:
152,257,7657,6,0,P|126:324|156:390,1,129.999994049073
144,377,8143,1,0,0:0:0:0:
206,195,8305,2,0,P|209:163|211:124,1,64.9999970245363
277,13,8630,2,0,P|247:27|218:40,1,64.9999970245363
136,79,8954,1,0,0:0:0:0:
290,99,9116,6,0,L|354:111,1,64.9999970245363
473,154,9441,1,0,0:0:0:0:
401,326,9603,2,0,P|393:253|391:197,1,129.999994049073
391,197,10089,1,0,0:0:0:0:
314,368,10251,6,0,P|311:303|303:238,1,129.999994049073
290,153,10738,1,0,0:0:0:0:
140,183,10900,2,0,L|76:194,1,64.9999970245363
18,111,11224,1,0,0:0:0:0:
18,111,11305,1,0,0:0:0:0:
18,111,11387,2,0,P|73:108|102:69,1,97.4999955368044
111,46,11711,5,0,0:0:0:0:
204,149,11873,1,0,0:0:0:0:
120,36,12035,1,0,0:0:0:0:
213,139,12197,2,0,P|207:63|214:-18,1,139.999995727539
211,0,12684,1,0,0:0:0:0:
288,190,12846,6,0,P|224:229|160:215,1,139.999995727539
163,217,13332,1,0,0:0:0:0:
277,325,13495,2,0,P|320:329|374:338,1,69.9999978637696
487,284,13819,2,0,P|444:280|390:271,2,69.9999978637696
326,255,14305,6,0,P|318:187|355:125,1,139.999995727539
434,7,14792,2,0,P|396:29|352:42,1,69.9999978637696
445,105,15116,2,0,P|482:127|526:140,1,69.9999978637696
230,172,15441,1,0,0:0:0:0:
275,5,15603,6,0,L|336:-4,2,34.9999989318848
140,115,15927,1,0,0:0:0:0:
317,99,16089,1,0,0:0:0:0:
317,99,16170,1,0,0:0:0:0:
317,99,16251,1,0,0:0:0:0:
167,12,16414,1,0,0:0:0:0:
147,204,16576,1,0,0:0:0:0:
147,204,16657,1,0,0:0:0:0:
147,204,16738,2,0,B|128:232|128:232|99:251,1,67.4999979400635
72,265,17062,1,0,0:0:0:0:
383,353,17224,1,0,0:0:0:0:
383,353,17549,6,0,P|413:319|442:291,1,85.0000016212464
244,142,17873,2,0,P|284:153|326:162,1,85.0000016212464
444,167,18197,2,0,P|413:200|384:228,2,85.0000016212464
465,76,18684,1,0,0:0:0:0:
245,58,18846,2,0,P|202:58|160:56,1,85.0000016212464
136,273,19170,2,0,P|164:241|195:212,1,85.0000016212464
148,140,19495,6,0,P|105:138|63:138,2,85.0000016212464
244,143,19982,1,0,0:0:0:0:
370,147,20143,2,0,P|340:112|316:80,1,85.0000016212464
422,284,20468,2,0,P|451:318|475:350,1,85.0000016212464
486,204,20792,5,0,0:0:0:0:
486,204,20954,1,0,0:0:0:0:
317,88,21116,2,0,L|231:103,1,85.0000016212464
138,116,21441,5,0,0:0:0:0:
138,116,21603,1,0,0:0:0:0:
307,0,21765,2,0,L|392:15,1,85.0000016212464
485,207,22089,5,0,0:0:0:0:
375,221,22251,1,0,0:0:0:0:
361,111,22414,1,0,0:0:0:0:
470,97,22576,1,0,0:0:0:0:
284,178,22738,2,0,P|256:144|232:109,1,85.0000016212464
117,100,23062,2,0,P|143:132|167:167,1,85.0000016212464
195,360,23387,5,0,0:0:0:0:
85,341,23549,1,0,0:0:0:0:
104,231,23712,1,0,0:0:0:0:
211,249,23874,1,0,0:0:0:0:
2,267,24035,2,0,P|15:226|27:185,1,85.0000016212464
141,58,24360,2,0,P|127:98|115:139,1,85.0000016212464
22,32,24684,5,0,0:0:0:0:
22,32,24846,1,0,0:0:0:0:
254,14,25008,1,0,0:0:0:0:
245,112,25170,1,0,0:0:0:0:
244,124,25251,1,0,0:0:0:0:
243,136,25332,2,0,L|352:155,1,85.0000016212464
512,68,25657,1,0,0:0:0:0:
384,18,25819,1,0,0:0:0:0:
446,183,25981,6,0,L|508:183,2,42.5000008106232
361,183,26305,1,0,0:0:0:0:
123,183,26468,1,0,0:0:0:0:
186,106,26630,5,0,0:0:0:0:
204,124,26711,1,0,0:0:0:0:
217,148,26792,1,0,0:0:0:0:
223,173,26873,1,0,0:0:0:0:
221,200,26954,2,0,L|211:254,1,42.5000008106232
82,351,27116,2,0,L|91:296,1,42.5000008106232
390,384,27278,6,0,P|407:350|435:326,1,75.0000028610231
508,214,27603,2,0,P|508:251|511:288,1,75.0000028610231
385,149,27927,1,0,0:0:0:0:
507,82,28089,2,0,P|507:44|510:7,1,75.0000028610231
290,126,28414,6,0,P|302:205|368:251,1,150.000005722046
283,353,28900,2,0,P|254:328|225:304,1,75.0000028610231
168,175,29224,2,0,P|160:215|155:248,1,75.0000028610231
74,363,29549,2,0,P|108:347|143:335,1,75.0000028610231
16,139,29873,6,0,P|3:97|10:62,1,75.0000028610231
60,1,30197,1,0,0:0:0:0:
96,185,30360,2,0,P|66:217|38:229,1,75.0000028610231
174,254,30684,2,0,P|249:280|330:314,1,150.000005722046
343,139,31170,5,0,0:0:0:0:
440,146,31332,1,0,0:0:0:0:
431,243,31495,1,0,0:0:0:0:
333,234,31657,1,0,0:0:0:0:
396,79,31819,5,0,0:0:0:0:
276,181,31981,1,0,0:0:0:0:
498,200,32143,1,0,0:0:0:0:
377,301,32305,1,0,0:0:0:0:
464,32,32468,6,0,P|413:-5|337:19,1,112.500004291535
339,15,32792,1,0,0:0:0:0:
191,142,32954,2,0,P|251:68|240:5,1,150.000005722046
275,210,33441,2,0,P|264:252|244:304,1,75.0000028610231
205,384,33765,6,0,P|251:373|303:380,1,75.0000028610231
60,269,34089,1,0,0:0:0:0:
62,364,34251,2,0,P|124:338|150:243,1,150.000005722046
88,21,34738,2,0,P|74:66|42:107,1,75.0000028610231
182,145,35062,6,0,P|241:118|261:48,1,112.500004291535
267,41,35387,1,0,0:0:0:0:
296,186,35549,2,0,P|240:221|146:231,1,150.000005722046
428,224,36035,2,0,P|463:214|501:207,1,75.0000028610231
296,0,36360,5,0,0:0:0:0:
275,107,36522,1,0,0:0:0:0:
387,130,36684,1,0,0:0:0:0:
405,19,36846,1,0,0:0:0:0:
275,107,37008,5,0,0:0:0:0:
275,107,37170,1,0,0:0:0:0:
489,91,37332,1,0,0:0:0:0:
428,224,37494,5,0,0:0:0:0:
422,234,37576,1,0,0:0:0:0:
415,245,37657,2,0,P|373:255|337:276,1,85.0000016212464
137,301,37981,2,0,P|184:288|228:257,1,85.0000016212464
89,377,38305,2,0,P|57:345|51:282,1,85.0000016212464
142,96,38630,1,0,0:0:0:0:
214,189,38792,6,0,P|141:213|37:150,1,170.000003242493
273,289,39278,2,0,P|284:341|291:387,1,85.0000016212464
370,238,39603,2,0,P|377:196|386:154,1,85.0000016212464
459,371,39927,2,0,P|465:328|474:287,1,85.0000016212464
495,204,40251,5,0,0:0:0:0:
275,205,40414,2,0,L|183:221,2,85.0000016212464
386,154,40900,2,0,P|412:114|438:82,1,85.0000016212464
237,0,41224,2,0,P|257:42|274:82,1,85.0000016212464
175,384,41549,6,0,P|134:364|112:318,1,85.0000016212464
275,204,41873,2,0,L|191:217,1,85.0000016212464
119,68,42197,6,0,P|87:100|82:151,1,85.0000016212464
196,223,42522,2,0,L|279:208,1,85.0000016212464
508,232,42846,6,0,P|425:292|416:373,1,170.000003242493
314,341,43332,2,0,P|267:320|231:297,1,85.0000016212464
166,249,43657,1,0,0:0:0:0:
354,148,43819,1,0,0:0:0:0:
354,148,43981,1,0,0:0:0:0:
304,241,44143,6,0,P|256:193|263:92,1,170.000003242493
123,133,44630,2,0,P|94:161|69:195,1,85.0000016212464
36,289,44954,1,0,0:0:0:0:
232,302,45116,1,0,0:0:0:0:
232,302,45278,1,0,0:0:0:0:
151,234,45440,6,0,P|126:294|169:386,1,170.000003242493
232,302,45927,2,0,P|275:288|329:266,1,85.0000016212464
399,229,46251,1,0,0:0:0:0:
250,174,46414,2,0,P|206:160|152:138,1,85.0000016212464
209,7,46738,5,0,0:0:0:0:
212,32,46819,1,0,0:0:0:0:
222,55,46900,1,0,0:0:0:0:
239,75,46981,1,0,0:0:0:0:
261,87,47062,2,0,L|330:99,1,42.5000008106232
420,54,47224,1,0,0:0:0:0:
440,41,47305,1,0,0:0:0:0:
457,21,47387,2,0,L|415:12,1,42.5000008106232
471,185,47549,2,0,L|512:192,1,42.5000008106232
220,238,47711,1,0,0:0:0:0:
192,248,48035,6,0,P|156:260|122:269,1,69.9999978637696
40,110,48360,1,0,0:0:0:0:
46,288,48522,1,0,0:0:0:0:
181,165,48684,2,0,P|227:168|263:203,1,69.9999978637696
341,286,49008,2,0,P|320:244|332:195,1,69.9999978637696
429,85,49332,2,0,L|407:207,1,104.999996795654
402,230,49657,5,0,0:0:0:0:
280,97,49819,1,0,0:0:0:0:
280,97,49981,5,0,0:0:0:0:
226,270,50143,1,0,0:0:0:0:
226,270,50305,5,0,0:0:0:0:
104,134,50468,1,0,0:0:0:0:
36,298,50630,6,0,P|30:257|15:203,1,69.9999978637696
199,172,50954,1,0,0:0:0:0:
4,149,51116,1,0,0:0:0:0:
112,81,51278,2,0,P|160:64|215:76,1,104.999996795654
235,84,51603,2,0,P|233:40|236:-6,1,69.9999978637696
317,109,51927,5,0,0:0:0:0:
303,140,52008,1,0,0:0:0:0:
276,163,52089,1,0,0:0:0:0:
243,169,52170,1,0,0:0:0:0:
264,196,52251,1,0,0:0:0:0:
270,230,52332,1,0,0:0:0:0:
257,263,52413,1,0,0:0:0:0:
148,231,52576,6,0,L|203:221,1,34.9999989318848
382,201,52738,2,0,L|347:207,1,34.9999989318848
121,305,52900,1,0,0:0:0:0:
98,317,53224,6,0,P|72:381|20:381,1,120
7,276,53873,2,0,L|0:232,1,40
82,208,54197,2,0,L|73:163,1,40
122,13,54522,6,0,L|130:56,1,40
215,51,54846,2,0,L|222:95,1,40
161,221,55170,2,0,L|220:231,1,44.999998626709
122,326,55495,1,0,0:0:0:0:
232,313,55657,5,0,0:0:0:0:
232,313,55738,1,0,0:0:0:0:
232,313,55819,2,0,P|263:310|289:311,1,55.0000016784668
468,321,56143,1,0,0:0:0:0:
379,254,56305,1,0,0:0:0:0:
379,254,56386,1,0,0:0:0:0:
379,254,56467,2,0,P|353:236|330:223,1,55.0000016784668
164,159,56792,2,0,P|189:141|216:126,1,59.9999981689454
25,99,57116,1,0,0:0:0:0:
0,13,57765,5,0,0:0:0:0:
0,13,58089,2,0,B|32:17|67:14|67:14|95:34|126:46,1,134.999995880127
154,58,58414,5,0,0:0:0:0:
45,102,58576,1,0,0:0:0:0:
241,140,58738,1,0,0:0:0:0:
101,279,58900,2,0,P|115:231|132:184,1,100
307,258,59224,2,0,P|258:270|209:279,1,100
393,320,59549,6,0,P|407:224|320:153,1,200
307,258,60035,1,0,0:0:0:0:
512,207,60197,2,0,P|492:159|461:119,1,100
269,24,60522,2,0,P|313:46|360:66,1,100
452,22,60846,1,0,0:0:0:0:
269,134,61008,6,0,P|224:156|177:176,1,100
89,129,61332,1,0,0:0:0:0:
269,244,61495,2,0,P|313:266|360:286,2,100
178,176,61981,1,0,0:0:0:0:
455,288,62143,6,0,P|440:340|381:379,1,100
149,368,62468,1,0,0:0:0:0:
198,310,62630,1,0,0:0:0:0:
222,382,62792,1,0,0:0:0:0:
86,260,62954,5,0,0:0:0:0:
81,229,63035,1,0,0:0:0:0:
76,198,63116,1,0,0:0:0:0:
72,167,63197,1,0,0:0:0:0:
67,136,63278,1,0,0:0:0:0:
63,105,63359,1,0,0:0:0:0:
58,74,63440,1,0,0:0:0:0:
54,43,63521,1,0,0:0:0:0:
49,12,63603,6,0,L|158:31,1,100
244,68,63927,1,0,0:0:0:0:
405,132,64089,2,0,L|296:151,1,100
204,264,64414,1,0,0:0:0:0:
314,255,64576,1,0,0:0:0:0:
195,153,64738,6,0,P|111:199|101:310,1,200
204,264,65224,1,0,0:0:0:0:
75,67,65386,2,0,P|37:28|1:-1,1,100
175,33,65711,2,0,P|228:38|275:37,1,100
382,34,66035,1,0,0:0:0:0:
254,282,66197,5,0,0:0:0:0:
226,143,66360,2,0,L|176:133,2,50
445,382,66684,2,0,P|406:336|401:282,1,100
512,293,67008,1,0,0:0:0:0:
310,384,67170,1,0,0:0:0:0:
335,235,67332,1,0,0:0:0:0:
335,235,67414,1,0,0:0:0:0:
335,235,67495,1,0,0:0:0:0:
209,184,67657,1,0,0:0:0:0:
130,85,67819,1,0,0:0:0:0:
67,384,67981,6,0,P|34:315|89:200,1,200
258,60,68468,1,0,0:0:0:0:
278,72,68792,1,0,0:0:0:0:
294,81,69116,6,0,P|341:101|392:117,1,85.0000016212464
228,144,69441,2,0,P|235:185|240:228,1,85.0000016212464
394,207,69765,2,0,P|359:232|327:259,1,85.0000016212464
415,372,70089,5,0,0:0:0:0:
512,287,70251,1,0,0:0:0:0:
381,120,70414,2,0,P|339:143|305:167,1,85.0000016212464
415,288,70738,5,0,0:0:0:0:
512,203,70900,1,0,0:0:0:0:
375,33,71063,2,0,P|331:52|295:73,1,85.0000016212464
129,0,71387,6,0,P|172:28|219:53,1,85.0000016212464
53,50,71712,2,0,P|53:92|50:134,1,85.0000016212464
205,141,72036,2,0,P|166:159|130:181,1,85.0000016212464
32,347,72360,5,0,0:0:0:0:
126,371,72522,1,0,0:0:0:0:
150,277,72684,1,0,0:0:0:0:
56,252,72846,1,0,0:0:0:0:
218,349,73008,1,0,0:0:0:0:
218,349,73170,1,0,0:0:0:0:
314,339,73332,1,0,0:0:0:0:
304,243,73495,1,0,0:0:0:0:
130,181,73657,1,0,0:0:0:0:
124,193,73981,6,0,P|81:195|39:201,1,85.0000016212464
165,116,74305,2,0,P|207:113|249:107,1,85.0000016212464
119,205,74630,2,0,P|76:207|34:213,1,85.0000016212464
170,104,74954,2,0,P|212:101|254:95,1,85.0000016212464
417,119,75278,6,0,P|370:105|330:59,1,85.0000016212464
396,263,75603,2,0,P|380:223|350:194,1,85.0000016212464
486,271,75927,2,0,P|472:310|442:341,1,85.0000016212464
260,203,76251,2,0,P|275:242|305:271,1,85.0000016212464
512,82,76576,5,0,0:0:0:0:
436,56,76738,1,0,0:0:0:0:
426,168,76900,1,0,0:0:0:0:
350,194,77062,1,0,0:0:0:0:
214,98,77224,1,0,0:0:0:0:
138,124,77387,1,0,0:0:0:0:
126,128,77468,1,0,0:0:0:0:
114,132,77549,2,0,P|53:97|18:71,1,85.0000016212464
2,11,77873,1,0,0:0:0:0:
28,7,78197,6,0,L|89:-3,2,42.5000008106232
157,0,78522,1,0,0:0:0:0:
270,206,78846,5,0,0:0:0:0:
270,206,78927,1,0,0:0:0:0:
270,206,79008,1,0,0:0:0:0:
270,206,79089,1,0,0:0:0:0:
270,206,79170,2,0,P|307:142|298:69,1,150.000005722046
257,0,79656,1,0,0:0:0:0:
180,137,79818,2,0,P|162:174|160:214,1,75.0000028610231
329,351,80142,6,0,P|286:290|215:268,1,150.000005722046
209,384,80629,1,0,0:0:0:0:
445,384,80791,2,0,P|447:342|435:304,1,75.0000028610231
410,73,81115,6,0,P|354:120|337:192,1,150.000005722046
373,267,81602,1,0,0:0:0:0:
494,128,81764,2,0,P|509:89|509:49,1,75.0000028610231
322,24,82088,6,0,P|248:26|194:71,1,112.500004291535
198,68,82413,1,0,0:0:0:0:
136,161,82575,1,0,0:0:0:0:
140,269,82737,1,0,0:0:0:0:
199,364,82899,1,0,0:0:0:0:
381,283,83061,6,0,P|310:305|240:280,1,150.000005722046
313,195,83548,1,0,0:0:0:0:
472,294,83710,2,0,P|458:328|421:365,1,75.0000028610231
295,97,84034,6,0,P|367:85|428:116,1,112.500004291535
430,118,84359,1,0,0:0:0:0:
457,200,84521,1,0,0:0:0:0:
381,283,84683,1,0,0:0:0:0:
238,252,84845,1,0,0:0:0:0:
176,164,85007,6,0,P|134:223|136:297,1,150.000005722046
183,372,85494,1,0,0:0:0:0:
275,164,85656,2,0,P|265:123|241:91,1,75.0000028610231
17,31,85980,6,0,P|33:102|78:142,1,112.500004291535
87,151,86305,1,0,0:0:0:0:
185,163,86467,1,0,0:0:0:0:
229,40,86629,1,0,0:0:0:0:
131,28,86791,1,0,0:0:0:0:
275,164,86953,6,0,P|298:93|359:51,1,150.000005722046
393,164,87440,1,0,0:0:0:0:
258,254,87602,2,0,P|223:238|197:212,1,75.0000028610231
372,253,87926,6,0,P|348:323|291:364,1,112.500004291535
294,368,88251,1,0,0:0:0:0:
183,353,88413,1,0,0:0:0:0:
104,279,88575,1,0,0:0:0:0:
71,173,88737,1,0,0:0:0:0:
270,206,88899,6,0,P|307:142|298:69,1,150.000005722046
257,0,89386,1,0,0:0:0:0:
180,137,89548,2,0,P|162:174|160:214,1,75.0000028610231
292,371,89872,6,0,P|362:364|410:318,1,112.500004291535
413,324,90197,1,0,0:0:0:0:
345,145,90359,1,0,0:0:0:0:
312,257,90521,1,0,0:0:0:0:
445,211,90683,1,0,0:0:0:0:
310,27,90845,6,0,P|247:64|219:133,1,150.000005722046
240,210,91332,1,0,0:0:0:0:
394,79,91494,2,0,P|409:40|409:0,1,75.0000028610231
132,21,91818,6,0,P|68:58|43:124,1,112.500004291535
43,119,92142,1,0,0:0:0:0:
34,230,92305,1,0,0:0:0:0:
90,322,92467,1,0,0:0:0:0:
90,322,92629,1,0,0:0:0:0:
215,195,92791,6,0,P|279:159|353:170,1,150.000005722046
297,267,93278,1,0,0:0:0:0:
122,199,93440,2,0,P|128:162|158:119,1,75.0000028610231
334,360,93764,6,0,P|265:385|192:364,1,150.000005722046
154,285,94251,1,0,0:0:0:0:
404,294,94413,2,0,P|424:324|434:375,1,75.0000028610231
259,271,94737,6,0,P|226:204|239:138,1,112.500004291535
233,126,95061,1,0,0:0:0:0:
298,36,95224,1,0,0:0:0:0:
402,3,95386,1,0,0:0:0:0:
511,26,95548,1,0,0:0:0:0:
475,210,95710,6,0,P|458:138|414:99,1,112.500004291535
400,92,96034,1,0,0:0:0:0:
261,81,96197,1,0,0:0:0:0:
328,160,96359,1,0,0:0:0:0:
335,20,96521,1,0,0:0:0:0:
236,166,96683,6,0,P|162:176|98:139,1,150.000005722046
184,69,97169,1,0,0:0:0:0:
328,160,97332,2,0,P|321:196|303:229,1,75.0000028610231
78,302,97656,5,0,0:0:0:0:
99,52,97980,1,0,0:0:0:0:
348,73,98305,1,0,0:0:0:0:
327,323,98629,1,0,0:0:0:0:
327,323,100899,5,0,0:0:0:0:
320,275,101547,1,0,0:0:0:0:
313,227,102196,5,0,0:0:0:0:
307,179,102845,1,0,0:0:0:0:
384,140,103169,6,0,P|386:179|390:229,1,69.9999978637696
412,369,103494,2,0,P|414:330|418:280,1,69.9999978637696
468,142,103818,2,0,P|470:181|474:231,1,69.9999978637696
501,377,104142,2,0,P|503:338|507:288,1,69.9999978637696
512,284,104386,1,0,0:0:0:0:
512,284,104467,5,0,0:0:0:0:
428,272,104791,1,0,0:0:0:0:
344,260,105115,1,0,0:0:0:0:
260,248,105440,1,0,0:0:0:0:
176,236,105764,6,0,L|167:134,1,85.0000016212464
189,364,106088,1,0,0:0:0:0:
290,373,106251,2,0,P|340:371|389:362,1,85.0000016212464
464,344,106575,1,0,0:0:0:0:
261,208,106737,2,0,P|287:250|320:289,1,85.0000016212464
176,236,107061,6,0,L|90:242,1,85.0000016212464
277,119,107386,1,0,0:0:0:0:
188,98,107548,2,0,P|148:88|104:82,1,85.0000016212464
17,74,107872,1,0,0:0:0:0:
250,36,108034,2,0,P|289:26|333:20,1,85.0000016212464
414,173,108359,6,0,L|404:61,1,85.0000016212464
339,276,108683,1,0,0:0:0:0:
429,262,108845,2,0,P|468:252|512:246,1,85.0000016212464
440,374,109169,1,0,0:0:0:0:
325,181,109332,1,0,0:0:0:0:
411,380,109494,1,0,0:0:0:0:
243,244,109656,5,0,0:0:0:0:
226,214,109737,1,0,0:0:0:0:
220,180,109818,1,0,0:0:0:0:
225,147,109899,1,0,0:0:0:0:
242,117,109980,1,0,0:0:0:0:
267,94,110061,1,0,0:0:0:0:
298,80,110142,2,0,L|366:73,1,42.5000008106232
162,92,110305,1,0,0:0:0:0:
132,94,110386,1,0,0:0:0:0:
103,97,110467,1,0,0:0:0:0:
74,99,110548,1,0,0:0:0:0:
45,102,110629,1,0,0:0:0:0:
40,103,110953,6,0,L|47:193,1,69.9999978637696
216,214,111278,1,0,0:0:0:0:
57,269,111440,1,0,0:0:0:0:
171,301,111602,2,0,P|215:312|265:293,1,69.9999978637696
341,188,111926,2,0,P|307:221|299:274,1,69.9999978637696
496,374,112250,2,0,L|473:248,1,104.999996795654
472,243,112574,5,0,0:0:0:0:
386,86,112737,1,0,0:0:0:0:
386,86,112899,5,0,0:0:0:0:
294,240,113061,1,0,0:0:0:0:
294,240,113224,5,0,0:0:0:0:
207,84,113386,1,0,0:0:0:0:
111,234,113548,6,0,P|111:290|114:337,1,69.9999978637696
294,339,113872,1,0,0:0:0:0:
118,384,114034,1,0,0:0:0:0:
213,272,114197,2,0,P|252:241|302:236,1,69.9999978637696
380,384,114521,1,0,0:0:0:0:
475,310,114683,1,0,0:0:0:0:
401,215,114845,5,0,0:0:0:0:
375,184,114926,1,0,0:0:0:0:
365,150,115007,1,0,0:0:0:0:
374,118,115088,1,0,0:0:0:0:
333,123,115169,1,0,0:0:0:0:
299,114,115250,1,0,0:0:0:0:
276,92,115331,2,0,L|237:95,1,34.9999989318848
454,150,115494,2,0,L|521:144,4,34.9999989318848
55,126,118574,5,0,0:0:0:0:
55,126,118656,1,0,0:0:0:0:
55,126,118737,2,0,P|103:114|140:81,1,100
204,4,119223,5,0,0:0:0:0:
204,4,119304,1,0,0:0:0:0:
204,4,119385,2,0,P|231:38|241:95,1,100
184,162,119872,1,0,0:0:0:0:
271,178,120034,6,0,B|284:214|284:214|268:248,1,75
252,277,121331,6,0,P|307:279|359:285,1,100
262,380,121656,1,0,0:0:0:0:
141,225,121818,2,0,P|124:172|111:121,1,100
53,283,122142,2,0,P|36:335|23:386,1,100
188,73,122466,6,0,P|100:37|25:96,1,200
208,157,122953,1,0,0:0:0:0:
237,0,123115,2,0,P|288:6|336:9,1,100
396,99,123439,2,0,P|344:92|296:89,1,100
420,22,123764,1,0,0:0:0:0:
460,212,123926,6,0,P|472:266|490:330,1,100
512,384,124250,1,0,0:0:0:0:
247,327,124412,2,0,P|198:314|151:298,1,100
40,186,124737,2,0,P|52:234|63:283,1,100
234,122,125061,6,0,P|269:86|306:52,1,100
478,191,125385,1,0,0:0:0:0:
403,177,125547,1,0,0:0:0:0:
451,119,125710,1,0,0:0:0:0:
418,307,125872,5,0,0:0:0:0:
387,312,125953,1,0,0:0:0:0:
356,317,126034,1,0,0:0:0:0:
325,321,126115,1,0,0:0:0:0:
294,326,126196,1,0,0:0:0:0:
263,330,126277,1,0,0:0:0:0:
232,335,126358,1,0,0:0:0:0:
201,339,126439,1,0,0:0:0:0:
170,344,126520,5,0,0:0:0:0:
126,241,126683,1,0,0:0:0:0:
237,254,126845,1,0,0:0:0:0:
59,331,127007,2,0,P|48:277|31:217,1,100
0,53,127331,2,0,P|52:70|112:85,1,100
357,136,127656,6,0,P|265:162|237:254,1,200
337,235,128142,1,0,0:0:0:0:
154,320,128304,2,0,P|106:316|54:308,1,100
234,358,128629,2,0,P|281:361|333:369,1,100
427,384,128953,1,0,0:0:0:0:
403,162,129115,6,0,P|425:212|446:257,1,100
501,331,129439,1,0,0:0:0:0:
463,98,129602,2,0,P|411:75|351:88,1,100
198,4,129926,2,0,P|250:27|310:14,1,100
248,232,130250,5,0,0:0:0:0:
131,200,130412,1,0,0:0:0:0:
163,84,130574,1,0,0:0:0:0:
278,116,130737,1,0,0:0:0:0:
168,303,130899,2,0,P|253:339|319:310,1,150
332,304,131223,5,0,0:0:0:0:
392,241,131385,1,0,0:0:0:0:
363,138,131547,1,0,0:0:0:0:
447,53,131710,1,0,0:0:0:0:
276,67,131872,5,0,0:0:0:0:
276,67,131953,1,0,0:0:0:0:
276,67,132034,2,0,P|248:34|224:0,1,85.0000016212464
212,183,132358,2,0,P|253:175|296:172,1,85.0000016212464
144,69,132683,2,0,P|129:108|111:147,1,85.0000016212464
68,237,133007,5,0,0:0:0:0:
13,105,133169,1,0,0:0:0:0:
212,183,133331,2,0,P|226:222|244:261,1,85.0000016212464
287,353,133655,5,0,0:0:0:0:
341,220,133817,1,0,0:0:0:0:
143,299,133980,2,0,P|128:338|110:377,1,85.0000016212464
0,136,134304,6,0,P|7:180|13:230,1,85.0000016212464
85,84,134629,2,0,P|78:40|72:-10,1,85.0000016212464
97,203,134953,2,0,P|139:197|181:191,1,85.0000016212464
364,183,135277,2,0,P|321:177|279:171,1,85.0000016212464
438,80,135602,5,0,0:0:0:0:
493,163,135764,1,0,0:0:0:0:
315,73,135926,2,0,P|272:78|230:84,1,85.0000016212464
46,139,136250,5,0,0:0:0:0:
90,49,136412,1,0,0:0:0:0:
101,249,136574,2,0,P|126:282|154:315,1,85.0000016212464
434,306,136899,6,0,P|416:345|402:384,1,85.0000016212464
340,211,137223,2,0,P|381:207|423:198,1,85.0000016212464
306,340,137548,2,0,P|280:306|252:274,1,85.0000016212464
327,112,137872,6,0,P|352:78|380:46,1,85.0000016212464
210,22,138196,2,0,P|154:47|145:92,1,85.0000016212464
0,105,138520,2,0,P|56:80|65:35,1,85.0000016212464
152,214,138845,2,0,P|123:172|107:120,1,85.0000016212464
111,363,139169,2,0,P|109:320|97:279,1,85.0000016212464
343,229,139493,6,0,L|529:212,2,170.000003242493
0,214,140466,2,0,L|170:229,1,170.000003242493
256,44,141115,2,0,L|256:1,2,42.5000008106232
256,128,141439,5,0,0:0:0:0:
256,212,141602,1,0,0:0:0:0:
256,296,141764,1,0,0:0:0:0:
256,380,141926,1,0,0:0:0:0:
507,286,142088,6,0,P|510:247|514:210,1,64.9999970245363
512,130,142412,1,0,0:0:0:0:
409,0,142574,2,0,P|415:64|420:129,1,129.999994049073
421,221,143060,1,0,0:0:0:0:
318,350,143223,2,0,P|324:285|329:220,1,129.999994049073
311,74,143710,6,0,P|294:116|274:151,1,64.9999970245363
240,202,144034,1,0,0:0:0:0:
103,113,144197,1,0,0:0:0:0:
210,95,144359,2,0,P|188:134|164:166,1,64.9999970245363
10,320,144683,6,0,P|7:281|3:244,1,64.9999970245363
5,164,145007,1,0,0:0:0:0:
108,34,145169,2,0,P|101:98|96:163,1,129.999994049073
96,255,145655,1,0,0:0:0:0:
199,384,145818,6,0,P|192:319|187:254,1,129.999994049073
333,126,146304,2,0,P|320:162|312:193,1,64.9999970245363
275,363,146629,5,0,0:0:0:0:
381,350,146791,1,0,0:0:0:0:
369,246,146953,1,0,0:0:0:0:
264,256,147115,1,0,0:0:0:0:
455,223,147277,5,0,0:0:0:0:
327,169,147439,1,0,0:0:0:0:
453,192,147602,1,0,0:0:0:0:
325,138,147764,2,0,P|321:74|322:-2,1,129.999994049073
321,8,148250,1,0,0:0:0:0:
241,204,148412,6,0,P|302:243|380:229,1,129.999994049073
357,239,148899,1,0,0:0:0:0:
195,306,149061,2,0,P|159:309|108:310,1,64.9999970245363
64,215,149385,2,0,P|25:212|-12:208,2,64.9999970245363
4,111,149872,6,0,P|43:114|80:118,1,64.9999970245363
160,127,150196,1,0,0:0:0:0:
278,0,150358,2,0,P|271:64|266:129,1,129.999994049073
266,221,150844,1,0,0:0:0:0:
369,350,151007,2,0,P|362:285|357:220,1,129.999994049073
347,146,151493,1,0,0:0:0:0:
347,146,151656,1,0,0:0:0:0:
347,146,152466,5,0,0:0:0:0:
219,200,152628,1,0,0:0:0:0:
345,167,152791,1,0,0:0:0:0:
216,226,152953,2,0,P|213:285|214:361,1,110.000003356934
213,335,153439,1,0,0:0:0:0:
124,179,153602,6,0,P|173:131|231:123,1,110.000003356934
318,158,154088,2,0,P|317:190|315:223,1,55.0000016784668
458,378,154574,6,0,L|526:384,2,55.0000016784668
366,363,155061,2,0,P|315:334|293:268,1,110.000003356934
313,199,155547,2,0,P|363:227|385:293,1,110.000003356934
384,272,156034,1,0,0:0:0:0:
421,166,156196,6,0,P|449:115|515:93,1,110.000003356934
354,112,156683,2,0,L|298:116,1,55.0000016784668
219,255,157007,1,0,0:0:0:0:
328,192,157169,1,0,0:0:0:0:
219,129,157331,1,0,0:0:0:0:
256,192,157493,1,0,0:0:0:0:
