osu file format v14

[General]
AudioFilename: audio.mp3
AudioLeadIn: 0
PreviewTime: 70479
Countdown: 1
SampleSet: Normal
StackLeniency: 0.7
Mode: 1
LetterboxInBreaks: 0
WidescreenStoryboard: 0

[Editor]
DistanceSpacing: 1
BeatDivisor: 4
GridSize: 4
TimelineZoom: 0.8000001

[Metadata]
Title:Kokuhaku Rival Sengen
TitleUnicode:告白ライバル宣言
Artist:Sana
ArtistUnicode:鎖那
Creator:a2805146
Version:Oni
Source:
Tags:Sana Kokuhaku Rival Sengen
BeatmapID:1027021
BeatmapSetID:481190

[Difficulty]
HPDrainRate:5
CircleSize:5
OverallDifficulty:5
ApproachRate:5
SliderMultiplier:1.4
SliderTickRate:1

[Events]
//Background and Video events
0,0,"BG.jpg",0,0
//Break Periods
2,174861,185824
//Storyboard Layer 0 (Background)
//Storyboard Layer 1 (Fail)
//Storyboard Layer 2 (Pass)
//Storyboard Layer 3 (Foreground)
//Storyboard Sound Samples

[TimingPoints]
843,363.636363636364,4,1,1,100,1,0
70661,-100,4,1,1,100,0,1
90570,-83.3333333333333,4,1,1,100,0,1
90752,-76.9230769230769,4,1,1,100,0,1
91115,-100,4,1,1,100,0,1
93933,-100,4,1,1,100,0,0
146297,-100,4,1,1,100,0,1
169570,-100,4,1,1,100,0,0
204479,-100,4,1,1,100,0,1
218570,-83.3333333333333,4,1,1,100,0,1
218752,-76.9230769230769,4,1,1,100,0,1
219115,-100,4,1,1,100,0,1
221933,-100,4,1,1,100,0,0

[HitObjects]
256,192,843,5,8,0:0:0:0:
256,192,1024,1,0,0:0:0:0:
256,192,1206,1,8,0:0:0:0:
256,192,1570,1,8,0:0:0:0:
256,192,1933,1,8,0:0:0:0:
256,192,2297,1,0,0:0:0:0:
256,192,2479,1,0,0:0:0:0:
256,192,2661,1,8,0:0:0:0:
256,192,3024,1,0,0:0:0:0:
256,192,3388,1,8,0:0:0:0:
256,192,3752,1,0,0:0:0:0:
256,192,4115,1,8,0:0:0:0:
256,192,4297,1,8,0:0:0:0:
256,192,4479,1,0,0:0:0:0:
256,192,4661,1,8,0:0:0:0:
256,192,5024,1,8,0:0:0:0:
256,192,5206,1,4,0:0:0:0:
256,192,5388,1,0,0:0:0:0:
256,192,5570,1,8,0:0:0:0:
256,192,5933,1,8,0:0:0:0:
256,192,6297,1,8,0:0:0:0:
256,192,6661,1,8,0:0:0:0:
256,192,6842,1,0,0:0:0:0:
256,192,7024,1,8,0:0:0:0:
256,192,7388,1,8,0:0:0:0:
256,192,7570,1,0,0:0:0:0:
256,192,7752,1,8,0:0:0:0:
256,192,7933,1,8,0:0:0:0:
256,192,8479,1,0,0:0:0:0:
256,192,8842,1,8,0:0:0:0:
256,192,9206,1,8,0:0:0:0:
256,192,9570,1,8,0:0:0:0:
256,192,9752,1,0,0:0:0:0:
256,192,9933,1,0,0:0:0:0:
256,192,10024,1,0,0:0:0:0:
256,192,10115,1,0,0:0:0:0:
256,192,10297,1,0,0:0:0:0:
256,192,10479,1,8,0:0:0:0:
256,192,11024,1,8,0:0:0:0:
256,192,11388,1,8,0:0:0:0:
256,192,11752,1,0,0:0:0:0:
256,192,11933,1,0,0:0:0:0:
256,192,12115,1,0,0:0:0:0:
256,192,12297,1,8,0:0:0:0:
256,192,12479,1,8,0:0:0:0:
256,192,12842,1,8,0:0:0:0:
256,192,13206,1,0,0:0:0:0:
256,192,13570,1,8,0:0:0:0:
256,192,13933,1,8,0:0:0:0:
256,192,14297,1,0,0:0:0:0:
256,192,14479,1,0,0:0:0:0:
256,192,14661,1,8,0:0:0:0:
256,192,14842,1,0,0:0:0:0:
256,192,15024,1,8,0:0:0:0:
256,192,15388,1,0,0:0:0:0:
256,192,15752,1,8,0:0:0:0:
256,192,15933,1,8,0:0:0:0:
256,192,16115,1,0,0:0:0:0:
256,192,16297,1,8,0:0:0:0:
256,192,16479,1,0,0:0:0:0:
256,192,16842,1,8,0:0:0:0:
256,192,17206,1,0,0:0:0:0:
256,192,17388,1,8,0:0:0:0:
256,192,17570,1,0,0:0:0:0:
256,192,18297,1,4,0:0:0:0:
256,192,18661,1,0,0:0:0:0:
256,192,18842,1,8,0:0:0:0:
256,192,18933,1,0,0:0:0:0:
256,192,19024,1,8,0:0:0:0:
256,192,19206,1,8,0:0:0:0:
256,192,19388,1,0,0:0:0:0:
256,192,19570,1,8,0:0:0:0:
256,192,19751,1,8,0:0:0:0:
256,192,19933,1,0,0:0:0:0:
256,192,20115,1,0,0:0:0:0:
256,192,20297,1,0,0:0:0:0:
256,192,20388,1,0,0:0:0:0:
256,192,20479,1,8,0:0:0:0:
256,192,20661,1,0,0:0:0:0:
256,192,20751,1,8,0:0:0:0:
256,192,20842,1,0,0:0:0:0:
256,192,21024,1,0,0:0:0:0:
256,192,21115,1,8,0:0:0:0:
256,192,21206,1,8,0:0:0:0:
256,192,21388,1,8,0:0:0:0:
256,192,21570,1,0,0:0:0:0:
256,192,21751,1,0,0:0:0:0:
256,192,21842,1,0,0:0:0:0:
256,192,21933,1,8,0:0:0:0:
256,192,22115,1,8,0:0:0:0:
256,192,22661,1,8,0:0:0:0:
256,192,22842,1,8,0:0:0:0:
256,192,23024,1,0,0:0:0:0:
256,192,23206,1,8,0:0:0:0:
256,192,23297,1,0,0:0:0:0:
256,192,23388,1,0,0:0:0:0:
256,192,23570,1,8,0:0:0:0:
256,192,23661,1,8,0:0:0:0:
256,192,23751,1,8,0:0:0:0:
256,192,23933,1,0,0:0:0:0:
256,192,24115,1,12,0:0:0:0:
256,192,24297,1,8,0:0:0:0:
256,192,24479,1,0,0:0:0:0:
256,192,24661,1,0,0:0:0:0:
256,192,24751,1,0,0:0:0:0:
256,192,24842,1,8,0:0:0:0:
256,192,25024,1,8,0:0:0:0:
256,192,25206,1,0,0:0:0:0:
256,192,25388,1,8,0:0:0:0:
256,192,25751,1,8,0:0:0:0:
256,192,25933,1,0,0:0:0:0:
256,192,26297,1,8,0:0:0:0:
256,192,26661,1,0,0:0:0:0:
256,192,27024,1,8,0:0:0:0:
256,192,27388,1,8,0:0:0:0:
256,192,27570,1,8,0:0:0:0:
256,192,27751,1,0,0:0:0:0:
256,192,27933,1,0,0:0:0:0:
256,192,28479,1,0,0:0:0:0:
256,192,28661,1,8,0:0:0:0:
256,192,28751,1,8,0:0:0:0:
256,192,28842,1,0,0:0:0:0:
256,192,29024,1,8,0:0:0:0:
256,192,29206,1,0,0:0:0:0:
256,192,29388,1,8,0:0:0:0:
256,192,29479,1,0,0:0:0:0:
256,192,29570,1,8,0:0:0:0:
256,192,29751,1,8,0:0:0:0:
256,192,29933,1,4,0:0:0:0:
256,192,30661,1,0,0:0:0:0:
256,192,31388,1,0,0:0:0:0:
256,192,32115,1,0,0:0:0:0:
256,192,32842,1,0,0:0:0:0:
256,192,33570,1,0,0:0:0:0:
256,192,33933,1,0,0:0:0:0:
256,192,34297,1,0,0:0:0:0:
256,192,34660,1,0,0:0:0:0:
256,192,35024,1,0,0:0:0:0:
256,192,35206,1,0,0:0:0:0:
256,192,35388,1,8,0:0:0:0:
256,192,35479,1,8,0:0:0:0:
256,192,35570,1,0,0:0:0:0:
256,192,35751,1,4,0:0:0:0:
256,192,36115,1,8,0:0:0:0:
256,192,36479,1,0,0:0:0:0:
256,192,36660,1,8,0:0:0:0:
256,192,36842,1,8,0:0:0:0:
256,192,37024,1,8,0:0:0:0:
256,192,37115,1,8,0:0:0:0:
256,192,37206,1,0,0:0:0:0:
256,192,37388,1,0,0:0:0:0:
256,192,37570,1,8,0:0:0:0:
256,192,37933,1,0,0:0:0:0:
256,192,38115,1,0,0:0:0:0:
256,192,38297,1,8,0:0:0:0:
256,192,38479,1,0,0:0:0:0:
256,192,38570,1,0,0:0:0:0:
256,192,38660,1,0,0:0:0:0:
256,192,39024,1,8,0:0:0:0:
256,192,39388,1,0,0:0:0:0:
256,192,39570,1,8,0:0:0:0:
256,192,39751,1,8,0:0:0:0:
256,192,39842,1,8,0:0:0:0:
256,192,39933,1,8,0:0:0:0:
256,192,40115,1,0,0:0:0:0:
256,192,40206,1,0,0:0:0:0:
256,192,40297,1,8,0:0:0:0:
256,192,40479,1,0,0:0:0:0:
256,192,40751,1,8,0:0:0:0:
256,192,40842,1,0,0:0:0:0:
256,192,41024,1,8,0:0:0:0:
256,192,41206,1,8,0:0:0:0:
256,192,41570,1,4,0:0:0:0:
256,192,41751,1,0,0:0:0:0:
256,192,41933,1,8,0:0:0:0:
256,192,42115,1,8,0:0:0:0:
256,192,42206,1,8,0:0:0:0:
256,192,42297,1,0,0:0:0:0:
256,192,42479,1,8,0:0:0:0:
256,192,42660,1,8,0:0:0:0:
256,192,43024,1,8,0:0:0:0:
256,192,43206,1,8,0:0:0:0:
256,192,43388,1,0,0:0:0:0:
256,192,43479,1,0,0:0:0:0:
256,192,43570,1,8,0:0:0:0:
256,192,43751,1,0,0:0:0:0:
256,192,43933,1,8,0:0:0:0:
256,192,44115,1,8,0:0:0:0:
256,192,44479,1,4,0:0:0:0:
256,192,44842,1,8,0:0:0:0:
256,192,45206,1,0,0:0:0:0:
256,192,45388,1,8,0:0:0:0:
256,192,45570,1,8,0:0:0:0:
256,192,45933,1,0,0:0:0:0:
256,192,46115,1,8,0:0:0:0:
256,192,46206,1,8,0:0:0:0:
256,192,46297,1,0,0:0:0:0:
256,192,46479,1,8,0:0:0:0:
256,192,46660,1,0,0:0:0:0:
256,192,46842,1,8,0:0:0:0:
256,192,47024,1,8,0:0:0:0:
256,192,47388,1,4,0:0:0:0:
256,192,47570,1,0,0:0:0:0:
256,192,47751,1,8,0:0:0:0:
256,192,48024,1,8,0:0:0:0:
256,192,48115,1,0,0:0:0:0:
256,192,48297,1,8,0:0:0:0:
256,192,48479,1,8,0:0:0:0:
256,192,48660,1,8,0:0:0:0:
256,192,48842,1,0,0:0:0:0:
256,192,49206,1,8,0:0:0:0:
256,192,49297,1,8,0:0:0:0:
256,192,49388,1,8,0:0:0:0:
256,192,49569,1,0,0:0:0:0:
256,192,49751,1,8,0:0:0:0:
256,192,49933,1,8,0:0:0:0:
256,192,50115,1,8,0:0:0:0:
256,192,50206,1,8,0:0:0:0:
256,192,50297,1,0,0:0:0:0:
256,192,50660,1,8,0:0:0:0:
256,192,51024,1,0,0:0:0:0:
256,192,51388,1,8,0:0:0:0:
256,192,51751,1,0,0:0:0:0:
256,192,51933,1,8,0:0:0:0:
256,192,52115,1,8,0:0:0:0:
256,192,52206,1,8,0:0:0:0:
256,192,52297,1,0,0:0:0:0:
256,192,52479,1,0,0:0:0:0:
256,192,52660,1,8,0:0:0:0:
256,192,52842,1,8,0:0:0:0:
256,192,53115,1,8,0:0:0:0:
256,192,53206,1,0,0:0:0:0:
256,192,53569,1,8,0:0:0:0:
256,192,53933,1,0,0:0:0:0:
256,192,54115,1,8,0:0:0:0:
256,192,54297,1,8,0:0:0:0:
256,192,54388,1,8,0:0:0:0:
256,192,54479,1,8,0:0:0:0:
256,192,54660,1,8,0:0:0:0:
256,192,55024,1,8,0:0:0:0:
256,192,55206,1,0,0:0:0:0:
256,192,55388,1,8,0:0:0:0:
256,192,55569,1,8,0:0:0:0:
256,192,55751,1,0,0:0:0:0:
256,192,56115,1,0,0:0:0:0:
256,192,56479,1,8,0:0:0:0:
256,192,56842,1,0,0:0:0:0:
256,192,57024,1,8,0:0:0:0:
256,192,57206,1,8,0:0:0:0:
256,192,57297,1,8,0:0:0:0:
256,192,57388,1,8,0:0:0:0:
256,192,57569,1,0,0:0:0:0:
256,192,57751,1,0,0:0:0:0:
256,192,57933,1,8,0:0:0:0:
256,192,58115,1,0,0:0:0:0:
256,192,58206,1,0,0:0:0:0:
256,192,58297,1,8,0:0:0:0:
256,192,58660,1,8,0:0:0:0:
256,192,59024,1,4,0:0:0:0:
256,192,59388,1,8,0:0:0:0:
256,192,59751,1,4,0:0:0:0:
256,192,60115,1,8,0:0:0:0:
256,192,60297,1,8,0:0:0:0:
256,192,60479,1,4,0:0:0:0:
256,192,60660,1,8,0:0:0:0:
256,192,60751,1,8,0:0:0:0:
256,192,60842,1,8,0:0:0:0:
256,192,61024,1,8,0:0:0:0:
256,192,61206,1,4,0:0:0:0:
256,192,61569,1,8,0:0:0:0:
256,192,61933,1,0,0:0:0:0:
256,192,62115,1,8,0:0:0:0:
256,192,62297,1,0,0:0:0:0:
256,192,62479,1,8,0:0:0:0:
256,192,62569,1,8,0:0:0:0:
256,192,62660,1,8,0:0:0:0:
256,192,62842,1,8,0:0:0:0:
256,192,63024,1,0,0:0:0:0:
256,192,63297,1,8,0:0:0:0:
256,192,63388,1,0,0:0:0:0:
256,192,63751,1,8,0:0:0:0:
256,192,63933,1,0,0:0:0:0:
256,192,64115,1,8,0:0:0:0:
256,192,64479,1,8,0:0:0:0:
256,192,64842,1,0,0:0:0:0:
256,192,65206,1,8,0:0:0:0:
256,192,65569,1,0,0:0:0:0:
256,192,65933,1,8,0:0:0:0:
256,192,66297,1,0,0:0:0:0:
256,192,66478,1,0,0:0:0:0:
256,192,66660,1,8,0:0:0:0:
256,192,66842,1,0,0:0:0:0:
256,192,67024,1,8,0:0:0:0:
256,192,67388,1,8,0:0:0:0:
256,192,67569,1,8,0:0:0:0:
256,192,67751,1,0,0:0:0:0:
256,192,68115,1,0,0:0:0:0:
256,192,68478,1,8,0:0:0:0:
256,192,68842,1,8,0:0:0:0:
256,192,69024,1,8,0:0:0:0:
256,192,69206,1,4,0:0:0:0:
256,192,69388,1,8,0:0:0:0:
256,192,69478,1,8,0:0:0:0:
256,192,69569,1,8,0:0:0:0:
256,192,69751,1,8,0:0:0:0:
256,192,69933,1,0,0:0:0:0:
256,192,70297,1,8,0:0:0:0:
256,192,70660,1,4,0:0:0:0:
256,192,70842,1,8,0:0:0:0:
256,192,70933,1,8,0:0:0:0:
256,192,71024,1,0,0:0:0:0:
256,192,71206,1,8,0:0:0:0:
256,192,71388,1,0,0:0:0:0:
256,192,71478,1,0,0:0:0:0:
256,192,71569,1,8,0:0:0:0:
256,192,71751,1,0,0:0:0:0:
256,192,71842,1,0,0:0:0:0:
256,192,71933,1,8,0:0:0:0:
256,192,72024,1,8,0:0:0:0:
256,192,72115,1,0,0:0:0:0:
256,192,72297,1,8,0:0:0:0:
256,192,72388,1,0,0:0:0:0:
256,192,72478,1,8,0:0:0:0:
256,192,72660,1,8,0:0:0:0:
256,192,72842,1,0,0:0:0:0:
256,192,73024,1,8,0:0:0:0:
256,192,73115,1,8,0:0:0:0:
256,192,73206,1,8,0:0:0:0:
256,192,73388,1,8,0:0:0:0:
256,192,73569,1,0,0:0:0:0:
256,192,73933,1,8,0:0:0:0:
256,192,74024,1,8,0:0:0:0:
256,192,74115,1,8,0:0:0:0:
256,192,74297,1,0,0:0:0:0:
256,192,74478,1,8,0:0:0:0:
256,192,74842,1,8,0:0:0:0:
256,192,75024,1,4,0:0:0:0:
256,192,75206,1,0,0:0:0:0:
256,192,75388,1,8,0:0:0:0:
256,192,75751,1,8,0:0:0:0:
256,192,75842,1,8,0:0:0:0:
256,192,75933,1,8,0:0:0:0:
256,192,76115,1,0,0:0:0:0:
256,192,76297,1,8,0:0:0:0:
256,192,76478,1,12,0:0:0:0:
256,192,76660,1,8,0:0:0:0:
256,192,76751,1,0,0:0:0:0:
256,192,76842,1,0,0:0:0:0:
256,192,77024,1,8,0:0:0:0:
256,192,77206,1,0,0:0:0:0:
256,192,77388,1,0,0:0:0:0:
256,192,77478,1,0,0:0:0:0:
256,192,77569,1,8,0:0:0:0:
256,192,77751,1,8,0:0:0:0:
256,192,78115,1,0,0:0:0:0:
256,192,78297,1,8,0:0:0:0:
256,192,78478,1,0,0:0:0:0:
256,192,78660,1,8,0:0:0:0:
256,192,78751,1,0,0:0:0:0:
256,192,78842,1,8,0:0:0:0:
256,192,79024,1,8,0:0:0:0:
256,192,79206,1,0,0:0:0:0:
256,192,79388,1,0,0:0:0:0:
256,192,79751,1,8,0:0:0:0:
256,192,79933,1,8,0:0:0:0:
256,192,80115,1,0,0:0:0:0:
256,192,80297,1,8,0:0:0:0:
256,192,80660,1,8,0:0:0:0:
256,192,80842,1,4,0:0:0:0:
256,192,81024,1,0,0:0:0:0:
256,192,81206,1,0,0:0:0:0:
256,192,81297,1,0,0:0:0:0:
256,192,81388,1,0,0:0:0:0:
256,192,81569,1,0,0:0:0:0:
256,192,81751,1,8,0:0:0:0:
256,192,81933,1,0,0:0:0:0:
256,192,82024,1,0,0:0:0:0:
256,192,82115,1,8,0:0:0:0:
256,192,82297,1,8,0:0:0:0:
256,192,82478,1,0,0:0:0:0:
256,192,82842,1,0,0:0:0:0:
256,192,83024,1,8,0:0:0:0:
256,192,83206,1,0,0:0:0:0:
256,192,83569,1,0,0:0:0:0:
256,192,83751,1,8,0:0:0:0:
256,192,83933,1,0,0:0:0:0:
256,192,84024,1,8,0:0:0:0:
256,192,84115,1,8,0:0:0:0:
256,192,84297,1,8,0:0:0:0:
256,192,84478,1,0,0:0:0:0:
256,192,84842,1,8,0:0:0:0:
256,192,85024,1,8,0:0:0:0:
256,192,85206,1,0,0:0:0:0:
256,192,85387,1,8,0:0:0:0:
256,192,85478,1,0,0:0:0:0:
256,192,85751,1,8,0:0:0:0:
256,192,85933,1,0,0:0:0:0:
256,192,86024,1,0,0:0:0:0:
256,192,86115,1,8,0:0:0:0:
256,192,86478,1,8,0:0:0:0:
256,192,86660,1,0,0:0:0:0:
256,192,86842,1,8,0:0:0:0:
256,192,86933,1,8,0:0:0:0:
256,192,87024,1,0,0:0:0:0:
256,192,87206,1,0,0:0:0:0:
256,192,87387,1,8,0:0:0:0:
256,192,87478,1,8,0:0:0:0:
256,192,87569,1,8,0:0:0:0:
256,192,87751,1,0,0:0:0:0:
256,192,88115,1,8,0:0:0:0:
256,192,88478,1,0,0:0:0:0:
256,192,88660,1,0,0:0:0:0:
256,192,88751,1,0,0:0:0:0:
256,192,88842,1,0,0:0:0:0:
256,192,89024,1,8,0:0:0:0:
256,192,89387,1,8,0:0:0:0:
256,192,89569,1,0,0:0:0:0:
256,192,89933,1,8,0:0:0:0:
256,192,90297,1,0,0:0:0:0:
256,192,90660,1,12,0:0:0:0:
256,192,91024,1,12,0:0:0:0:
256,192,91569,1,0,0:0:0:0:
256,192,91751,1,8,0:0:0:0:
256,192,91842,1,8,0:0:0:0:
256,192,91933,1,0,0:0:0:0:
256,192,92297,1,8,0:0:0:0:
256,192,92478,1,0,0:0:0:0:
256,192,92569,1,0,0:0:0:0:
256,192,92660,1,8,0:0:0:0:
256,192,93206,1,8,0:0:0:0:
256,192,93569,1,0,0:0:0:0:
256,192,93933,1,4,0:0:0:0:
256,192,94115,1,4,0:0:0:0:
256,192,94297,1,0,0:0:0:0:
256,192,94660,1,0,0:0:0:0:
256,192,95024,1,8,0:0:0:0:
256,192,95387,1,4,0:0:0:0:
256,192,95569,1,4,0:0:0:0:
256,192,95751,1,0,0:0:0:0:
256,192,96115,1,0,0:0:0:0:
256,192,96297,1,8,0:0:0:0:
256,192,96478,1,0,0:0:0:0:
256,192,96842,1,0,0:0:0:0:
256,192,97024,1,0,0:0:0:0:
256,192,97206,1,8,0:0:0:0:
256,192,97387,1,0,0:0:0:0:
256,192,97478,1,0,0:0:0:0:
256,192,97569,1,0,0:0:0:0:
256,192,97751,1,0,0:0:0:0:
256,192,97933,1,8,0:0:0:0:
256,192,98206,1,8,0:0:0:0:
256,192,98296,1,8,0:0:0:0:
256,192,98478,1,8,0:0:0:0:
256,192,98660,1,0,0:0:0:0:
256,192,98842,1,8,0:0:0:0:
256,192,99024,1,0,0:0:0:0:
256,192,99752,1,4,0:0:0:0:
256,192,100115,1,0,0:0:0:0:
256,192,100297,1,0,0:0:0:0:
256,192,100388,1,0,0:0:0:0:
256,192,100479,1,8,0:0:0:0:
256,192,100661,1,8,0:0:0:0:
256,192,100843,1,0,0:0:0:0:
256,192,101024,1,8,0:0:0:0:
256,192,101115,1,8,0:0:0:0:
256,192,101206,1,8,0:0:0:0:
256,192,101388,1,8,0:0:0:0:
256,192,101570,1,8,0:0:0:0:
256,192,101752,1,0,0:0:0:0:
256,192,101843,1,0,0:0:0:0:
256,192,101933,1,8,0:0:0:0:
256,192,102115,1,8,0:0:0:0:
256,192,102206,1,8,0:0:0:0:
256,192,102297,1,0,0:0:0:0:
256,192,102479,1,8,0:0:0:0:
256,192,102661,1,0,0:0:0:0:
256,192,103024,1,0,0:0:0:0:
256,192,103206,1,0,0:0:0:0:
256,192,103297,1,0,0:0:0:0:
256,192,103388,1,8,0:0:0:0:
256,192,103570,1,0,0:0:0:0:
256,192,104115,1,8,0:0:0:0:
256,192,104297,1,8,0:0:0:0:
256,192,104479,1,0,0:0:0:0:
256,192,104661,1,8,0:0:0:0:
256,192,104752,1,8,0:0:0:0:
256,192,104843,1,0,0:0:0:0:
256,192,105024,1,8,0:0:0:0:
256,192,105206,1,0,0:0:0:0:
256,192,105297,1,0,0:0:0:0:
256,192,105388,1,0,0:0:0:0:
256,192,105570,1,12,0:0:0:0:
256,192,105752,1,8,0:0:0:0:
256,192,105933,1,0,0:0:0:0:
256,192,106115,1,0,0:0:0:0:
256,192,106206,1,0,0:0:0:0:
256,192,106297,1,8,0:0:0:0:
256,192,106479,1,8,0:0:0:0:
256,192,106661,1,0,0:0:0:0:
256,192,106843,1,8,0:0:0:0:
256,192,107024,1,12,0:0:0:0:
256,192,107206,1,8,0:0:0:0:
256,192,107297,1,8,0:0:0:0:
256,192,107388,1,8,0:0:0:0:
256,192,107570,1,0,0:0:0:0:
256,192,107752,1,8,0:0:0:0:
256,192,108115,1,8,0:0:0:0:
256,192,108479,1,0,0:0:0:0:
256,192,108843,1,8,0:0:0:0:
256,192,108933,1,8,0:0:0:0:
256,192,109024,1,8,0:0:0:0:
256,192,109206,1,0,0:0:0:0:
256,192,109388,1,8,0:0:0:0:
256,192,109752,1,8,0:0:0:0:
256,192,109933,1,4,0:0:0:0:
256,192,110115,1,0,0:0:0:0:
256,192,110297,1,8,0:0:0:0:
256,192,110479,1,8,0:0:0:0:
256,192,110570,1,8,0:0:0:0:
256,192,110661,1,0,0:0:0:0:
256,192,110843,1,0,0:0:0:0:
256,192,111024,1,8,0:0:0:0:
256,192,111115,1,8,0:0:0:0:
256,192,111206,1,8,0:0:0:0:
256,192,111388,1,0,0:0:0:0:
256,192,111752,1,8,0:0:0:0:
256,192,112115,1,0,0:0:0:0:
256,192,112479,1,8,0:0:0:0:
256,192,112661,1,8,0:0:0:0:
256,192,112843,1,4,0:0:0:0:
256,192,113024,1,0,0:0:0:0:
256,192,113115,1,0,0:0:0:0:
256,192,113206,1,0,0:0:0:0:
256,192,113388,1,0,0:0:0:0:
256,192,113570,1,8,0:0:0:0:
256,192,113933,1,8,0:0:0:0:
256,192,114115,1,0,0:0:0:0:
256,192,114297,1,8,0:0:0:0:
256,192,114661,1,0,0:0:0:0:
256,192,115024,1,8,0:0:0:0:
256,192,115388,1,8,0:0:0:0:
256,192,115570,1,0,0:0:0:0:
256,192,115752,1,8,0:0:0:0:
256,192,115843,1,8,0:0:0:0:
256,192,115933,1,8,0:0:0:0:
256,192,116115,1,0,0:0:0:0:
256,192,116297,1,8,0:0:0:0:
256,192,116479,1,0,0:0:0:0:
256,192,116843,1,8,0:0:0:0:
256,192,117206,1,4,0:0:0:0:
256,192,117570,1,0,0:0:0:0:
256,192,117752,1,0,0:0:0:0:
256,192,117843,1,0,0:0:0:0:
256,192,117933,1,8,0:0:0:0:
256,192,118115,1,0,0:0:0:0:
256,192,118297,1,8,0:0:0:0:
256,192,118479,1,8,0:0:0:0:
256,192,118570,1,0,0:0:0:0:
256,192,118661,1,8,0:0:0:0:
256,192,119024,1,8,0:0:0:0:
256,192,119206,1,0,0:0:0:0:
256,192,119388,1,8,0:0:0:0:
256,192,119570,1,8,0:0:0:0:
256,192,119752,1,0,0:0:0:0:
256,192,120115,1,0,0:0:0:0:
256,192,120297,1,8,0:0:0:0:
256,192,120479,1,0,0:0:0:0:
256,192,120661,1,8,0:0:0:0:
256,192,120752,1,8,0:0:0:0:
256,192,120843,1,8,0:0:0:0:
256,192,121024,1,8,0:0:0:0:
256,192,121206,1,0,0:0:0:0:
256,192,121570,1,0,0:0:0:0:
256,192,121752,1,0,0:0:0:0:
256,192,121933,1,8,0:0:0:0:
256,192,122024,1,8,0:0:0:0:
256,192,122115,1,8,0:0:0:0:
256,192,122206,1,8,0:0:0:0:
256,192,122297,1,0,0:0:0:0:
256,192,122479,1,0,0:0:0:0:
256,192,122661,1,8,0:0:0:0:
256,192,122843,1,8,0:0:0:0:
256,192,123024,1,0,0:0:0:0:
256,192,123388,1,0,0:0:0:0:
256,192,123752,1,8,0:0:0:0:
256,192,124115,1,8,0:0:0:0:
256,192,124297,1,0,0:0:0:0:
256,192,124388,1,0,0:0:0:0:
256,192,124479,1,8,0:0:0:0:
256,192,124661,1,8,0:0:0:0:
256,192,124843,1,8,0:0:0:0:
256,192,125024,1,0,0:0:0:0:
256,192,125206,1,8,0:0:0:0:
256,192,125297,1,8,0:0:0:0:
256,192,125388,1,8,0:0:0:0:
256,192,125570,1,0,0:0:0:0:
256,192,125843,1,8,0:0:0:0:
256,192,125933,1,0,0:0:0:0:
256,192,126297,1,8,0:0:0:0:
256,192,126661,1,0,0:0:0:0:
256,192,127024,1,8,0:0:0:0:
256,192,127388,1,0,0:0:0:0:
256,192,127570,1,0,0:0:0:0:
256,192,127752,1,8,0:0:0:0:
256,192,127933,1,0,0:0:0:0:
256,192,128115,1,8,0:0:0:0:
256,192,128206,1,8,0:0:0:0:
256,192,128297,1,8,0:0:0:0:
256,192,128479,1,0,0:0:0:0:
256,192,128843,1,0,0:0:0:0:
256,192,129206,1,8,0:0:0:0:
256,192,129570,1,0,0:0:0:0:
256,192,129752,1,8,0:0:0:0:
256,192,129933,1,8,0:0:0:0:
256,192,130024,1,8,0:0:0:0:
256,192,130115,1,8,0:0:0:0:
256,192,130297,1,8,0:0:0:0:
256,192,130661,1,8,0:0:0:0:
256,192,130843,1,0,0:0:0:0:
256,192,131024,1,8,0:0:0:0:
256,192,131206,1,8,0:0:0:0:
256,192,131388,1,0,0:0:0:0:
256,192,131752,1,0,0:0:0:0:
256,192,131933,1,8,0:0:0:0:
256,192,132115,1,0,0:0:0:0:
256,192,132297,1,8,0:0:0:0:
256,192,132388,1,8,0:0:0:0:
256,192,132479,1,8,0:0:0:0:
256,192,132661,1,8,0:0:0:0:
256,192,132843,1,0,0:0:0:0:
256,192,133206,1,0,0:0:0:0:
256,192,133388,1,0,0:0:0:0:
256,192,133570,1,8,0:0:0:0:
256,192,133752,1,0,0:0:0:0:
256,192,133933,1,8,0:0:0:0:
256,192,134297,1,8,0:0:0:0:
256,192,134661,1,4,0:0:0:0:
256,192,135024,1,8,0:0:0:0:
256,192,135388,1,4,0:0:0:0:
256,192,135752,1,8,0:0:0:0:
256,192,135933,1,8,0:0:0:0:
256,192,136115,1,4,0:0:0:0:
256,192,136297,1,8,0:0:0:0:
256,192,136388,1,8,0:0:0:0:
256,192,136479,1,8,0:0:0:0:
256,192,136661,1,8,0:0:0:0:
256,192,136843,1,4,0:0:0:0:
256,192,137206,1,8,0:0:0:0:
256,192,137570,1,0,0:0:0:0:
256,192,137752,1,8,0:0:0:0:
256,192,137933,1,0,0:0:0:0:
256,192,138115,1,8,0:0:0:0:
256,192,138206,1,8,0:0:0:0:
256,192,138297,1,8,0:0:0:0:
256,192,138479,1,8,0:0:0:0:
256,192,138661,1,0,0:0:0:0:
256,192,138933,1,8,0:0:0:0:
256,192,139024,1,0,0:0:0:0:
256,192,139388,1,8,0:0:0:0:
256,192,139570,1,0,0:0:0:0:
256,192,139752,1,8,0:0:0:0:
256,192,140115,1,8,0:0:0:0:
256,192,140479,1,0,0:0:0:0:
256,192,140843,1,8,0:0:0:0:
256,192,141206,1,0,0:0:0:0:
256,192,141570,1,8,0:0:0:0:
256,192,141933,1,0,0:0:0:0:
256,192,142115,1,0,0:0:0:0:
256,192,142297,1,8,0:0:0:0:
256,192,142479,1,0,0:0:0:0:
256,192,142661,1,8,0:0:0:0:
256,192,143024,1,8,0:0:0:0:
256,192,143206,1,8,0:0:0:0:
256,192,143388,1,4,0:0:0:0:
256,192,143752,1,8,0:0:0:0:
256,192,144115,1,0,0:0:0:0:
256,192,144479,1,8,0:0:0:0:
256,192,144661,1,8,0:0:0:0:
256,192,144843,1,4,0:0:0:0:
256,192,145024,1,8,0:0:0:0:
256,192,145115,1,8,0:0:0:0:
256,192,145206,1,8,0:0:0:0:
256,192,145388,1,8,0:0:0:0:
256,192,145570,1,0,0:0:0:0:
256,192,145933,1,8,0:0:0:0:
256,192,146297,1,4,0:0:0:0:
256,192,146479,1,8,0:0:0:0:
256,192,146570,1,8,0:0:0:0:
256,192,146661,1,0,0:0:0:0:
256,192,146843,1,8,0:0:0:0:
256,192,147024,1,0,0:0:0:0:
256,192,147115,1,0,0:0:0:0:
256,192,147206,1,8,0:0:0:0:
256,192,147297,1,8,0:0:0:0:
256,192,147388,1,0,0:0:0:0:
256,192,147570,1,8,0:0:0:0:
256,192,147752,1,0,0:0:0:0:
256,192,147843,1,0,0:0:0:0:
256,192,147933,1,8,0:0:0:0:
256,192,148115,1,0,0:0:0:0:
256,192,148297,1,8,0:0:0:0:
256,192,148479,1,8,0:0:0:0:
256,192,148843,1,0,0:0:0:0:
256,192,149206,1,8,0:0:0:0:
256,192,149570,1,8,0:0:0:0:
256,192,149752,1,8,0:0:0:0:
256,192,149933,1,0,0:0:0:0:
256,192,150115,1,8,0:0:0:0:
256,192,150206,1,8,0:0:0:0:
256,192,150297,1,8,0:0:0:0:
256,192,150479,1,8,0:0:0:0:
256,192,150661,1,0,0:0:0:0:
256,192,150752,1,0,0:0:0:0:
256,192,150843,1,0,0:0:0:0:
256,192,151024,1,8,0:0:0:0:
256,192,151206,1,0,0:0:0:0:
256,192,151388,1,8,0:0:0:0:
256,192,151570,1,8,0:0:0:0:
256,192,151661,1,8,0:0:0:0:
256,192,151752,1,0,0:0:0:0:
256,192,151933,1,8,0:0:0:0:
256,192,152115,1,12,0:0:0:0:
256,192,152297,1,0,0:0:0:0:
256,192,152479,1,8,0:0:0:0:
256,192,152843,1,8,0:0:0:0:
256,192,152933,1,8,0:0:0:0:
256,192,153024,1,8,0:0:0:0:
256,192,153206,1,0,0:0:0:0:
256,192,153388,1,8,0:0:0:0:
256,192,153752,1,8,0:0:0:0:
256,192,153933,1,0,0:0:0:0:
256,192,154115,1,8,0:0:0:0:
256,192,154297,1,0,0:0:0:0:
256,192,154388,1,0,0:0:0:0:
256,192,154479,1,8,0:0:0:0:
256,192,154661,1,0,0:0:0:0:
256,192,154843,1,8,0:0:0:0:
256,192,155024,1,0,0:0:0:0:
256,192,155388,1,8,0:0:0:0:
256,192,155570,1,8,0:0:0:0:
256,192,155661,1,8,0:0:0:0:
256,192,155752,1,0,0:0:0:0:
256,192,155933,1,8,0:0:0:0:
256,192,156297,1,0,0:0:0:0:
256,192,156479,1,8,0:0:0:0:
256,192,156570,1,8,0:0:0:0:
256,192,156661,1,0,0:0:0:0:
256,192,156843,1,0,0:0:0:0:
256,192,157024,1,8,0:0:0:0:
256,192,157206,1,8,0:0:0:0:
256,192,157297,1,8,0:0:0:0:
256,192,157388,1,8,0:0:0:0:
256,192,157570,1,0,0:0:0:0:
256,192,157752,1,8,0:0:0:0:
256,192,157933,1,8,0:0:0:0:
256,192,158115,1,0,0:0:0:0:
256,192,158479,1,0,0:0:0:0:
256,192,158661,1,8,0:0:0:0:
256,192,158843,1,0,0:0:0:0:
256,192,159115,1,8,0:0:0:0:
256,192,159206,1,0,0:0:0:0:
256,192,159388,1,8,0:0:0:0:
256,192,159752,1,8,0:0:0:0:
256,192,160115,1,0,0:0:0:0:
256,192,160479,1,8,0:0:0:0:
256,192,160843,1,8,0:0:0:0:
256,192,161388,1,8,0:0:0:0:
256,192,161570,1,0,0:0:0:0:
256,192,161661,1,0,0:0:0:0:
256,192,161752,1,8,0:0:0:0:
256,192,162115,1,0,0:0:0:0:
256,192,162297,1,8,0:0:0:0:
256,192,162388,1,8,0:0:0:0:
256,192,162479,1,0,0:0:0:0:
256,192,162661,1,0,0:0:0:0:
256,192,162843,1,8,0:0:0:0:
256,192,162933,1,0,0:0:0:0:
256,192,163024,1,8,0:0:0:0:
256,192,163206,1,0,0:0:0:0:
256,192,163388,1,8,0:0:0:0:
256,192,163752,1,0,0:0:0:0:
256,192,164297,1,8,0:0:0:0:
256,192,164388,1,8,0:0:0:0:
256,192,164479,1,0,0:0:0:0:
256,192,164661,1,8,0:0:0:0:
256,192,165024,1,0,0:0:0:0:
256,192,165115,1,0,0:0:0:0:
256,192,165206,1,8,0:0:0:0:
256,192,165570,1,8,0:0:0:0:
256,192,165933,1,0,0:0:0:0:
256,192,166297,1,12,0:0:0:0:
256,192,166661,1,12,0:0:0:0:
256,192,167206,1,8,0:0:0:0:
256,192,167388,1,0,0:0:0:0:
256,192,167479,1,8,0:0:0:0:
256,192,167570,1,8,0:0:0:0:
256,192,167933,1,0,0:0:0:0:
256,192,168024,1,0,0:0:0:0:
256,192,168115,1,8,0:0:0:0:
256,192,168297,1,0,0:0:0:0:
256,192,168479,1,0,0:0:0:0:
256,192,168661,1,8,0:0:0:0:
256,192,168752,1,8,0:0:0:0:
256,192,168843,1,0,0:0:0:0:
256,192,169206,1,8,0:0:0:0:
256,192,169570,1,4,0:0:0:0:
256,192,169752,1,4,0:0:0:0:
256,192,169933,1,0,0:0:0:0:
256,192,170297,1,0,0:0:0:0:
256,192,170479,1,8,0:0:0:0:
256,192,170570,1,8,0:0:0:0:
256,192,170661,1,0,0:0:0:0:
256,192,171024,1,4,0:0:0:0:
256,192,171206,1,4,0:0:0:0:
256,192,171388,1,0,0:0:0:0:
256,192,171752,1,0,0:0:0:0:
256,192,171933,1,8,0:0:0:0:
256,192,172024,1,0,0:0:0:0:
256,192,172115,1,8,0:0:0:0:
256,192,172297,1,8,0:0:0:0:
256,192,172479,1,0,0:0:0:0:
256,192,172661,1,0,0:0:0:0:
256,192,172843,1,8,0:0:0:0:
256,192,173024,1,0,0:0:0:0:
256,192,173115,1,0,0:0:0:0:
256,192,173206,1,0,0:0:0:0:
256,192,173388,1,0,0:0:0:0:
256,192,173570,1,8,0:0:0:0:
256,192,173843,1,8,0:0:0:0:
256,192,173933,1,8,0:0:0:0:
256,192,174297,1,8,0:0:0:0:
256,192,174479,1,0,0:0:0:0:
256,192,174661,1,8,0:0:0:0:
256,192,187024,5,4,0:0:0:0:
256,192,187388,1,8,0:0:0:0:
256,192,187752,1,4,0:0:0:0:
256,192,188115,1,8,0:0:0:0:
256,192,188297,1,8,0:0:0:0:
256,192,188479,1,4,0:0:0:0:
256,192,188661,1,8,0:0:0:0:
256,192,188752,1,8,0:0:0:0:
256,192,188843,1,8,0:0:0:0:
256,192,189024,1,8,0:0:0:0:
256,192,189206,1,4,0:0:0:0:
256,192,189570,1,8,0:0:0:0:
256,192,189933,1,0,0:0:0:0:
256,192,190115,1,8,0:0:0:0:
256,192,190297,1,0,0:0:0:0:
256,192,190479,1,8,0:0:0:0:
256,192,190570,1,8,0:0:0:0:
256,192,190661,1,0,0:0:0:0:
256,192,190843,1,8,0:0:0:0:
256,192,191024,1,0,0:0:0:0:
256,192,191297,1,8,0:0:0:0:
256,192,191388,1,0,0:0:0:0:
256,192,191752,1,8,0:0:0:0:
256,192,191933,1,0,0:0:0:0:
256,192,192115,1,8,0:0:0:0:
256,192,192479,1,8,0:0:0:0:
256,192,192843,1,0,0:0:0:0:
256,192,193206,1,8,0:0:0:0:
256,192,193570,1,0,0:0:0:0:
256,192,193933,1,8,0:0:0:0:
256,192,194297,1,0,0:0:0:0:
256,192,194479,1,0,0:0:0:0:
256,192,194661,1,8,0:0:0:0:
256,192,194843,1,0,0:0:0:0:
256,192,195024,1,8,0:0:0:0:
256,192,195388,1,8,0:0:0:0:
256,192,195570,1,8,0:0:0:0:
256,192,195752,1,0,0:0:0:0:
256,192,196115,1,0,0:0:0:0:
256,192,196479,1,8,0:0:0:0:
256,192,196843,1,8,0:0:0:0:
256,192,197206,1,0,0:0:0:0:
256,192,197327,1,0,0:0:0:0:
256,192,197449,1,0,0:0:0:0:
256,192,197570,1,0,0:0:0:0:
256,192,197752,1,8,0:0:0:0:
256,192,197933,1,0,0:0:0:0:
256,192,198115,1,0,0:0:0:0:
256,192,198297,1,8,0:0:0:0:
256,192,198661,1,4,0:0:0:0:
256,192,199024,1,0,0:0:0:0:
256,192,199388,1,0,0:0:0:0:
256,192,199752,1,0,0:0:0:0:
256,192,200115,1,0,0:0:0:0:
256,192,200479,1,0,0:0:0:0:
256,192,200843,1,0,0:0:0:0:
256,192,201024,1,8,0:0:0:0:
256,192,201206,1,0,0:0:0:0:
256,192,201570,1,8,0:0:0:0:
256,192,201933,1,0,0:0:0:0:
256,192,202297,1,8,0:0:0:0:
256,192,202661,1,0,0:0:0:0:
256,192,203024,1,8,0:0:0:0:
256,192,203388,1,8,0:0:0:0:
256,192,203570,1,8,0:0:0:0:
256,192,203752,1,0,0:0:0:0:
256,192,203933,1,8,0:0:0:0:
256,192,204115,1,0,0:0:0:0:
256,192,204297,1,8,0:0:0:0:
256,192,204479,1,12,0:0:0:0:
256,192,204661,1,8,0:0:0:0:
256,192,204752,1,8,0:0:0:0:
256,192,204843,1,0,0:0:0:0:
256,192,205024,1,8,0:0:0:0:
256,192,205206,1,0,0:0:0:0:
256,192,205297,1,0,0:0:0:0:
256,192,205388,1,8,0:0:0:0:
256,192,205570,1,0,0:0:0:0:
256,192,205661,1,0,0:0:0:0:
256,192,205752,1,8,0:0:0:0:
256,192,205843,1,8,0:0:0:0:
256,192,205933,1,0,0:0:0:0:
256,192,206115,1,8,0:0:0:0:
256,192,206206,1,0,0:0:0:0:
256,192,206297,1,8,0:0:0:0:
256,192,206479,1,8,0:0:0:0:
256,192,206661,1,0,0:0:0:0:
256,192,206843,1,8,0:0:0:0:
256,192,206933,1,8,0:0:0:0:
256,192,207024,1,8,0:0:0:0:
256,192,207206,1,8,0:0:0:0:
256,192,207388,1,0,0:0:0:0:
256,192,207752,1,8,0:0:0:0:
256,192,207843,1,8,0:0:0:0:
256,192,207933,1,8,0:0:0:0:
256,192,208115,1,0,0:0:0:0:
256,192,208297,1,8,0:0:0:0:
256,192,208661,1,8,0:0:0:0:
256,192,208843,1,4,0:0:0:0:
256,192,209024,1,0,0:0:0:0:
256,192,209206,1,8,0:0:0:0:
256,192,209570,1,8,0:0:0:0:
256,192,209661,1,8,0:0:0:0:
256,192,209752,1,8,0:0:0:0:
256,192,209933,1,0,0:0:0:0:
256,192,210115,1,8,0:0:0:0:
256,192,210297,1,8,0:0:0:0:
256,192,210479,1,8,0:0:0:0:
256,192,210570,1,0,0:0:0:0:
256,192,210661,1,0,0:0:0:0:
256,192,210843,1,8,0:0:0:0:
256,192,211024,1,0,0:0:0:0:
256,192,211206,1,0,0:0:0:0:
256,192,211297,1,0,0:0:0:0:
256,192,211388,1,8,0:0:0:0:
256,192,211570,1,8,0:0:0:0:
256,192,211752,1,0,0:0:0:0:
256,192,212115,1,8,0:0:0:0:
256,192,212479,1,0,0:0:0:0:
256,192,212843,1,8,0:0:0:0:
256,192,213206,1,0,0:0:0:0:
256,192,213752,1,8,0:0:0:0:
256,192,213843,1,8,0:0:0:0:
256,192,213933,1,0,0:0:0:0:
256,192,214115,1,8,0:0:0:0:
256,192,214479,1,8,0:0:0:0:
256,192,214661,1,0,0:0:0:0:
256,192,214752,1,0,0:0:0:0:
256,192,214843,1,0,0:0:0:0:
256,192,215024,1,8,0:0:0:0:
256,192,215206,1,0,0:0:0:0:
256,192,215297,1,0,0:0:0:0:
256,192,215388,1,8,0:0:0:0:
256,192,215570,1,8,0:0:0:0:
256,192,215752,1,0,0:0:0:0:
256,192,216115,1,8,0:0:0:0:
256,192,216661,1,8,0:0:0:0:
256,192,216843,1,0,0:0:0:0:
256,192,217024,1,8,0:0:0:0:
256,192,217388,1,8,0:0:0:0:
256,192,217570,1,0,0:0:0:0:
256,192,217933,1,8,0:0:0:0:
256,192,218297,1,0,0:0:0:0:
256,192,218661,1,12,0:0:0:0:
256,192,219024,1,12,0:0:0:0:
256,192,219570,1,8,0:0:0:0:
256,192,219752,1,0,0:0:0:0:
256,192,219843,1,0,0:0:0:0:
256,192,219933,1,8,0:0:0:0:
256,192,220297,1,0,0:0:0:0:
256,192,220479,1,8,0:0:0:0:
256,192,220570,1,8,0:0:0:0:
256,192,220661,1,0,0:0:0:0:
256,192,220843,1,8,0:0:0:0:
256,192,221024,1,0,0:0:0:0:
256,192,221206,1,8,0:0:0:0:
256,192,221570,1,8,0:0:0:0:
256,192,221933,1,4,0:0:0:0:
256,192,222115,1,4,0:0:0:0:
256,192,222297,1,0,0:0:0:0:
256,192,222661,1,0,0:0:0:0:
256,192,222843,1,8,0:0:0:0:
256,192,223024,1,0,0:0:0:0:
256,192,223388,1,4,0:0:0:0:
256,192,223570,1,4,0:0:0:0:
256,192,223752,1,0,0:0:0:0:
256,192,224115,1,0,0:0:0:0:
256,192,224297,1,8,0:0:0:0:
256,192,224388,1,8,0:0:0:0:
256,192,224479,1,0,0:0:0:0:
256,192,224752,1,8,0:0:0:0:
256,192,224843,1,0,0:0:0:0:
256,192,225024,1,0,0:0:0:0:
256,192,225206,1,8,0:0:0:0:
256,192,225297,1,8,0:0:0:0:
256,192,225388,1,8,0:0:0:0:
256,192,225570,1,0,0:0:0:0:
256,192,225752,1,0,0:0:0:0:
256,192,225843,1,0,0:0:0:0:
256,192,225933,1,8,0:0:0:0:
256,192,226206,1,8,0:0:0:0:
256,192,226297,1,8,0:0:0:0:
256,192,226661,1,8,0:0:0:0:
256,192,226843,1,0,0:0:0:0:
256,192,227024,1,8,0:0:0:0:
256,192,227206,12,0,227752,0:0:0:0:
