osu file format v14

[General]
AudioFilename: audio.ogg
AudioLeadIn: 0
PreviewTime: 70148
Countdown: 0
SampleSet: Normal
StackLeniency: 0.7
Mode: 1
LetterboxInBreaks: 0
WidescreenStoryboard: 0

[Editor]
DistanceSpacing: 2
BeatDivisor: 4
GridSize: 32
TimelineZoom: 2.2

[Metadata]
Title:Hoshifuri
TitleUnicode:ほしふり
Artist:Sana
ArtistUnicode:Sana
Creator:TKS
Version:Kantan
Source:GuitarFreaks V7 & DrumMania V7
Tags:asaki あさき 新谷 さなえ Sanae Shintani GITADORA XG GuitarFreaksXG DrumManiaXG GFDM REFLEC BEAT limelight jubeat saucer konami pop japanese video game
BeatmapID:464805
BeatmapSetID:195958

[Difficulty]
HPDrainRate:8
CircleSize:5
OverallDifficulty:3.5
ApproachRate:5
SliderMultiplier:1
SliderTickRate:1

[Events]
//Background and Video events
0,0,"bg.jpg",0,-60
//Break Periods
//Storyboard Layer 0 (Background)
//Storyboard Layer 1 (Fail)
//Storyboard Layer 2 (Pass)
//Storyboard Layer 3 (Foreground)
//Storyboard Layer 4 (Overlay)
//Storyboard Sound Samples

[TimingPoints]
1536,387.096774193548,4,1,0,60,1,0
7632,-100,4,1,0,70,0,0
10826,-100,4,1,0,85,0,0
30955,-100,4,1,0,60,0,0
33568,-100,4,1,0,85,0,0
71213,-100,4,1,0,85,0,1
95987,-100,4,1,0,85,0,0

[HitObjects]
256,192,1536,5,0,0:0:0:0:
256,192,4632,1,0,0:0:0:0:
256,192,7729,1,0,0:0:0:0:
256,192,9277,1,0,0:0:0:0:
256,192,10826,1,0,0:0:0:0:
256,192,11600,1,0,0:0:0:0:
256,192,12181,1,0,0:0:0:0:
256,192,13148,1,8,0:0:0:0:
256,192,13923,1,4,0:0:0:0:
256,192,14503,1,4,0:0:0:0:
256,192,15471,1,0,0:0:0:0:
256,192,16245,1,0,0:0:0:0:
256,192,17019,1,12,0:0:0:0:
256,192,17600,1,12,0:0:0:0:
256,192,18568,1,0,0:0:0:0:
256,192,19342,1,0,0:0:0:0:
256,192,20116,1,4,0:0:0:0:
256,192,20697,1,4,0:0:0:0:
256,192,21665,1,0,0:0:0:0:
256,192,22439,1,0,0:0:0:0:
256,192,23213,1,12,0:0:0:0:
256,192,23794,1,12,0:0:0:0:
256,192,24761,1,0,0:0:0:0:
256,192,25535,1,0,0:0:0:0:
256,192,26310,1,4,0:0:0:0:
256,192,26890,1,4,0:0:0:0:
256,192,27665,1,4,0:0:0:0:
256,192,29406,1,12,0:0:0:0:
256,192,29987,1,12,0:0:0:0:
256,192,30761,12,0,33277,0:0:0:0:
256,192,34052,5,0,0:0:0:0:
256,192,34632,1,0,0:0:0:0:
256,192,35600,1,0,0:0:0:0:
256,192,37148,1,0,0:0:0:0:
256,192,37729,1,0,0:0:0:0:
256,192,38697,1,8,0:0:0:0:
256,192,40245,1,0,0:0:0:0:
256,192,40826,1,0,0:0:0:0:
256,192,41794,1,0,0:0:0:0:
256,192,43342,1,0,0:0:0:0:
256,192,43923,1,0,0:0:0:0:
256,192,44890,1,8,0:0:0:0:
256,192,46439,1,4,0:0:0:0:
256,192,47213,1,0,0:0:0:0:
256,192,47987,1,8,0:0:0:0:
256,192,49535,1,0,0:0:0:0:
256,192,50310,1,0,0:0:0:0:
256,192,51084,1,8,0:0:0:0:
256,192,52632,1,0,0:0:0:0:
256,192,53406,1,8,0:0:0:0:
256,192,54181,1,0,0:0:0:0:
256,192,55729,1,0,0:0:0:0:
256,192,56503,1,8,0:0:0:0:
256,192,57277,1,8,0:0:0:0:
256,192,58826,1,4,0:0:0:0:
256,192,60374,1,0,0:0:0:0:
256,192,61148,1,8,0:0:0:0:
256,192,61923,1,0,0:0:0:0:
256,192,63471,1,0,0:0:0:0:
256,192,64245,1,8,0:0:0:0:
256,192,65019,1,0,0:0:0:0:
256,192,66568,1,0,0:0:0:0:
256,192,68116,1,8,0:0:0:0:
256,192,68890,1,8,0:0:0:0:
256,192,69665,1,4,0:0:0:0:
256,192,71213,1,4,0:0:0:0:
256,192,71987,1,8,0:0:0:0:
256,192,72761,1,0,0:0:0:0:
256,192,73148,1,0,0:0:0:0:
256,192,73535,1,0,0:0:0:0:
256,192,74310,1,0,0:0:0:0:
256,192,75084,1,8,0:0:0:0:
256,192,75858,1,8,0:0:0:0:
256,192,76245,1,8,0:0:0:0:
256,192,76632,1,8,0:0:0:0:
256,192,77406,1,0,0:0:0:0:
256,192,77987,1,0,0:0:0:0:
256,192,78761,1,0,0:0:0:0:
256,192,79535,1,0,0:0:0:0:
256,192,80503,1,0,0:0:0:0:
256,192,81277,1,0,0:0:0:0:
256,192,81858,1,12,0:0:0:0:
256,192,83987,1,12,0:0:0:0:
256,192,85148,1,0,0:0:0:0:
256,192,85535,1,0,0:0:0:0:
256,192,85923,1,0,0:0:0:0:
256,192,86503,1,8,0:0:0:0:
256,192,87471,1,0,0:0:0:0:
256,192,88052,1,8,0:0:0:0:
256,192,89019,1,0,0:0:0:0:
256,192,89794,1,8,0:0:0:0:
256,192,90374,1,8,0:0:0:0:
256,192,91148,1,8,0:0:0:0:
256,192,92116,1,8,0:0:0:0:
256,192,92890,1,4,0:0:0:0:
256,192,93665,1,0,0:0:0:0:
256,192,94245,1,8,0:0:0:0:
256,192,95213,1,8,0:0:0:0:
256,192,95600,1,8,0:0:0:0:
256,192,95987,1,4,0:0:0:0:
256,192,97535,1,0,0:0:0:0:
256,192,98310,1,8,0:0:0:0:
256,192,99084,1,0,0:0:0:0:
256,192,100632,1,0,0:0:0:0:
256,192,101406,1,8,0:0:0:0:
256,192,102181,1,4,0:0:0:0:
256,192,102761,1,4,0:0:0:0:
256,192,103535,1,4,0:0:0:0:
256,192,105277,1,12,0:0:0:0:
256,192,105858,1,12,0:0:0:0:
256,192,106632,1,12,0:0:0:0:
256,192,108761,1,4,0:0:0:0:
256,192,109342,1,12,0:0:0:0:
256,192,110697,12,0,112632,0:0:0:0:
