osu file format v14

[General]
AudioFilename: audio.ogg
AudioLeadIn: 0
PreviewTime: 70148
Countdown: 0
SampleSet: Normal
StackLeniency: 0.7
Mode: 1
LetterboxInBreaks: 0
WidescreenStoryboard: 0

[Editor]
DistanceSpacing: 2
BeatDivisor: 1
GridSize: 32
TimelineZoom: 2.2

[Metadata]
Title:Hoshifuri
TitleUnicode:ほしふり
Artist:Sana
ArtistUnicode:Sana
Creator:TKS
Version:Futsuu
Source:GuitarFreaks V7 & DrumMania V7
Tags:asaki あさき 新谷 さなえ Sanae Shintani GITADORA XG GuitarFreaksXG DrumManiaXG GFDM REFLEC BEAT limelight jubeat saucer konami pop japanese video game
BeatmapID:464804
BeatmapSetID:195958

[Difficulty]
HPDrainRate:7
CircleSize:5
OverallDifficulty:4
ApproachRate:5
SliderMultiplier:1.2
SliderTickRate:1

[Events]
//Background and Video events
0,0,"bg.jpg",0,-60
//Break Periods
//Storyboard Layer 0 (Background)
//Storyboard Layer 1 (Fail)
//Storyboard Layer 2 (Pass)
//Storyboard Layer 3 (Foreground)
//Storyboard Layer 4 (Overlay)
//Storyboard Sound Samples

[TimingPoints]
1536,387.096774193548,4,1,0,60,1,0
7632,-100,4,1,0,70,0,0
10826,-100,4,1,0,85,0,0
30955,-100,4,1,0,60,0,0
33568,-100,4,1,0,85,0,0
71213,-100,4,1,0,85,0,1
95987,-100,4,1,0,85,0,0

[HitObjects]
256,192,1536,5,0,0:0:0:0:
256,192,2116,1,0,0:0:0:0:
256,192,3084,1,0,0:0:0:0:
256,192,4632,1,0,0:0:0:0:
256,192,5213,1,0,0:0:0:0:
256,192,6181,1,0,0:0:0:0:
256,192,7729,1,0,0:0:0:0:
256,192,8116,1,8,0:0:0:0:
256,192,8310,1,8,0:0:0:0:
256,192,8890,1,8,0:0:0:0:
256,192,9277,1,0,0:0:0:0:
256,192,9665,1,8,0:0:0:0:
256,192,9858,1,8,0:0:0:0:
256,192,10439,1,8,0:0:0:0:
256,192,10826,1,4,0:0:0:0:
256,192,11213,1,8,0:0:0:0:
256,192,11600,1,0,0:0:0:0:
256,192,11987,1,8,0:0:0:0:
256,192,12181,1,8,0:0:0:0:
256,192,12761,1,12,0:0:0:0:
256,192,13148,1,0,0:0:0:0:
256,192,13535,1,8,0:0:0:0:
256,192,13729,1,8,0:0:0:0:
256,192,13923,1,4,0:0:0:0:
256,192,14503,1,4,0:0:0:0:
256,192,15471,1,0,0:0:0:0:
256,192,15858,1,8,0:0:0:0:
256,192,16245,1,0,0:0:0:0:
256,192,16439,1,0,0:0:0:0:
256,192,16632,1,8,0:0:0:0:
256,192,17019,1,12,0:0:0:0:
256,192,17600,1,12,0:0:0:0:
256,192,18568,1,0,0:0:0:0:
256,192,18955,1,8,0:0:0:0:
256,192,19342,1,0,0:0:0:0:
256,192,19535,1,0,0:0:0:0:
256,192,19729,1,8,0:0:0:0:
256,192,20116,1,4,0:0:0:0:
256,192,20697,1,4,0:0:0:0:
256,192,21665,1,0,0:0:0:0:
256,192,22052,1,8,0:0:0:0:
256,192,22439,1,8,0:0:0:0:
256,192,22632,1,8,0:0:0:0:
256,192,22826,1,0,0:0:0:0:
256,192,23213,1,12,0:0:0:0:
256,192,23794,1,12,0:0:0:0:
256,192,24761,1,0,0:0:0:0:
256,192,25148,1,8,0:0:0:0:
256,192,25535,1,8,0:0:0:0:
256,192,25729,1,8,0:0:0:0:
256,192,25923,1,0,0:0:0:0:
256,192,26116,1,0,0:0:0:0:
256,192,26310,1,12,0:0:0:0:
256,192,26890,1,12,0:0:0:0:
256,192,27665,1,12,0:0:0:0:
256,192,28245,1,8,0:0:0:0:
256,192,28439,1,8,0:0:0:0:
256,192,29019,1,8,0:0:0:0:
256,192,29406,1,4,0:0:0:0:
256,192,29987,1,4,0:0:0:0:
256,192,30374,1,8,0:0:0:0:
256,192,30568,1,8,0:0:0:0:
256,192,30761,12,0,33277,0:0:0:0:
256,192,34052,5,0,0:0:0:0:
256,192,34632,1,0,0:0:0:0:
256,192,35213,1,8,0:0:0:0:
256,192,35600,1,0,0:0:0:0:
256,192,37148,1,0,0:0:0:0:
256,192,37729,1,0,0:0:0:0:
256,192,38310,1,8,0:0:0:0:
256,192,38697,1,0,0:0:0:0:
256,192,40245,1,0,0:0:0:0:
256,192,40826,1,0,0:0:0:0:
256,192,41406,1,8,0:0:0:0:
256,192,41794,1,0,0:0:0:0:
256,192,43342,1,0,0:0:0:0:
256,192,43923,1,0,0:0:0:0:
256,192,44503,1,8,0:0:0:0:
256,192,44890,1,0,0:0:0:0:
256,192,45277,1,8,0:0:0:0:
256,192,45665,1,0,0:0:0:0:
256,192,45858,1,0,0:0:0:0:
256,192,46052,1,8,0:0:0:0:
256,192,46439,1,4,0:0:0:0:
256,192,46826,1,8,0:0:0:0:
256,192,47213,1,0,0:0:0:0:
256,192,47600,1,8,0:0:0:0:
256,192,47794,1,8,0:0:0:0:
256,192,48955,1,0,0:0:0:0:
256,192,49148,1,8,0:0:0:0:
256,192,49535,1,0,0:0:0:0:
256,192,49923,1,8,0:0:0:0:
256,192,50310,1,0,0:0:0:0:
256,192,50697,1,8,0:0:0:0:
256,192,50890,1,8,0:0:0:0:
256,192,52052,1,0,0:0:0:0:
256,192,52245,1,8,0:0:0:0:
256,192,52632,1,4,0:0:0:0:
256,192,53019,1,8,0:0:0:0:
256,192,53406,1,0,0:0:0:0:
256,192,53794,1,8,0:0:0:0:
256,192,53987,1,8,0:0:0:0:
256,192,55148,1,0,0:0:0:0:
256,192,55342,1,8,0:0:0:0:
256,192,55729,1,4,0:0:0:0:
256,192,56116,1,8,0:0:0:0:
256,192,56503,1,0,0:0:0:0:
256,192,56890,1,8,0:0:0:0:
256,192,57471,1,8,0:0:0:0:
256,192,57665,1,8,0:0:0:0:
256,192,58052,1,0,0:0:0:0:
256,192,58439,1,8,0:0:0:0:
256,192,58826,1,4,0:0:0:0:
256,192,59213,1,8,0:0:0:0:
256,192,59406,1,8,0:0:0:0:
256,192,59987,1,8,0:0:0:0:
256,192,60374,1,0,0:0:0:0:
256,192,60761,1,8,0:0:0:0:
256,192,60955,1,8,0:0:0:0:
256,192,61342,1,0,0:0:0:0:
256,192,61535,1,0,0:0:0:0:
256,192,61923,1,0,0:0:0:0:
256,192,62697,1,0,0:0:0:0:
256,192,63084,1,8,0:0:0:0:
256,192,63277,1,8,0:0:0:0:
256,192,63665,1,0,0:0:0:0:
256,192,64052,1,0,0:0:0:0:
256,192,64632,1,8,0:0:0:0:
256,192,65019,1,4,0:0:0:0:
256,192,65406,1,0,0:0:0:0:
256,192,65600,1,0,0:0:0:0:
256,192,65987,1,8,0:0:0:0:
256,192,66181,1,8,0:0:0:0:
256,192,66568,1,0,0:0:0:0:
256,192,67148,1,0,0:0:0:0:
256,192,67535,1,8,0:0:0:0:
256,192,67729,1,8,0:0:0:0:
256,192,68116,1,0,0:0:0:0:
256,192,68503,1,8,0:0:0:0:
256,192,68697,1,8,0:0:0:0:
256,192,69084,1,8,0:0:0:0:
256,192,69277,1,8,0:0:0:0:
256,192,69471,1,0,0:0:0:0:
256,192,69665,1,12,0:0:0:0:
256,192,71213,1,4,0:0:0:0:
256,192,71600,1,8,0:0:0:0:
256,192,71794,1,0,0:0:0:0:
256,192,72181,1,0,0:0:0:0:
256,192,72374,1,8,0:0:0:0:
256,192,72568,1,8,0:0:0:0:
256,192,72761,1,0,0:0:0:0:
256,192,73148,1,8,0:0:0:0:
256,192,73535,1,0,0:0:0:0:
256,192,73923,1,8,0:0:0:0:
256,192,74116,1,8,0:0:0:0:
256,192,74503,1,0,0:0:0:0:
256,192,74697,1,8,0:0:0:0:
256,192,75084,1,0,0:0:0:0:
256,192,75277,1,0,0:0:0:0:
256,192,75471,1,8,0:0:0:0:
256,192,75858,1,0,0:0:0:0:
256,192,76052,1,0,0:0:0:0:
256,192,76245,1,8,0:0:0:0:
256,192,76439,1,8,0:0:0:0:
256,192,76632,1,0,0:0:0:0:
256,192,77406,1,0,0:0:0:0:
256,192,77794,1,8,0:0:0:0:
256,192,77987,1,8,0:0:0:0:
256,192,78374,1,0,0:0:0:0:
256,192,78761,1,0,0:0:0:0:
256,192,79148,1,8,0:0:0:0:
256,192,79342,1,8,0:0:0:0:
256,192,79535,1,8,0:0:0:0:
256,192,79923,1,0,0:0:0:0:
256,192,80116,1,8,0:0:0:0:
256,192,80503,1,4,0:0:0:0:
256,192,80890,1,8,0:0:0:0:
256,192,81277,1,0,0:0:0:0:
256,192,81665,1,8,0:0:0:0:
256,192,81858,1,8,0:0:0:0:
256,192,82245,1,8,0:0:0:0:
128,128,82826,2,0,L|128:160,8,30,0|0|8|0|8|8|8|8|0,0:0|0:0|0:0|0:0|0:0|0:0|0:0|0:0|0:0,0:0:0:0:
256,192,83987,1,12,0:0:0:0:
256,192,84374,1,0,0:0:0:0:
256,192,84761,1,8,0:0:0:0:
256,192,84955,1,0,0:0:0:0:
256,192,85342,1,0,0:0:0:0:
256,192,85535,1,8,0:0:0:0:
256,192,85923,1,8,0:0:0:0:
256,192,86116,1,0,0:0:0:0:
256,192,86310,1,0,0:0:0:0:
256,192,86503,1,8,0:0:0:0:
256,192,86890,1,0,0:0:0:0:
256,192,87084,1,8,0:0:0:0:
256,192,87277,1,8,0:0:0:0:
256,192,87471,1,0,0:0:0:0:
256,192,87858,1,0,0:0:0:0:
256,192,88052,1,8,0:0:0:0:
256,192,88439,1,8,0:0:0:0:
256,192,89019,1,8,0:0:0:0:
256,192,89213,1,0,0:0:0:0:
256,192,89406,1,8,0:0:0:0:
256,192,89794,1,0,0:0:0:0:
256,192,90181,1,8,0:0:0:0:
256,192,90374,1,8,0:0:0:0:
256,192,90761,1,0,0:0:0:0:
256,192,90955,1,0,0:0:0:0:
256,192,91148,1,0,0:0:0:0:
256,192,91535,1,0,0:0:0:0:
256,192,91729,1,8,0:0:0:0:
256,192,92116,1,0,0:0:0:0:
256,192,92310,1,0,0:0:0:0:
256,192,92503,1,8,0:0:0:0:
256,192,92890,1,4,0:0:0:0:
256,192,93277,1,8,0:0:0:0:
256,192,93665,1,0,0:0:0:0:
256,192,94052,1,8,0:0:0:0:
256,192,94245,1,8,0:0:0:0:
256,192,94632,1,0,0:0:0:0:
256,192,94826,1,0,0:0:0:0:
256,192,95213,1,8,0:0:0:0:
256,192,95600,1,8,0:0:0:0:
256,192,95987,1,4,0:0:0:0:
256,192,96374,1,8,0:0:0:0:
256,192,96955,1,0,0:0:0:0:
256,192,97148,1,8,0:0:0:0:
256,192,97535,1,0,0:0:0:0:
256,192,97923,1,8,0:0:0:0:
256,192,98697,1,8,0:0:0:0:
256,192,99084,1,0,0:0:0:0:
256,192,99471,1,8,0:0:0:0:
256,192,100052,1,0,0:0:0:0:
256,192,100245,1,8,0:0:0:0:
256,192,100632,1,0,0:0:0:0:
256,192,101019,1,8,0:0:0:0:
256,192,101794,1,8,0:0:0:0:
256,192,102181,1,4,0:0:0:0:
256,192,102761,1,4,0:0:0:0:
256,192,103535,1,4,0:0:0:0:
256,192,104116,1,8,0:0:0:0:
256,192,104697,1,0,0:0:0:0:
256,192,104890,1,8,0:0:0:0:
256,192,105277,1,12,0:0:0:0:
256,192,105858,1,12,0:0:0:0:
256,192,106632,1,12,0:0:0:0:
256,192,107213,1,8,0:0:0:0:
256,192,107406,1,0,0:0:0:0:
192,96,107600,2,0,L|160:96,8,30,8|8|8|8|8|8|8|8|0,0:0|0:0|0:0|0:0|0:0|0:0|0:0|0:0|0:0,0:0:0:0:
256,192,108761,1,4,0:0:0:0:
256,192,108955,1,4,0:0:0:0:
256,192,109342,1,12,0:0:0:0:
256,192,109535,1,12,0:0:0:0:
256,192,110503,1,0,0:0:0:0:
256,192,110697,12,0,112632,0:0:0:0:
